#TITLE:one or eight;
#SUBTITLE:;
#ARTIST:sampling masters AYA;
#TITLETRANSLIT:;
#SUBTITLETRANSLIT:;
#ARTISTTRANSLIT:;
#GENRE:;
#CREDIT:;
#BANNER:one or eight.png;
#BACKGROUND:one or eight-bg.png;
#LYRICSPATH:;
#CDTITLE:Beatmania IIDX.png;
#MUSIC:one or eight.ogg;
#OFFSET:-0.030000;
#SAMPLESTART:68.132782;
#SAMPLELENGTH:15.000000;
#SELECTABLE:YES;
#BPMS:0.000000=155.000000
;
#STOPS:
;
#BGCHANGES:16.000=circle1.mp4=1.000=1=0=1===CrossFade==,
24.000=cube8.mp4=1.000=0=0=1=====,
32.000=circle1.mp4=1.000=0=1=1=StretchRewind====,
40.000=cube8r.mp4=1.000=0=0=1=====,
44.000=bluey1.mp4=1.000=0=0=1=====,
48.000=arrows1.mp4=1.000=0=0=1=====,
52.000=text17.mp4=1.400=0=0=1=====,
56.000=letters1.mp4=1.000=0=0=1=====,
60.000=text17r.mp4=1.400=0=0=1=====,
64.000=cube7.mp4=1.000=0=0=1=====,
68.000=cube12.mp4=1.000=0=0=1=====,
72.000=cube13.mp4=1.000=0=0=1=====,
76.000=bluey2.mp4=1.000=0=0=1=====,
80.000=cube4.mp4=1.000=0=0=1=====,
88.000=bubble1.mp4=1.000=0=0=1=====,
96.000=cube4.mp4=1.000=0=1=1=StretchRewind====,
104.000=bubble1r.mp4=1.000=0=0=1=====,
112.000=cube8.mp4=1.000=0=1=1=StretchRewind====,
120.000=bluey1.mp4=1.000=0=1=1=StretchRewind====,
128.000=cube8r.mp4=1.000=0=1=1=StretchRewind====,
136.000=circle1.mp4=1.000=0=1=1=StretchRewind====,
144.000=cube4.mp4=1.000=0=1=1=StretchRewind====,
152.000=bluey2.mp4=1.000=0=1=1=StretchRewind====,
160.000=arrows1.mp4=1.000=0=1=1=StretchRewind====,
168.000=text17.mp4=1.400=0=1=1=StretchRewind====,
172.000=bluey1.mp4=1.000=0=1=1=StretchRewind====,
176.000=letters1.mp4=1.000=0=1=1=StretchRewind====,
192.000=bubble1.mp4=1.000=0=1=1=StretchRewind====,
208.000=arrows1.mp4=1.000=0=1=1=StretchRewind====,
216.000=text17.mp4=1.400=0=1=1=StretchRewind====,
224.000=circle1.mp4=1.000=0=1=1=StretchRewind====,
232.000=text17r.mp4=1.400=0=1=1=StretchRewind====,
236.000=bluey2.mp4=2.000=0=1=1=StretchRewind====,
238.500=one or eight-bg.png=1.000=0=0=1=====,
99999=-nosongbg-=1.000=0=0=0 // don't automatically add -songbackground-
;
#KEYSOUNDS:;
#ATTACKS:;

//---------------dance-single - ----------------
#NOTES:
     dance-single:
     :
     Beginner:
     3:
     0.000000,0.000000,0.000000,0.000000,0.000000,0.000000,0.000000,0.000000,0.000000,0.000000,0.000000,0.000000,0.000000,0.000000,0.000000,0.000000,0.000000,0.000000,0.000000,0.000000,0.000000,0.000000:
0000
0000
0000
0000
,
0000
0000
0000
0000
,
0000
0000
0000
0000
,
0000
0000
0000
0000
,
1000
0000
1000
0000
,
1000
0000
0000
0000
,
0001
0000
0001
0000
,
0001
0000
0000
0000
,
1000
0000
1000
0000
,
1000
0000
0000
0000
,
0001
0000
0001
0000
,
1001
0000
0000
0000
,
0100
0000
0100
0100
,
0100
0000
0000
0000
,
0100
0000
0100
0100
,
0100
0000
0000
0000
,
0010
0000
0010
0010
,
0010
0000
0000
0000
,
0010
0000
0010
0010
,
0110
0000
0000
0000
,
2000
0000
3000
0000
,
1000
0000
1000
0000
,
0001
0000
0000
0000
,
0001
0000
0000
0000
,
0002
0000
0003
0000
,
1000
0000
1000
0000
,
0010
0000
0000
0000
,
0010
0000
0000
0000
,
1000
0000
1000
0000
,
1000
0000
0000
0000
,
0010
0000
0010
0000
,
0010
0000
0000
0000
,
0100
0000
0100
0000
,
0100
0000
0000
0000
,
0001
0000
0001
0000
,
1001
0000
0000
0000
,
2000
0000
0000
3000
,
0000
0000
0000
0000
,
0002
0000
0000
0003
,
0000
0000
0000
0000
,
0200
0000
0000
0300
,
0000
0000
0000
0000
,
0020
0000
0000
0000
,
0030
0000
0000
0000
,
1000
1000
1000
0000
,
1000
1000
1000
0000
,
0001
0001
0001
0000
,
0001
0001
0001
0000
,
0100
0100
0100
0000
,
0100
0100
0100
0000
,
0010
0010
0010
0000
,
0010
0010
0010
0000
,
1000
0000
1000
0000
,
1000
0000
0000
0000
,
0001
0000
0001
0000
,
0001
0000
0000
0000
,
0100
0000
0100
0000
,
0100
0000
0000
0000
,
0010
0000
0010
0000
,
0010
0000
0000
0000
0000
2002
0000
0000
,
0000
0000
3003
0000
;

//---------------dance-single - ----------------
#NOTES:
     dance-single:
     :
     Easy:
     7:
     0.000000,0.000000,0.000000,0.000000,0.000000,0.000000,0.000000,0.000000,0.000000,0.000000,0.000000,0.000000,0.000000,0.000000,0.000000,0.000000,0.000000,0.000000,0.000000,0.000000,0.000000,0.000000:
0000
0000
0000
0000
,
0000
0000
0000
0000
,
0000
0000
0000
0000
,
0000
0000
0000
0000
,
2000
0000
3100
0010
,
0002
0000
1003
0001
,
2000
0000
3010
0100
,
0001
1000
0100
1000
,
0020
0000
0130
0001
,
0020
0000
0031
0010
,
0200
0000
1300
0100
,
1001
0000
0000
0000
,
1000
1000
0001
1000
,
0001
0001
0100
0010
,
0100
0100
0010
0100
,
0010
1000
0100
1001
,
0001
0001
0100
0001
,
1000
1000
0001
0010
,
0100
0100
1000
0100
,
1001
0000
0000
0000
,
1000
1000
1000
1001
,
0001
0000
0100
0000
,
0010
0010
1000
1000
,
0100
0100
0010
0010
,
0001
0001
0001
1001
,
0010
0000
0001
0000
,
1000
1000
0100
0100
,
0001
0001
0100
0100
,
1000
0000
0000
0100
1000
0000
0000
0100
,
1000
0010
0100
0001
,
0010
0000
0000
0010
0001
0000
0000
0010
,
0001
0001
0001
0000
,
0110
0000
0000
0010
1000
0000
0000
0010
,
1000
0100
0010
0001
,
1000
0000
0000
0001
1000
0000
0000
0001
,
1000
0000
0000
0000
,
2001
0000
0000
0000
,
3010
0010
1000
1000
,
1002
0000
0000
0000
,
0013
0010
0001
0001
,
0200
0000
0310
0000
,
0020
0000
1030
0000
,
1000
0100
0010
0001
,
1001
0000
0000
0000
,
0001
0001
1000
0010
,
1000
1000
0100
1001
,
0010
0010
0001
0100
,
0010
0010
1000
1001
,
0100
0100
0001
0010
,
0100
0100
1000
1001
,
0010
0010
0001
0100
,
0110
0010
1010
1000
,
1001
0000
0000
0001
0100
0000
0000
0001
,
0100
0010
1000
0100
,
1001
0000
0000
1000
0100
0000
0000
1000
,
0100
1100
1000
1001
,
0011
0000
0000
0001
0100
0000
0000
0001
,
0100
0010
1000
0100
,
2000
3001
0002
1003
,
1001
0000
0100
0010
0000
2002
0000
0000
,
0000
0000
3003
0000
;

//---------------dance-single - ----------------
#NOTES:
     dance-single:
     :
     Medium:
     9:
     0.000000,0.000000,0.000000,0.000000,0.000000,0.000000,0.000000,0.000000,0.000000,0.000000,0.000000,0.000000,0.000000,0.000000,0.000000,0.000000,0.000000,0.000000,0.000000,0.000000,0.000000,0.000000:
0000
0000
0000
0000
,
0000
0000
0000
0000
,
0000
0000
0000
0000
,
0000
0000
0000
0000
,
1000
1000
0000
0001
0100
0001
0000
1000
,
0020
0100
0001
1030
,
0010
0010
0000
1000
0100
1000
0000
0001
,
0010
0001
1000
0100
1000
0010
0100
0000
,
0001
0001
0000
1000
0010
1000
0000
0001
,
0100
1000
0100
0001
0100
0010
1000
0000
,
0100
0100
0000
1000
0100
1000
0000
0001
,
0011
0000
0000
0000
,
1000
2000
0000
3001
1000
0001
1000
0010
,
0200
0001
1000
0310
,
0100
0200
0000
0310
1000
0010
0100
0001
,
0200
0000
0302
0000
1003
0001
1001
0000
,
0001
0002
0000
1003
0001
1000
0010
0100
,
0002
1000
0010
0103
,
0010
0020
0000
1030
0100
1000
0010
0001
,
1010
0000
0000
0000
,
1000
1000
1000
0000
0001
1000
0001
0000
,
0100
0000
0010
0000
1000
0010
1000
0100
,
0010
0011
0001
1001
,
1000
1100
0100
0110
,
0010
0010
0010
0000
0001
1000
0001
0000
,
0100
0000
0010
0000
1000
0100
0001
0100
,
0010
1100
0100
0011
,
1000
0000
1001
0000
0001
0010
0100
1000
,
0002
0000
0000
1000
1000
0000
0000
0100
,
0103
0000
0001
0000
0010
0100
1000
0000
,
0200
0000
0000
0001
0001
0000
0000
1000
,
1300
0100
1000
0010
,
2001
0000
0000
0010
0010
0000
0000
0100
,
3100
0000
1000
0000
0010
0100
0001
0000
,
0021
0000
0000
1000
1000
0000
0000
0001
,
0031
0000
0000
0000
,
0012
0000
0000
0100
0100
0000
0000
0010
,
0013
0000
0000
0001
0000
0000
1000
0000
0000
0100
0000
0000
1000
0000
0010
0000
,
0210
0000
0000
1000
1000
0000
0000
0001
,
0301
0000
0000
0100
0000
0000
0010
0000
0000
1000
0000
0000
0100
0000
1000
0000
,
0002
0000
0000
1003
0010
0200
0000
0301
,
0100
0000
0000
0010
0000
0000
1000
0000
0000
0100
0000
0000
0010
0000
0001
0000
,
1000
0200
0000
0310
0001
2000
0000
3010
,
0110
0000
0000
0000
,
0100
0010
0100
0000
0001
0100
0001
0000
,
1000
0010
1000
0000
0010
0010
0010
0000
,
1000
0100
0010
0001
0100
0000
1100
0000
,
0100
0010
0001
0000
0001
0010
0100
0000
,
0010
1000
0010
0000
0100
0001
0100
0000
,
0001
0010
0001
0000
1000
0001
1000
0000
,
0001
1000
0100
0010
0001
0000
0110
0000
,
1000
0100
0001
0000
0001
0100
1000
0000
,
0100
1000
0000
0100
0010
0000
1100
0000
,
0101
0000
1000
0000
0010
0100
0010
0000
,
0100
0010
0000
1000
0001
0000
0110
0000
,
1001
0001
0001
0000
1000
1000
1000
0000
,
0010
0100
0000
0001
0010
0000
0011
0000
,
1001
0000
1000
0000
0001
0100
0001
0000
,
0010
0001
0000
1000
0100
0000
1001
0000
,
0110
0000
0000
1000
0000
0001
0000
1000
0000
0000
2002
0000
0000
0000
0000
0000
,
0000
0000
3003
0000
;

//---------------dance-single - ----------------
#NOTES:
     dance-single:
     :
     Hard:
     14:
     0.700148,0.820243,0.104723,0.324641,0.733061,468.000000,458.000000,10.000000,31.000000,0.000000,0.000000,0.700148,0.820243,0.104723,0.324641,0.733061,468.000000,458.000000,10.000000,31.000000,0.000000,0.000000:
// measure 0
0000
0000
0000
0000
,  // measure 1
0000
0000
0000
0000
,  // measure 2
0000
0000
0000
0000
,  // measure 3
0000
0000
0000
0000
,  // measure 4
1000
0000
1000
0000
0000
0000
0001
0000
0100
0010
0000
1000
0010
0000
0100
0000
,  // measure 5
0001
0000
0001
0100
0000
0000
0010
0000
1000
0100
0000
1000
0001
0000
0010
0000
,  // measure 6
0100
0000
0100
0000
0000
0000
1000
0000
0100
0010
0000
0100
0001
0000
0100
0000
,  // measure 7
2000
0001
3002
0100
0203
0010
1300
0100
,  // measure 8
0001
0000
0001
0000
0000
0000
1000
0000
0001
0100
0000
0001
0010
0000
0001
0000
,  // measure 9
2000
0010
3020
0100
0230
0001
0310
0100
,  // measure 10
0010
0000
0010
1000
0000
0000
0100
0000
1000
0001
0000
0100
0010
0000
0100
0000
,  // measure 11
0101
0000
0000
0000
0000
0000
0000
0000
0000
0000
0000
0000
1000
0100
1000
0100
,  // measure 12
1000
0010
0000
1000
0100
0001
0100
1000
,  // measure 13
0010
0000
1000
0010
1000
0000
0001
0100
0000
0001
0000
1000
0001
0000
0010
0000
,  // measure 14
0001
0100
0000
0001
0010
1000
0010
0001
,  // measure 15
0100
0000
0010
0000
0100
0000
0001
1000
0000
0100
0000
1000
0001
0100
0001
0000
,  // measure 16
0010
0100
0000
1000
0100
0010
0100
0001
,  // measure 17
0100
0000
1000
0100
1000
0000
0001
0100
0000
0010
0000
1000
0010
0000
0100
0000
,  // measure 18
0001
1000
0000
0010
0001
0010
1000
0010
,  // measure 19
0100
0000
0100
0000
0100
0000
0100
0001
0000
0000
0000
0000
0000
0000
0000
0000
,  // measure 20
1000
0000
1000
0000
1000
0000
1000
0010
1000
0010
0000
0100
0000
0000
0001
0000
,  // measure 21
0020
1000
0001
1030
,  // measure 22
0001
0010
0001
0000
1000
0001
1000
0000
0001
0100
0001
0000
0100
0010
0100
0000
,  // measure 23
0010
1000
0010
0000
1000
0100
1000
0000
0100
0001
0100
0000
1000
0100
1000
0000
,  // measure 24
0010
0000
0010
0000
0010
0000
0010
0100
0010
0100
0000
0001
0000
0000
1000
0000
,  // measure 25
0020
0001
1000
0031
,  // measure 26
0100
0010
0100
0000
0010
1000
0010
0000
1000
0100
1000
0000
0100
0001
0100
0000
,  // measure 27
0010
0001
0010
0000
0001
1000
0001
0000
1000
0100
0010
0000
0001
0010
0100
0000
,  // measure 28
1001
1000
0200
0000
1300
0001
0020
0000
,  // measure 29
0031
0000
0010
0000
0100
0000
1000
0000
0100
1000
0000
0010
0000
0000
1000
0000
,  // measure 30
1001
0001
0020
0000
0031
1000
0200
0000
,  // measure 31
1300
0000
0100
0000
0010
0000
0001
0000
0100
0001
0100
0010
0000
0000
0100
0000
,  // measure 32
0101
0100
0020
0000
1030
0100
0002
0000
,  // measure 33
0103
0000
1000
0000
0100
0000
0010
0001
0000
0010
0000
0000
0001
1000
0001
0000
,  // measure 34
1100
1000
0020
0000
1030
0010
0002
0000
,  // measure 35
0013
0000
0000
0000
,  // measure 36
1001
0000
0000
0001
0020
0000
0000
0000
0130
0000
0000
1000
0200
0000
0000
0000
,  // measure 37
1300
0000
0010
1000
0000
0000
0010
0000
0000
0100
0000
0001
0100
0000
0001
0000
,  // measure 38
1001
0000
0000
0010
0100
0000
0001
0000
0020
0000
0000
0031
0010
0100
1000
0000
,  // measure 39
0100
0000
1000
0100
0000
1000
0100
0000
0010
0001
0000
0010
0001
0000
0100
0000
,  // measure 40
0110
0000
0000
0010
1000
0000
0001
0000
0200
0000
0000
0301
0100
0010
1000
0000
,  // measure 41
0100
0000
0100
1000
0000
0000
0100
0000
0000
0010
0000
0001
0010
0100
1000
0000
,  // measure 42
0001
1000
0000
0001
1000
0000
0100
0000
1000
0100
0000
1000
0001
0100
0020
0000
,  // measure 43
0030
0000
0000
0000
,  // measure 44
1000
0001
1000
0000
0001
0000
0100
0001
0000
0010
0000
0001
0010
0001
0010
0001
,  // measure 45
0100
0000
0010
0000
0100
0010
0000
0100
0000
0001
1000
0100
0000
0000
0000
0100
,  // measure 46
1000
0000
0100
0000
0010
0000
0100
0000
1000
0000
0001
1000
0000
2000
0000
0000
,  // measure 47
3010
0000
0100
0010
0000
0020
0000
0000
0130
0000
0001
1000
0000
1002
0000
0000
,  // measure 48
0013
0001
0010
0000
0001
0000
1000
0100
0000
0100
1000
0000
0001
0100
0001
0100
,  // measure 49
0001
0000
0010
0000
0100
1000
0000
0100
0000
0010
0001
1000
0100
0000
1000
0000
,  // measure 50
0001
0000
0010
0000
1000
0000
0010
0000
0001
0000
0100
0010
0000
0020
0000
0000
,  // measure 51
1030
0000
0001
1000
0000
2000
0000
0000
3010
0000
0010
0100
0000
1002
0000
0000
,  // measure 52
0103
0000
0000
0100
0001
0000
1000
0000
0100
0000
0010
0000
0100
0000
1000
0000
,  // measure 53
0001
0000
1000
0010
0000
1000
0000
0001
1000
0000
0001
0100
0001
0000
0100
0000
,  // measure 54
0010
0000
0000
0010
0100
0000
1000
0000
0100
0000
0001
0000
0100
0000
0010
0000
,  // measure 55
1000
0000
1000
0100
0000
0200
0000
0000
1300
0000
0001
0100
0000
0200
0000
0000
,  // measure 56
0310
0000
0000
0100
0001
0100
0001
0000
1000
0000
0010
0000
0100
0000
0001
0000
,  // measure 57
1000
0000
1000
0100
0000
1000
0000
0001
0100
0000
0001
0010
0001
0000
1000
0000
,  // measure 58
0100
1000
0000
0100
0000
1000
0000
0010
0000
0100
0000
0001
0000
0010
0000
0001
,  // measure 59
1000
0000
0001
0010
0001
0010
0000
0001
0000
0002
2000
0000
0000
0000
0000
0000
,  // measure 60
0000
3003
0000
0000
;
