#TITLE:n/a;
#SUBTITLE:;
#ARTIST:Blacklolita;
#TITLETRANSLIT:;
#SUBTITLETRANSLIT:;
#ARTISTTRANSLIT:;
#GENRE:SYMPHONIC DUBSTEP;
#CREDIT:;
#BANNER:n-a.png;
#BACKGROUND:n-a-background.png;
#LYRICSPATH:;
#CDTITLE:yosefu_cdtitle_v2.png;
#MUSIC:n-a.ogg;
#OFFSET:-0.080000;
#SAMPLESTART:79.226578;
#SAMPLELENGTH:15.058823;
#SELECTABLE:YES;
#DISPLAYBPM:85.000000:255.000000;
#BPMS:0.000000=170.000000
,160.000000=85.000000
,176.000000=170.000000
,180.000000=180.000000
,184.000000=190.000000
,188.000000=200.000000
,192.000000=210.000000
,196.000000=220.000000
,200.000000=230.000000
,204.000000=240.000000
,208.000000=255.000000
,380.000000=510.000000
,384.000000=1020.000000
,388.000000=2040.000000
,392.000000=4080.000000
,400.000000=255.000000
;
#STOPS:
;
#BGCHANGES:0.000=n-a.avi=1.000=1=0=0=StretchNoLoop==CrossFade==,
99999=-nosongbg-=1.000=0=0=0 // don't automatically add -songbackground-
;
#KEYSOUNDS:;
#ATTACKS:;

//---------------dance-single - ----------------
#NOTES:
     dance-single:
     :
     Beginner:
     5:
     0.234057,0.417959,0.493191,0.150465,0.000000,196.000000,137.000000,59.000000,18.000000,0.000000,0.000000,0.234057,0.417959,0.493191,0.150465,0.000000,196.000000,137.000000,59.000000,18.000000,0.000000,0.000000:
0000
0000
0000
0000
,
0000
0000
0000
0000
,
0000
0000
0000
0000
,
0000
0000
0000
0000
,
0000
0000
0000
0000
,
0000
0000
0000
0000
,
1000
0000
0000
0000
,
0001
0000
0000
0000
,
0010
0000
0000
0000
,
0100
0000
1001
0000
,
1000
0000
0000
0000
,
0001
0000
0000
0000
,
1000
0000
0000
0000
,
0001
0000
0000
0000
,
1000
0000
1000
0000
,
0001
0000
0001
0000
,
0100
0000
0100
0000
,
0020
0000
0030
0000
,
1001
0000
0110
0000
,
1001
0000
0110
0000
,
1001
0000
1000
0000
,
0001
0000
0001
0000
,
2000
0000
3000
0000
,
0002
0000
0003
0000
,
1000
0000
1001
0000
,
0100
0000
1001
0000
,
0001
0000
0110
0000
,
1000
0000
0110
0000
,
0001
0000
1001
0000
,
1000
0000
1001
0000
,
0001
0000
0110
0000
,
1000
0000
0110
0000
,
0001
0001
0001
0000
,
1000
1000
1000
0000
,
0010
0010
0010
0000
,
0100
0100
0110
0000
,
0001
0000
0110
0000
,
1000
0000
0110
0000
,
0001
0000
1001
0000
,
1000
0000
0110
0000
,
0002
0003
0020
0030
,
0200
0300
2000
3000
,
0020
0030
0200
0300
,
0002
0003
2000
3000
,
1001
0000
0000
0000
,
0110
0000
0000
0000
,
1001
0000
0000
0000
,
0110
0000
0000
0000
,
1001
0000
0000
0000
,
0110
0000
0000
0000
,
1001
0000
0110
0000
,
1001
0000
0110
0000
,
1001
0000
0000
0000
,
0000
0000
0000
0000
,
1001
0000
0000
0000
,
1001
0000
0000
0000
,
1000
0000
0001
0000
,
0100
0000
0000
0000
,
0110
0000
0000
0000
,
0110
0000
0000
0000
,
0010
0000
1000
0000
,
0002
0000
0003
0000
,
1001
0000
0000
0000
,
0110
0000
0000
0000
,
0001
0000
0010
0000
,
0100
0000
0000
0000
,
1001
0000
0000
0000
,
0110
0000
0000
0000
,
1001
0000
0000
0000
,
1000
0000
0000
0000
,
0001
0000
0001
0000
,
1000
0000
1000
0000
,
0010
0000
0010
0000
,
1001
0000
0000
0000
,
1000
0000
1000
0000
,
0100
0000
0100
0000
,
0020
0000
0030
0000
,
2002
0000
3003
0000
,
1001
0000
0000
0000
,
0110
0000
0000
0000
,
1000
0000
0001
0000
,
0010
0000
0100
0000
,
1001
0000
0000
0000
,
0110
0000
0000
0000
,
1001
0000
0001
0000
,
2000
0000
3000
0000
,
1001
0000
0000
0000
,
0110
0000
0000
0000
,
1001
0000
0000
0000
,
0110
0000
0000
0000
,
1001
0000
0110
0000
,
1001
0000
0110
0000
,
1001
0000
0110
0000
,
1001
0000
0110
0000
,
2002
0000
0000
0000
,
0000
0000
0000
0000
,
0000
0000
0000
0000
,
0000
0000
0000
0000
,
0000
0000
0000
0000
,
0000
0000
0000
0000
,
3003
0000
0000
0000
;

//---------------dance-single - ----------------
#NOTES:
     dance-single:
     :
     Easy:
     10:
     0.377357,0.585142,0.468114,0.259135,0.000000,316.000000,260.000000,56.000000,31.000000,0.000000,1.000000,0.377357,0.585142,0.468114,0.259135,0.000000,316.000000,260.000000,56.000000,31.000000,0.000000,1.000000:
0000
0000
0000
0000
,
0000
0000
0000
0000
,
0000
0000
0000
0000
,
0000
0000
0000
0000
,
0000
0000
0000
0000
,
0000
0000
0000
0000
,
1000
0010
0100
0000
,
0001
0010
0100
0000
,
1000
0001
0100
0000
,
0010
1000
1001
0000
,
1000
0000
0001
0000
,
1000
0000
0001
0000
,
0100
0000
0010
0000
,
0100
0000
0010
0000
,
1000
0100
1000
0100
,
0010
0001
0010
0001
,
1000
0010
0100
0001
,
2000
0000
3200
0000
,
0311
0001
1010
1000
,
0101
0001
1100
1000
,
0001
0100
1000
0100
,
0001
1000
1100
0000
,
2002
0000
0000
0000
,
0000
0000
0000
3003
,
1001
0001
0100
1000
,
0100
0001
0101
0000
,
1001
1000
0100
0001
,
0100
1000
1100
0000
,
1001
0001
0010
1000
,
0010
0001
0011
0000
,
1001
0000
1000
0010
,
0001
0010
1000
0000
,
1001
0001
0010
1000
,
0001
0100
1000
0001
,
1001
1000
0010
0001
,
1000
0100
0202
0303
,
1001
1000
0002
0023
,
2030
3010
0011
0001
,
1001
1000
1010
0010
,
0110
0100
0101
0001
,
1002
0000
0203
0000
,
0320
0000
2030
0000
,
3200
0000
0320
0000
,
0032
0000
2003
0000
,
3001
0000
0100
0000
,
0101
0000
0001
0000
,
1001
0000
1000
0000
,
1100
0000
0100
0000
,
0110
0000
0010
0000
,
0011
0000
0001
0000
,
1001
1000
1010
0010
,
0220
0000
0000
0330
,
2002
0000
0000
0000
,
0000
0000
0000
3003
,
1001
1000
0100
0010
,
0001
0100
0010
1000
,
1001
0001
0100
0000
,
1010
1000
0100
0000
,
0011
0000
0000
0001
0000
0000
1000
0000
,
1010
0010
1001
0000
,
1000
0100
0010
0100
,
2000
0000
3020
0000
,
1030
0001
1000
0001
,
0010
0100
0010
0200
,
1300
0001
0100
0000
,
1010
1000
0001
0000
,
0101
0000
0000
0100
0000
0000
0010
0000
,
1010
1000
1001
0000
,
0001
0010
0100
0000
,
1000
0010
0100
0010
,
0001
0010
1000
0100
,
0001
0100
1000
0010
,
0001
0010
1000
0001
,
0010
0001
1000
0010
,
0001
0010
1000
0100
,
0001
0100
1000
0001
,
0200
0000
0000
0000
,
0320
0000
2030
0000
,
3001
0100
0001
0100
,
0010
1000
0010
2000
,
3001
0010
0100
1000
,
1001
0001
0100
0010
,
1010
0000
0000
1000
0000
0000
0001
0000
,
0011
0010
1001
0000
,
1000
0010
0100
0001
,
2000
0000
0000
0000
,
3001
0000
1000
0000
,
1010
0000
0010
0000
,
0110
0000
0100
0000
,
0101
0000
0001
0000
,
1001
0000
1000
0000
,
1100
0000
0100
0000
,
0110
0000
0010
0000
,
0011
0001
1001
1000
,
2020
0000
0000
0000
,
0000
0000
0000
0000
,
0000
0000
0000
0000
,
0000
0000
0000
0000
,
0000
0000
0000
0000
,
0000
0000
0000
0000
,
3030
0000
0000
0000
;

//---------------dance-single - ----------------
#NOTES:
     dance-single:
     :
     Medium:
     14:
     0.534987,0.794122,0.409600,0.326008,0.075233,448.000000,399.000000,49.000000,39.000000,0.000000,0.000000,0.534987,0.794122,0.409600,0.326008,0.075233,448.000000,399.000000,49.000000,39.000000,0.000000,0.000000:
0000
0000
0000
0000
,
0000
0000
0000
0000
,
0000
0000
0000
0000
,
0000
0000
0000
0000
,
0000
0000
0000
0000
,
0000
0000
0000
0000
,
1000
0100
1000
0100
,
0010
0001
0010
0001
,
1000
0010
1000
0010
,
0100
0001
1002
0000
,
1003
0000
0002
1003
0000
0001
0000
0000
,
0002
0003
0000
0001
0000
0001
0000
0000
,
0000
0000
2000
3000
0000
1000
0000
0000
,
2000
3000
0000
1000
0000
1000
0000
0000
,
0001
0100
0001
0000
1000
0100
1000
0000
,
0001
0010
0001
0000
1000
0010
1000
0000
,
0001
0010
0100
1000
0001
0100
0010
1000
,
0002
0000
0000
1003
0020
0000
0030
0000
,
1010
1000
0000
0000
0011
0001
0000
0000
,
1100
1000
0000
0000
0101
0001
1000
0001
,
1000
0100
0010
0100
1000
0010
0100
0001
,
1000
0100
0010
0001
2000
0000
0000
0000
,
3020
0000
0000
0000
,
0200
0000
0000
0330
,
1001
0000
1000
0100
0001
0100
1000
0100
,
0001
0100
1000
0100
0001
0000
0100
0010
,
1001
0000
0001
0100
1000
0100
0001
0100
,
1000
0100
0001
0100
1000
0000
0100
0010
,
1001
0000
1000
0010
0001
0010
1000
0010
,
0001
0010
1000
0010
0001
0010
1000
0001
,
1001
0000
0000
0000
0000
0000
0000
0000
0001
0000
0010
0000
1000
0000
0010
0100
,
0010
0000
0000
0001
0000
0000
1000
0000
1010
0000
0010
0000
0100
0000
0000
0000
,
1001
0000
0000
0001
0100
0000
0010
0000
0100
0000
0000
0001
1000
0000
0100
0000
,
1000
0000
0000
0010
0100
0000
0001
0000
1000
0000
0000
0100
0010
0000
0001
0000
,
1001
0000
0000
1000
0010
0000
0100
0000
0010
0000
0000
1000
0001
0000
0010
0000
,
0100
0000
0000
1000
0010
0000
0100
0000
0202
0000
0000
0000
0303
0000
0000
0000
,
1001
0000
0000
0001
0000
0000
1001
0000
1000
0010
0000
0010
,
0100
0000
0100
0001
0000
0000
0101
0000
0000
0100
0000
0000
,
0001
0010
0100
1000
0010
0100
0001
0000
,
1000
0100
0010
0001
0100
0010
1000
0001
,
0020
0000
0230
0000
,
2300
0000
3002
0000
,
0203
0000
0320
0000
,
2030
0000
0002
3003
,
1001
0000
1000
0000
,
1010
0000
0010
0000
,
0110
0000
0101
0000
,
0011
0000
1001
0000
,
1100
0100
0110
0010
,
0011
0001
1001
1000
,
0010
1000
0010
0000
1000
0001
1000
0000
,
0002
0000
0000
0000
,
0023
0000
0000
0000
,
0000
0000
0030
0001
,
1000
0000
0010
0000
0100
0000
0001
1000
,
0001
0000
0010
0000
0100
1000
0100
0000
,
0010
0001
0010
0000
0001
1000
0001
0000
,
1000
0000
0000
0010
0000
0000
1000
0000
0001
0000
0000
0000
1000
0000
0000
0000
,
0100
0000
1000
0010
0000
1000
0001
1000
,
0001
1000
1001
0000
,
0001
0100
0001
0000
1000
0100
1000
0000
,
0002
0000
0023
0000
,
0031
0000
1000
0000
0010
0000
0100
0001
,
0100
0000
0010
0000
1000
0001
2000
0000
,
3100
0010
0100
0000
1000
0001
1000
0000
,
0010
0100
0001
0100
0010
1000
0001
0000
,
1000
0000
0100
0010
0000
0100
1000
0100
,
1000
0000
1001
0000
,
0001
0100
0001
0000
1000
0100
1000
0000
,
1001
0001
1000
0001
,
2000
0000
3100
0010
0000
0001
1000
0000
,
0002
0000
0103
0010
0000
1000
0001
0000
,
0010
0100
1000
0000
0001
1000
0010
0000
,
0100
0000
0000
0001
0000
0000
0100
0000
0010
0000
0000
0000
0000
0000
0000
0000
,
2000
0000
3010
0100
0000
0001
1000
0000
,
0002
0000
0013
0100
0000
1000
0001
0000
,
0100
0000
0100
0010
0000
0010
1000
0000
1000
0001
0000
0001
,
0020
0000
0230
0000
,
2300
0000
3001
0100
0000
0001
1000
0000
,
0002
0000
1003
0100
0000
1000
0002
0000
,
1003
0010
0100
0000
0001
0010
0100
0000
,
1000
0001
0100
0000
0001
1000
0100
0000
,
0020
0000
0031
1000
0000
0010
0100
0000
,
0002
1003
1001
0000
,
0001
1000
0010
0000
0100
0001
1000
0000
,
0200
0000
0000
0300
,
1100
0000
1000
0000
,
1001
0000
0001
0000
,
0101
0000
1001
0000
,
1100
0000
0110
0000
,
0011
0001
1001
1000
,
1010
0010
0110
0100
,
0101
1001
1100
1001
,
0011
0110
1100
1010
,
0202
0000
0000
0000
,
0000
0000
0000
0000
,
0000
0000
0000
0000
,
0000
0000
0000
0000
,
0000
0000
0000
0000
,
0000
0000
0000
0000
,
0303
0000
0000
0000
;

//---------------dance-single - ----------------
#NOTES:
     dance-single:
     :
     Hard:
     16:
     0.704559,1.003101,0.443036,0.267494,0.263314,590.000000,537.000000,53.000000,32.000000,0.000000,0.000000,0.704559,1.003101,0.443036,0.267494,0.263314,590.000000,537.000000,53.000000,32.000000,0.000000,0.000000:
0000
0000
0000
0000
,
0000
0000
0000
0000
,
0000
0000
0000
0000
,
0000
0000
0000
0000
,
0000
0000
0000
0000
,
0000
0000
0000
0000
,
1000
0100
0010
0001
,
1000
0010
0100
0001
,
1000
0100
0010
0100
,
1000
0001
1002
0000
,
1003
0000
0010
0100
0001
0000
1000
0000
,
0100
0010
0001
1000
,
0010
0100
0010
1000
,
0001
0010
0100
1000
,
0001
0001
0100
0100
0010
0010
1000
1000
,
0100
0100
0010
0010
0001
0001
1000
1000
,
0010
0010
0100
0100
0001
0001
0010
0010
,
2000
0000
0000
0000
0000
0000
3010
0100
0020
0000
0000
0000
0030
0000
0000
0000
,
0011
0001
2000
3000
1010
0010
0200
0300
,
0101
0000
0001
0000
0020
0000
0030
0000
0110
0000
0100
0000
1000
0001
1000
0001
,
1000
0010
0100
0010
1000
0001
0010
0100
,
1000
0001
1000
0001
0100
0010
0100
0010
1000
0000
0000
0000
0000
0000
0000
0000
,
1002
0000
0100
0000
,
2003
0000
0100
3000
,
1001
0000
0000
0000
1000
0010
1000
0000
0010
0100
0010
0000
0100
0001
0100
0000
,
0001
1000
0001
0000
1000
0100
1000
0000
0100
0000
0000
0000
0010
0000
0001
1000
,
0001
0000
0000
0000
0100
0001
0100
0000
0010
1000
0010
0000
1000
0001
1000
0000
,
0001
0010
0001
0000
0010
0100
0010
0000
0100
0000
1000
0000
1000
0000
1000
0000
,
1001
0000
0000
0000
0001
0100
0001
0000
0100
0010
0100
0000
0010
1000
0010
0000
,
1000
0001
1000
0000
0001
0010
0001
0000
0010
0100
0010
0000
0100
0000
1000
0001
,
2000
0000
0000
0000
3010
0000
0000
0000
1000
0010
1000
0000
0001
0010
0001
0010
,
0001
0000
0000
0101
0000
0000
0110
0000
1010
0000
1000
0000
0002
0000
0000
0000
,
1003
0000
0000
0000
0001
0100
0001
0000
1000
0100
1000
0000
0001
0010
0001
0000
,
1000
0010
1000
0000
0001
0100
0001
0000
1000
0000
0100
0010
0200
0000
0000
0000
,
1300
0000
0000
0000
0001
1000
0010
0000
1000
0001
0010
0000
0001
1000
0100
0000
,
1000
0001
0100
0000
0001
0010
0100
0000
2002
0000
0000
0000
3003
0000
0000
0000
,
1010
0000
0000
0000
0000
0000
0000
0000
0000
0000
0000
0000
1000
0000
0000
0000
0000
0000
0001
0000
0000
0010
0000
0000
0100
0000
0000
0000
1000
0000
0000
0000
0100
0000
0000
0000
1000
0000
0000
0000
0001
0000
0000
0000
0100
0000
0000
0000
,
0001
0100
0010
1000
0000
0000
0011
0000
0000
0001
0000
0000
,
1000
0010
0100
0010
1000
0001
0010
0100
,
0010
0001
0100
0010
0001
0010
1000
0001
,
0020
0000
0230
0000
,
2300
0000
3002
0000
,
0203
0000
0320
0000
,
2030
0000
0002
3003
,
1001
0001
1000
0010
,
1010
1000
0001
0010
,
0011
0001
0101
0100
,
0110
0010
1010
1000
,
1100
1001
1010
0110
,
0101
0011
0110
1100
,
1000
0100
0010
0001
0100
0010
1000
0001
,
0020
0000
0000
0000
,
0230
0000
0000
0000
,
0000
0000
0300
1000
,
1001
0000
1010
0000
0101
0000
0001
1000
,
0100
0000
0110
0000
0010
0001
1000
0000
,
0010
1000
0010
0000
0100
0001
1000
0100
,
0001
0100
0010
0001
0100
0010
1000
0100
,
0010
0000
0000
0000
0001
1000
0001
0000
0000
0000
1000
0001
1000
0000
0000
0000
,
0001
0100
0010
1000
1001
0000
0001
1000
,
0100
0010
0100
0000
1000
0001
0100
0010
,
1000
0100
0010
0001
0100
0010
0100
1000
,
0100
0000
0001
0000
1000
0000
0100
0010
,
0001
0000
1000
0000
0010
0100
0002
0000
,
1003
0010
0100
0000
0001
1000
0010
1000
,
0001
0010
0100
1000
0010
0100
0001
1000
,
0100
0000
0000
0000
1000
0001
1000
0000
0000
0000
0001
1000
0001
0000
0000
0000
,
1000
0100
0010
0001
1001
0000
0000
0000
,
0001
0100
0001
0000
1000
0100
0010
0001
,
1000
0010
0100
0001
0010
0100
1000
0010
,
0002
0000
0013
0100
0000
0001
1000
0100
,
0002
0000
0103
0010
0000
0001
1000
0010
,
0100
0001
1000
0000
0100
0010
0100
1000
,
0001
0100
0010
0100
0001
1000
0100
0010
,
0001
0000
0000
0000
1000
0001
1000
0000
0000
0000
0001
1000
0001
0000
0000
0000
,
1000
0010
0100
0001
1001
0000
1000
0100
,
0010
0001
0010
0001
1000
0001
1000
0010
1000
0010
0100
0001
,
1000
0010
0100
0010
1000
0001
0010
0100
,
2000
0000
3010
0100
0000
0001
0010
0100
,
2000
0000
3010
0100
0000
0001
0020
0000
,
0130
1000
0001
0000
0100
0010
1000
0001
,
0100
0010
0001
0010
1000
0001
0010
0000
,
0100
0000
0000
0000
1000
0001
1000
0000
0000
0000
0001
1000
0001
0000
0000
0000
,
0100
0010
1000
0001
1001
0000
0000
0000
,
1000
0010
0100
0000
0001
0010
0100
1000
,
0002
0000
0000
0003
,
0101
0100
0001
1000
,
1100
0100
0010
0001
,
0011
0010
0011
0001
,
1001
1000
1010
0000
,
1010
1001
0011
0110
,
1100
1001
0101
0110
,
1001
1000
0100
0010
0001
0100
0010
1000
,
1001
0001
0010
0100
1000
0010
0100
0001
,
2002
0000
0000
0000
,
0000
0000
0000
0000
,
0000
0000
0000
0000
,
0000
0000
0000
0000
,
0000
0000
0000
0000
,
0000
0000
0000
0000
,
3003
0000
0000
0000
;

//---------------dance-single - ----------------
#NOTES:
     dance-single:
     empty space:
     Challenge:
     18:
     0.819199,1.253877,0.568424,0.284212,0.476473,686.000000,618.000000,68.000000,34.000000,0.000000,0.000000,0.819199,1.253877,0.568424,0.284212,0.476473,686.000000,618.000000,68.000000,34.000000,0.000000,0.000000:
// measure 0
0000
0000
0000
0000
,  // measure 1
0000
0000
0000
0000
,  // measure 2
0000
0000
0000
0000
,  // measure 3
0000
0000
0000
0000
,  // measure 4
0000
0000
0000
0000
,  // measure 5
0000
0000
0000
0000
,  // measure 6
1000
0100
0010
0100
,  // measure 7
1000
0001
0100
0010
,  // measure 8
1000
0001
0010
0100
,  // measure 9
1000
0001
1002
0000
,  // measure 10
1003
0000
0002
0103
0010
1000
0001
0000
,  // measure 11
0020
0030
0100
1000
0010
0100
0001
0000
,  // measure 12
1000
0000
0200
0300
0010
0001
1000
0000
,  // measure 13
0002
0003
0100
0010
1000
0100
0010
0000
,  // measure 14
0001
0001
1000
1000
0010
0010
0100
0100
,  // measure 15
0010
0010
1000
1000
0100
0100
0010
0010
,  // measure 16
1000
1000
0010
0010
0001
0001
0100
0100
,  // measure 17
2000
0000
0000
0000
0000
0000
3100
0010
0200
0000
0000
0000
0300
0000
0000
0000
,  // measure 18
0101
0101
2000
3000
1010
1010
0002
0003
,  // measure 19
0110
0000
0110
0000
2000
0000
3000
0000
0110
0000
0110
0000
0001
1000
0100
0010
,  // measure 20
0001
0000
0100
0000
0010
0000
0100
0000
0001
1000
0100
0010
0100
1000
0001
0100
,  // measure 21
0010
1000
0001
0010
0100
0010
0001
1000
0010
0000
0000
0000
0000
0000
0000
0000
,  // measure 22
2010
0100
0001
0100
,  // measure 23
3020
0100
1000
0130
,  // measure 24
0101
0000
0000
0000
0001
0100
0010
1000
0001
0010
0100
1000
0001
0100
0010
1000
,  // measure 25
0001
0010
0100
1000
0001
0100
0010
1000
0001
0000
0000
0000
1000
0000
0100
0010
,  // measure 26
0001
0000
0000
0000
1000
0010
0100
0001
1000
0100
0010
0001
1000
0010
0100
0001
,  // measure 27
1000
0100
0010
0001
1000
0010
0100
0001
1000
0000
0001
0000
0001
0000
0001
0000
,  // measure 28
0101
0000
0000
0000
0001
1000
0100
0010
0001
1000
0010
0100
0001
1000
0100
0010
,  // measure 29
0001
1000
0010
0100
0001
1000
0100
0010
0001
1000
0010
0100
0001
0000
0010
0100
,  // measure 30
2000
0000
0000
0000
0010
0000
0000
0000
3001
0010
0100
1000
0001
1000
0010
0100
,  // measure 31
0001
0010
0100
1000
0001
0100
0010
1000
0001
0000
0010
0000
0100
0000
0000
0000
,  // measure 32
1100
0000
0000
0000
1000
0010
0100
0010
1000
0001
0010
0001
1000
0100
0010
0100
,  // measure 33
1000
0010
0100
0010
1000
0001
0010
0100
1000
0010
0100
0001
0020
0000
0030
0000
,  // measure 34
1001
0000
0000
0000
0001
0100
0010
0100
0001
0010
0100
0010
0001
1000
0010
1000
,  // measure 35
0001
0100
0010
0100
0001
0010
0100
1000
0020
0000
0000
0000
0130
0001
0010
0100
,  // measure 36
1000
0000
0000
0000
0000
0000
0000
0000
0000
0000
0000
0000
0010
0000
0000
0000
0000
0000
0100
0000
0000
0001
0000
0000
1000
0000
0000
0000
0100
0000
0000
0000
1000
0000
0000
0000
0001
0000
0000
0000
0100
0000
0000
0000
0001
0000
0000
0000
,  // measure 37
0010
0100
1000
0010
0000
0000
1010
0000
0000
1000
0000
0000
,  // measure 38
0101
0001
0100
0010
0001
0010
1000
0001
,  // measure 39
0010
0100
1000
0010
0001
0010
1000
0100
,  // measure 40
0020
0001
0230
1000
,  // measure 41
0320
0100
0032
0100
,  // measure 42
2003
0010
3002
0100
,  // measure 43
2003
0010
0002
3003
,  // measure 44
1001
0001
0010
0100
,  // measure 45
1100
1000
0010
0100
,  // measure 46
0101
0001
1001
1000
,  // measure 47
1100
0100
0110
0010
,  // measure 48
0011
1001
1010
0110
,  // measure 49
0101
1010
0011
1100
,  // measure 50
1000
0100
0010
0100
0001
0100
1000
0001
,  // measure 51
0200
0000
0000
0000
,  // measure 52
0320
0000
0000
0000
,  // measure 53
0000
0000
0030
1000
,  // measure 54
1010
0000
1001
0000
0011
0000
0010
0100
,  // measure 55
1100
0000
1001
0000
0001
0100
0010
0000
,  // measure 56
1000
0001
1000
0000
0010
1000
0100
0010
,  // measure 57
0011
0000
0000
1001
0000
0000
0101
0000
0100
0000
0010
0000
1000
0000
0001
0000
,  // measure 58
1001
0000
0000
0000
1000
0100
1000
0000
0000
0000
0001
0100
0001
0000
1000
0000
,  // measure 59
0100
0000
0100
0000
0010
0000
0010
0000
0001
0000
1000
0001
1000
0000
0001
0000
,  // measure 60
0010
0000
0100
0000
1000
0000
0000
0000
0010
0000
0100
0000
0001
1000
0001
1000
,  // measure 61
0001
0010
0100
0010
1000
0010
0100
0010
,  // measure 62
0001
0000
1000
0000
0100
0000
1000
0001
,  // measure 63
0010
0000
1000
0000
0010
0001
2000
0000
,  // measure 64
3001
0000
0100
0000
0010
0000
0000
0000
1000
0010
1000
0010
1000
0000
0010
0000
,  // measure 65
0100
0000
0001
0000
1000
0001
1000
0001
1000
0000
0100
0000
0010
0000
0001
0000
,  // measure 66
1001
0000
0000
0000
1000
0010
1000
0000
0000
0000
0001
0010
0001
0000
1000
0000
,  // measure 67
0010
0010
0100
0100
1001
0000
0000
0000
,  // measure 68
0001
0100
0010
0000
1000
0100
0001
0100
,  // measure 69
1000
0010
0100
0001
0010
0100
1000
0001
,  // measure 70
0102
0000
0103
0010
1000
0100
0010
0001
,  // measure 71
1002
0000
0103
0010
1000
0100
0010
0001
,  // measure 72
1000
0010
0100
0000
0001
0010
0100
1000
,  // measure 73
1001
0000
0000
0011
0000
0000
0101
0000
0100
0000
0010
0000
1000
0000
0001
0000
,  // measure 74
1001
0000
0000
0000
1000
0001
0100
0000
0000
0000
0001
1000
0100
0000
1000
0000
,  // measure 75
0100
0000
0100
0000
0010
0000
0010
0000
0001
0000
1000
0001
1000
0000
0001
0000
,  // measure 76
1000
0001
0100
0010
1000
0100
0010
0001
1000
0010
0100
0001
,  // measure 77
1000
0100
0001
0100
1000
0010
0100
0010
,  // measure 78
0002
0000
0013
0100
0000
0010
1000
0100
,  // measure 79
0002
0000
0103
0010
0000
0001
2000
0000
,  // measure 80
3001
0000
0010
0000
0100
0000
0000
0000
1000
0010
1000
0010
1000
0000
0001
0000
,  // measure 81
0100
0000
0001
0000
1000
0001
1000
0001
1000
0000
0100
0000
0010
0000
0001
0000
,  // measure 82
1001
0000
0000
0000
1000
0001
0010
0000
0000
0000
0001
1000
0010
0000
1000
0000
,  // measure 83
0100
0100
0010
0010
1001
1000
0100
0010
,  // measure 84
0100
0001
0100
1000
0010
0100
0001
1000
,  // measure 85
0200
0000
0000
0300
,  // measure 86
1001
0001
0010
0100
,  // measure 87
1100
1000
0001
0100
,  // measure 88
0101
0010
1001
0010
,  // measure 89
1100
0010
1001
0000
,  // measure 90
1100
0011
1010
0101
,  // measure 91
0011
1010
1100
0011
,  // measure 92
1001
1000
0010
0100
0101
0001
1000
0100
,  // measure 93
1100
0001
0010
0100
1001
0010
0100
0010
,  // measure 94
2002
0000
0000
0000
,  // measure 95
0000
0000
0000
0000
,  // measure 96
0000
0000
0000
0000
,  // measure 97
0000
0000
0000
0000
,  // measure 98
0000
0000
0000
0000
,  // measure 99
0000
0000
0000
0000
,  // measure 100
3003
0000
0000
0000
;
