#TITLE:imagination!;
#SUBTITLE:;
#ARTIST:Kaystar;
#TITLETRANSLIT:;
#SUBTITLETRANSLIT:;
#ARTISTTRANSLIT:;
#GENRE:;
#CREDIT:KAYSTAR;
#MUSIC:imagination!.ogg;
#BANNER:imagination!bn.png;
#BACKGROUND:imagination!bg.png;
#CDTITLE:;
#SAMPLESTART:48.020;
#SAMPLELENGTH:12.000;
#SELECTABLE:YES;
#OFFSET:-0.007;
#BPMS:0.000=160.000
,28.000=80.000
,30.000=320.000
,158.000=160.000
,190.000=320.000
,244.000=160.000
,248.000=80.000
,249.000=192.000
,325.000=96.000
,326.000=384.000
,384.000=192.000
,385.000=96.000
,386.000=192.000
,387.000=384.000
,443.000=192.000
,444.000=96.000
,445.000=192.000
,446.000=384.000
;
#STOPS:173.000=0.378
,248.000=2.257
,326.000=0.313
;
#BGCHANGES:15.875=imagination!.avi=1.000=0=0=1===CrossFade_Fastest==,
445.000=bg.jpg=1.000=0=0=1,
99999.000=-nosongbg-=1.000=0=0=0=StretchNoLoop====
;
#FGCHANGES:;

//--------------- dance-single - KAYSTAR ----------------
#NOTES:
     dance-single:
     KAYSTAR:
     Beginner:
     3:
     0.185772,0.358501,0.044534,0.008907,0,146,141,5,1,0,0,0.185772,0.358501,0.044534,0.008907,0,146,141,5,1,0,0:
0000
0000
0000
0000
,
0000
0000
0000
0000
,
0000
0000
0000
0000
,
0000
0000
0000
0000
,
1000
0000
1000
0000
,
0001
0001
0001
0000
,
0100
0000
0100
0000
,
0001
0000
1000
0000
,
0000
0000
0000
0000
,
0000
0000
0010
0000
,
0000
0000
0100
0000
,
0100
0000
0001
0000
,
0000
0000
0000
0000
,
0000
0000
0010
0000
,
0000
0000
0100
0000
,
0100
0000
1000
0000
,
0000
0000
0000
0000
,
0000
0000
0010
0000
,
0000
0000
0100
0000
,
0100
0000
0001
0000
,
0000
0000
0000
0000
,
0000
0000
0001
0000
,
0000
0000
1000
0000
,
1000
0000
0001
0000
,
0000
0000
1000
0000
,
0000
0000
0010
0000
,
0000
0000
0000
0000
,
0000
0000
1000
0000
,
0000
0000
0001
0000
,
0000
0000
0010
0000
,
0000
0000
0000
0000
,
0000
0000
1001
0000
,
0000
0000
0000
0000
,
0000
0000
0110
0000
,
0000
0000
0000
0000
,
0000
0000
1000
0000
,
0000
0000
1000
0000
,
0000
0000
0001
0000
,
0001
0000
0001
0000
,
0001
0000
0001
0000
,
0000
0000
0000
0000
,
0000
0000
1000
0000
,
0000
0000
0000
0000
,
0010
0010
0000
0000
,
1000
0000
1000
0000
,
1000
0000
0001
0000
,
0001
0001
0000
0000
,
0000
0000
0100
0000
,
0100
0000
0100
0000
,
0000
0000
0001
0000
,
0000
0000
0001
0000
,
0000
0000
1000
0000
,
1000
0000
1000
0000
,
0000
0000
0001
0000
,
0000
0000
0001
0000
,
0000
0000
0010
0000
,
0010
0000
0010
0000
,
0000
0000
0001
0000
,
0000
0000
0001
0000
,
0001
0000
0000
0000
,
1000
0000
0000
0000
,
0001
0000
0000
0000
,
0000
0010
0000
0010
,
0000
0010
0000
0000
,
0000
0100
0000
0100
,
0000
0100
0000
0000
,
0000
1001
0000
0000
,
0000
0000
0000
0000
,
0000
1001
0000
0000
,
0000
0000
0000
1000
,
1000
1000
0000
0000
,
0000
0001
0000
0000
,
0000
0001
0000
0001
,
0000
0010
0010
0010
,
0010
0001
0000
0000
,
0000
0100
0000
0100
,
0100
0000
0000
0001
,
0000
1000
0000
0010
,
0010
0000
0000
0000
,
0001
0000
1000
0100
,
0100
0100
0000
0100
,
0000
0100
0000
0000
,
1000
0000
1000
0000
,
1000
0000
0000
0000
,
0001
0000
0000
0000
,
0100
0000
0000
0000
,
0010
0000
0010
0000
,
0010
0000
0000
0000
,
1000
0000
0000
0000
,
0110
0000
0000
0000
,
1000
0000
1000
0000
,
1000
0000
0000
0000
,
0001
0000
0000
0000
,
0010
0000
0000
0000
,
0100
0000
0100
0000
,
0100
0000
0000
0000
,
0010
0000
0000
0001
,
0000
0001
0000
0001
,
0000
0000
0000
1000
,
0000
0000
0000
0010
,
0000
0000
0000
0100
,
0000
0100
0000
0100
,
0000
0000
0000
0010
,
0000
0000
0000
1000
,
0000
1000
0000
1000
,
0000
1000
0000
1000
,
0000
1000
0000
1000
,
0000
0000
0000
0001
,
0000
0000
0000
0010
,
0000
0010
0000
0010
,
0000
0010
0000
0010
,
0000
0000
0020
0000
,
0000
0000
0000
0000
,
0000
0000
0000
0000
,
0000
0000
0000
0000
,
0030
0000
0000
0000
;

//--------------- dance-single - KAYSTAR ----------------
#NOTES:
     dance-single:
     KAYSTAR:
     Easy:
     8:
     0.277385,0.409716,0.080162,0.178137,0,218,209,9,20,0,0,0.277385,0.409716,0.080162,0.178137,0,218,209,9,20,0,0:
0000
0000
0000
0000
,
0000
0000
0000
0000
,
0000
0000
0000
0000
,
0000
0000
0000
0000
,
1000
0000
0001
0001
,
0000
0100
0010
0000
0010
0000
0000
0000
,
1000
0000
0001
0001
,
0000
0000
1000
0000
,
1000
0000
0000
0001
,
1000
0000
0000
0010
,
1000
0000
0001
0000
,
0001
0000
0000
0000
,
0001
0000
0000
1000
,
0001
0000
0000
0010
,
0001
0000
1000
0000
,
1000
0000
0010
0000
,
0010
0000
0000
0100
,
0010
0000
0000
1000
,
0010
0000
0100
0000
,
0100
0000
0000
0000
,
0100
0000
0000
0001
,
0100
0000
0000
0010
,
0100
0000
0001
0000
,
0001
0000
2000
0000
,
0001
0000
0000
0000
,
0010
0000
0000
0000
,
3100
0000
1000
0000
,
0001
0000
0020
0000
,
0001
0000
0000
0000
,
0130
0000
1000
0001
,
1000
0000
0100
0000
,
1000
0000
0001
0000
,
0000
0000
0000
0000
,
0000
0000
0110
0000
,
0000
0000
0000
0000
,
0000
0000
1100
0000
,
0000
0000
0011
0000
,
0000
0000
0001
0000
,
0100
0000
1000
0000
,
0100
0000
0002
0000
,
0000
0000
0003
0000
,
0000
1000
0001
0000
2020
0000
0000
0000
,
0000
0000
3030
0000
,
0100
0002
1000
0000
,
0103
0020
1000
0000
,
0130
0002
0010
0000
,
1003
2002
0000
0000
,
0000
3003
1000
0000
,
0010
0000
0100
0001
,
0000
0000
1000
0000
,
0001
0000
0000
0000
,
0100
0000
0001
0000
,
1000
0000
0001
0100
,
0000
0000
0010
0000
,
1000
0000
1000
0000
,
0000
0000
0001
0000
,
0010
0000
0001
1000
,
0000
0000
0010
0000
,
1000
0000
0000
0000
,
1001
0000
0000
0000
,
1001
0000
0000
0000
,
0020
0000
0000
0000
,
0030
1000
1000
1000
,
0000
0001
0001
0001
,
0000
0100
0000
0010
,
0000
2002
0000
0000
,
3003
0200
0000
0000
,
0000
0010
0000
0310
,
0000
0020
0000
0000
,
0000
1000
0000
1030
,
0000
0001
1000
0001
,
0000
0100
0010
0100
,
0001
1000
0000
1000
,
0000
0001
0001
0001
,
0001
1000
0000
0010
,
0000
0000
0100
0000
0000
0001
0100
0000
,
0010
1000
0000
0001
,
0000
0010
0010
0100
,
0100
1000
0000
0100
,
0000
0000
0010
0000
0000
0001
0010
0000
,
0100
1000
0000
0001
,
0000
2002
3003
0000
,
1000
0000
1000
0000
,
0001
0000
0001
0000
,
0100
0000
0100
0000
,
0010
0000
1000
0000
,
0001
0000
0001
0000
,
1000
0000
1000
0000
,
0010
0000
0010
0000
,
0100
0010
0100
0000
,
0001
0000
0001
0000
,
1000
0000
1000
0000
,
0010
0000
0010
0000
,
0100
0000
0001
0000
,
1000
0000
1000
0000
,
0100
0000
0100
0000
,
0020
0000
0000
0130
,
0000
1000
0000
0001
,
0000
0100
0000
0001
,
0000
1000
0000
0100
,
0000
1000
0000
0001
,
0000
0010
0000
0001
,
0000
1000
0000
0010
,
0000
1000
0000
0001
,
1000
0001
0000
1000
,
0000
0001
0000
0010
,
0000
0100
0000
1000
,
0000
0100
0000
0001
,
0000
0100
0000
1000
,
0000
0001
0000
0010
,
0000
0001
0000
0200
,
0000
0000
0020
0000
,
0000
0000
0000
0000
,
0000
0000
0000
0000
,
0000
0000
0000
0000
,
0330
0000
0000
0000
;

//--------------- dance-single - KAYSTAR ----------------
#NOTES:
     dance-single:
     KAYSTAR:
     Medium:
     13:
     0.563677,0.768217,0.48097,0.231578,0.053441,443,389,54,26,0,0,0.563677,0.768217,0.48097,0.231578,0.053441,443,389,54,26,0,0:
0000
0000
0000
0000
,
0000
0000
0000
0000
,
0000
0000
0000
0000
,
0000
0000
0000
0000
,
1000
0000
0001
0000
1000
0000
0000
0001
0000
0000
0100
0000
0001
0000
0000
0000
,
1000
0000
1000
0100
0000
0000
0100
0000
1000
0000
0000
0000
0110
0000
0000
0000
,
0001
0000
1000
0000
0001
0000
0000
1000
0000
0000
0010
0000
1000
0000
0000
0000
,
0110
0000
1000
0100
,
0001
0000
0100
1000
,
0001
0100
0001
0010
,
1000
0000
0000
0000
0010
0000
0000
0010
,
0001
0000
0000
0001
0100
0000
0010
0000
,
1000
0000
0001
0010
,
1000
0000
0010
0001
,
0100
0000
0010
0000
0100
0000
0000
0100
,
0001
0000
0000
0001
0010
0000
0001
0000
,
1000
0000
0001
0100
,
1000
0000
0100
0001
,
1000
0000
0100
0000
1000
0000
0000
1000
,
0010
0000
0000
0010
0100
0000
0001
0000
,
1000
0000
0100
1000
,
0010
0000
0100
1000
,
0100
0000
0001
0000
1000
0000
0000
1000
,
0010
0000
0000
0010
0100
0000
0000
0001
,
0000
0001
0000
0000
1100
0000
0000
0000
,
0101
0000
0000
0000
1010
0000
0000
0001
,
0000
0001
0000
0000
1100
0000
0000
0000
,
0101
0000
0000
0000
0011
0000
0000
1000
,
0000
1000
0000
0000
0101
0000
0000
0000
,
1100
0000
0001
0100
,
1000
0000
0000
0100
0001
0000
0001
1000
,
0000
1000
0000
0000
1001
0000
1001
0000
,
0000
0010
0100
0000
,
1001
0000
0110
0110
,
0000
0001
1000
0001
,
0100
0000
1010
1010
,
0000
0000
0101
0101
,
0000
0000
1000
0100
,
0001
0000
0000
1000
0001
0000
0001
0010
,
0000
0100
0000
0000
2000
0000
0001
0000
,
0000
3001
0200
0010
,
0000
0310
0200
0000
0001
0000
0010
0000
,
0000
0301
2000
0100
,
0010
3001
1010
0011
,
1100
0201
0310
1020
,
0130
1002
0013
2001
,
3010
0000
1000
0100
0010
0001
1000
0100
,
0010
0001
0200
0000
0310
0000
0000
0000
,
1000
0010
0001
0000
,
0010
1000
0001
0010
,
0100
1000
0000
1000
0001
0000
0100
0000
,
0020
0000
1030
0000
,
0001
0010
1000
0000
,
0010
0001
1000
0010
,
1000
0001
0000
0001
0010
0000
0100
0000
,
1000
0001
0000
0001
0100
0000
0000
0000
,
0001
0100
1000
0000
,
0100
0001
1000
0010
,
1000
0001
0000
0001
0010
0000
0000
0000
,
1100
0000
0101
0000
,
1010
0100
0001
1000
,
0200
1000
0010
0001
,
0310
2000
0010
0001
,
0100
3002
0010
1000
,
0100
2003
3200
0302
,
0203
2000
0000
0000
,
3300
0000
0001
0000
1200
0000
0000
0310
,
0000
0000
0012
0000
0000
1003
0010
0000
,
1010
0000
0100
0000
0201
0000
0000
0010
,
0000
0000
0000
0000
1300
0000
0000
0000
0100
0000
0001
0000
1000
0000
0000
0001
,
0000
0001
0000
0000
1010
0000
0000
0000
0001
0000
0000
0000
1010
0000
0000
0000
,
0100
0011
0100
0011
,
1000
0110
0000
1001
,
0000
0000
0000
0000
1000
0000
0000
1000
0100
0000
0000
0100
0010
0000
0000
0010
,
0001
0000
0000
0001
1000
0000
0100
0000
0001
0000
0000
0000
0100
0000
1000
0000
,
0010
0000
0100
0001
0010
0000
0021
0000
,
0100
0000
0031
0010
1000
0000
0010
0001
,
0100
0000
0000
0000
0010
1000
0000
0000
0001
0000
0000
0000
1001
0000
0000
0000
,
0101
0000
0001
0100
1000
0000
0100
0001
,
0010
0000
0100
1000
0010
0000
1020
0000
,
0100
1030
0000
0001
,
0000
1001
0000
0000
,
1001
0000
0011
0000
,
1000
0100
0001
0100
,
1000
0000
1001
0000
,
1000
0010
0001
0010
,
1000
0000
1001
0000
,
0001
0100
1000
0100
,
0001
0000
1001
0000
,
0010
1000
0100
0000
,
1001
0000
1010
0000
,
0001
0010
1000
0010
,
0001
0000
1001
0000
,
0001
0100
1000
0100
,
0001
0000
1001
0000
,
1000
0100
0001
0100
,
2000
0000
0000
3001
,
1000
0010
0000
0100
,
1000
0100
0001
1000
,
0100
0010
0000
0100
,
0001
0100
1000
0010
,
0100
1000
0000
0100
,
0001
1000
0100
0001
,
1000
0010
0001
1000
,
0001
0010
0000
0100
,
1000
0100
0001
0100
,
1000
0001
1000
0010
,
0001
0010
1000
0010
,
0100
0001
0010
0100
,
1000
0100
0001
0100
,
1000
0010
0001
0020
,
0000
0100
0000
0100
0000
0000
0000
0000
2000
0000
0000
0000
0000
0000
0000
0000
,
0000
0000
0000
0000
,
0000
0000
0000
0000
,
0000
0000
0000
0000
,
3030
0000
0000
0000
;

//--------------- dance-single - KAYSTAR ----------------
#NOTES:
     dance-single:
     KAYSTAR:
     Hard:
     16:
     0.743087,1.024289,0.240485,0.76599,0.129149,584,557,27,86,0,0,0.743087,1.024289,0.240485,0.76599,0.129149,584,557,27,86,0,0:
0000
0000
0000
0000
,
0000
0000
0000
0000
,
0000
0000
0000
0000
,
0000
0000
0000
0000
,
1000
0000
0010
0000
2000
0000
0000
0001
0000
0000
0001
0000
3001
0000
0100
0000
,
0010
0000
1000
0000
0100
0000
0001
0000
0200
0000
0000
1000
0000
0000
1000
0000
,
1300
0000
0001
0000
0200
0000
0000
0010
0000
0000
0010
0000
0310
0000
1000
0000
,
1001
0000
0000
0000
0000
0000
0000
0M00
00M0
0000
0M00
00M0
0000
0M00
0000
0000
0001
0000
0000
0000
0000
0000
0000
0000
0100
0000
0000
0000
0000
0000
0000
0000
,
0010
0000
0000
0000
1000
0100
0010
0000
,
0002
0000
1000
0000
1003
0010
0100
0000
,
0020
0000
1000
0000
1030
0000
0000
1000
,
0200
0300
0000
0000
0000
0000
0200
0300
0001
0000
0000
0000
0000
0000
0000
0000
,
1001
0000
0000
0000
0001
0010
0100
0000
,
0020
0000
0001
0000
0031
1000
0010
0000
,
0200
0000
0001
0000
0301
0000
0000
0001
,
0020
0030
0000
0000
0000
0000
0020
0030
1000
0000
0000
0000
0010
0000
0000
0000
,
0100
0000
0000
0000
0001
1000
0100
0000
,
0020
0000
0001
0000
0031
0100
0010
0000
,
2000
0000
0001
0000
3001
0000
0000
0001
,
0200
0300
0000
0000
0000
0000
0200
0300
1000
0000
0000
0000
0000
0000
0000
0000
,
1001
0000
0000
0000
0001
1000
0010
0000
,
0200
0000
0010
0000
0310
1000
0001
0000
,
0020
0000
0001
0000
0031
0000
0000
0001
,
0020
0030
0000
0000
0000
0000
0020
0030
1000
0000
0000
0000
1000
0000
0010
0000
,
0000
1000
0000
0001
0010
0000
0001
1000
,
0010
0000
1000
0001
0010
0000
0100
1000
,
0000
0001
0000
1000
0001
0000
0100
0001
,
1000
0000
0001
1000
0100
0000
1000
0001
,
0000
0010
0000
0001
1000
0000
0001
1000
,
0010
0000
0000
0000
1000
0000
0001
0000
0020
0030
0000
0000
0020
0030
0000
0000
,
1000
0000
0000
0001
0010
0000
0010
0100
,
0000
0100
1000
0000
0001
0000
1001
0000
,
0000
0000
1000
0000
0001
0000
1000
0010
,
0100
0000
0110
1001
,
0000
0000
1000
0000
0010
0000
0100
0001
,
1000
0000
0001
1000
,
MMMM
0000
1000
0001
,
MMMM
0000
0000
0000
0000
0000
0000
0000
0001
0000
0000
0000
0200
0300
0000
0000
,
0200
0300
0000
0000
0000
0000
1000
0000
0100
0000
0000
0000
0100
0000
0010
0000
,
0000
0010
0001
0000
2000
0000
0010
0000
,
0000
3010
0200
0301
,
2000
0100
3100
0000
2001
0000
0010
0000
,
0000
0000
0000
0000
3010
0000
0000
0000
0002
0000
0000
0000
1003
0000
0010
1000
,
0001
1000
020M
0000
0301
0100
1000
0010
,
1000
0000
0000
0000
0001
0000
1000
0001
1000
0000
0100
0000
0001
0000
0100
0000
,
1000
0000
0001
1000
0100
0000
1000
0001
0100
0000
0001
0000
0100
0000
1000
0000
,
0100
0201
1000
0010
,
0001
0000
0000
0000
0310
0100
0010
0100
0010
0000
0000
0000
1000
0000
0001
0000
,
0010
0000
0001
1000
0010
0000
1000
0001
,
0010
2000
3020
0032
,
1003
0001
0100
0001
1000
0100
1000
0000
,
0010
0000
1000
0001
0010
0000
0001
1000
,
0010
0000
1000
0001
0010
0000
0001
1000
,
0010
0002
0023
2030
,
3001
1000
0100
1000
0001
0100
0010
0000
,
1000
0001
0010
0100
1000
0000
0001
1000
,
0100
0000
1000
0001
0100
0000
0001
1000
,
0100
0002
0203
2300
,
3001
0010
0001
1000
0010
1000
0001
0000
,
1000
0000
0000
0000
0000
0000
0000
0000
0000
0000
0000
0000
0200
0300
0000
0000
0000
0000
0200
0300
0000
0000
0000
0000
0001
0000
0000
0000
0000
0000
0000
0000
0000
0000
0000
0000
0200
0300
0000
0000
0000
0000
0200
0300
0000
0000
0000
0000
,
2000
3200
0302
0203
,
2300
0000
0000
0100
0000
0000
0000
0001
0000
0000
0010
0000
0000
0001
0000
0000
,
3100
1000
0011
0100
,
0011
0100
1010
0100
,
1010
0110
0101
1001
,
0011
0220
0000
0330
,
MMMM
0000
0002
0010
0010
0000
1000
1000
,
0000
0000
0100
0000
0100
0000
0000
0000
1000
0000
1000
0000
1003
0000
0001
1000
,
0010
0000
2000
0010
0010
0000
0001
0001
,
0000
0000
0100
0000
0100
0000
0000
0000
3001
0000
0100
0000
0001
0000
1000
0010
,
0000
0000
0100
0000
0000
0000
0010
0000
2000
0000
0000
0000
0000
0000
0000
0000
3001
0000
0000
0000
0020
0030
0000
0000
0020
0000
0000
0000
0000
0000
0000
0000
,
1030
0000
0000
0000
0000
0000
0000
0000
0002
0000
0000
0000
0000
0000
0000
0000
1003
0000
0000
0000
0200
0300
0000
0000
0200
0000
0000
0000
0001
0000
0000
0000
,
0301
0110
MMMM
1001
,
MMMM
0000
0000
0000
0000
0000
0000
0000
1000
0000
0000
0000
0000
0000
1000
0000
0200
0300
0000
0000
0000
0000
0200
0300
0001
0000
0000
0000
0000
0000
0001
0000
,
0020
0030
0000
0000
0000
0000
0020
0030
1000
0000
0000
0000
0100
0000
0000
0000
0010
0000
0000
0000
0001
0000
0000
0000
1000
0000
0000
0000
0010
0000
1000
0000
,
0000
0000
0001
1000
0001
0010
0000
0000
0100
0000
1000
0000
1100
0000
0000
0000
,
0101
0000
0000
0000
0001
0000
0010
0000
0100
0000
1000
0000
0001
0000
0010
0001
,
0000
0000
1000
0001
1000
0200
0000
0000
0010
0000
0000
0000
0001
0000
0000
0000
,
0010
0000
1300
0100
0001
0100
1000
0001
,
0100
0010
1000
0010
0001
0010
1000
0001
,
1001
0000
0000
0000
0000
0000
0000
0000
0000
0000
0000
0000
1000
0000
0000
0000
0000
0000
0020
0030
0000
0020
0030
0000
0001
0000
0000
0000
0000
0000
0000
0000
0000
0000
0000
0000
0001
0000
0000
0000
0000
0000
0020
0030
0000
0020
0030
0000
,
1000
2002
3003
0000
,
0001
0000
1000
0001
0020
0000
0000
0000
,
0130
0000
1000
0000
0001
1000
0010
0000
,
1000
0000
0010
1000
0200
0000
0000
0000
,
0310
0000
0001
0010
0001
0010
0100
0010
,
0100
0000
1000
0001
0200
0000
0000
0000
,
0310
0000
1000
0000
0001
1000
0100
0000
,
1000
0000
0001
1000
0020
0000
0000
0000
,
0100
0100
0130
0000
,
0001
0000
1000
0100
0020
0000
0000
0000
,
0031
0000
1000
0000
0010
1000
0001
0000
,
1000
0000
0010
1000
0200
0000
0000
0000
,
0310
0000
0001
0010
0001
0010
0100
0010
,
0100
0000
1000
0001
0200
0000
0000
0000
,
0301
0100
1000
0100
,
0002
0000
M000
0M00
00M0
0000
1003
0000
,
0100
0010
0001
0000
1000
0000
0010
0100
,
0001
1000
0001
0010
,
0100
1000
0002
0000
0000
0000
1003
0100
,
1000
0100
0010
0100
0010
0100
1000
0000
,
0001
0010
0100
0000
1000
0000
0010
0100
,
0001
0000
1000
0000
0010
0100
0000
0100
,
0010
0000
0010
1000
0000
1000
0001
0000
,
0200
0300
0000
0000
0200
0300
0000
0000
1000
0000
0000
0000
0001
0000
0100
0000
,
0001
0100
0010
0100
0010
0100
0001
0000
,
0200
0300
0000
0000
0200
0300
0000
0000
1000
0000
0001
0000
1000
0000
0001
0000
,
0010
0000
0001
0000
0020
0030
0000
0000
0020
0030
0000
0000
1000
0000
0000
0000
,
0010
1000
0010
1000
0001
0000
0100
0010
,
0100
0010
0100
0001
0100
0001
1000
0010
,
0100
0001
1000
0001
1000
0000
0002
0000
,
0000
0010
0000
1000
0000
0000
0000
0000
M200
0000
00M0
0000
0000
0000
M000
0000
,
00M0
0000
M000
00M0
0000
M000
00M0
0000
,
0000
0000
0000
0000
,
0000
0000
0000
0000
,
0303
0000
0000
0000
;
