#VERSION:0.83;
#TITLE:be quiet;
#SUBTITLE:;
#ARTIST:Ryu☆;
#TITLETRANSLIT:;
#SUBTITLETRANSLIT:;
#ARTISTTRANSLIT:;
#GENRE:HARD DANCE;
#CREDIT:;
#MUSIC:Be quiet.mp3;
#BANNER:bn.png;
#BACKGROUND:bg.png;
#CDTITLE:cd-title.png;
#SAMPLESTART:74.054;
#SAMPLELENGTH:12.800;
#SELECTABLE:YES;
#OFFSET:-0.454;
#BPMS:0.000=150.000
,34.000=300.000
,35.000=150.000
,98.000=300.000
,99.000=150.000
,114.000=300.000
,115.000=150.000
,211.000=300.000
,212.000=150.000
;
#STOPS:34.000=0.200
,98.000=0.200
,114.000=0.200
,180.000=1.200
,211.000=0.200
;
#SPEEDS:0.000=1.000=0.000=0;
#SCROLLS:0.000=1.000;
#TICKCOUNTS:0.000=4;
#TIMESIGNATURES:0.000=4=4;
#LABELS:0.000=Song Start;
#COMBOS:0.000=1;
#DISPLAYBPM:150.000;
#ORIGIN:;
#PREVIEWVID:;
#JACKET:jacket.png;
#CDIMAGE:;
#DISCIMAGE:;
#BGCHANGES:;
#FGCHANGES:;

//--------------- dance-single - ----------------
#NOTEDATA:;
#STEPSTYPE:dance-single;
#DESCRIPTION:;
#DIFFICULTY:Easy;
#METER:11;
#RADARVALUES:0.44602,0.490072,0.149863,0.17484,0.195654,375,357,18,21,0,0,0,0,0,0.44602,0.490072,0.149863,0.17484,0.195654,375,357,18,21,0,0,0,0,0;
#DISPLAYBPM:150.000;
#CHARTNAME:Light 11;
#CHARTSTYLE:;
#CREDIT:Frondal;
#NOTES:
0000
0000
0000
0000
,
0000
0000
0000
0000
,
0000
0000
0000
0000
,
0000
0000
0000
0000
,
0000
0000
0000
0000
,
0001
1000
0100
1000
0010
0100
0001
0000
,
1000
0100
0010
0000
0010
0100
1000
0000
,
0001
0100
0010
0100
0001
1000
0100
0000
,
0010
0000
0000
0010
0000
0000
0010
0000
0001
0000
0000
0000
1000
0000
1000
0000
,
0010
0100
0001
0001
0000
1000
0100
0010
,
0100
1000
0001
0001
0000
1000
0010
0100
,
0010
1000
0100
0100
0000
0010
0001
0010
,
0100
1000
0010
0010
0000
0100
0001
1000
,
0100
0000
0010
0001
1000
0000
0010
0100
,
1000
0000
0100
0001
0010
0000
1000
0010
,
1001
0011
1001
1010
,
0010
0100
1000
0100
0010
1000
0002
0000
,
0013
0000
0000
0110
0000
0000
0000
0000
0000
0000
0100
0000
0000
0100
0000
0000
,
0000
1000
0000
0000
0001
0000
0100
0000
0000
0000
0010
0000
0000
0010
0000
0000
,
2000
0000
0000
3100
0000
0000
0000
0000
0200
0000
0010
0000
0000
0310
0000
0000
,
0000
0001
0000
0000
0001
0000
1000
0000
0020
0000
0000
0000
0230
0000
0000
0000
,
0310
1000
1100
0000
0100
0010
0001
0010
,
0100
0001
0100
1000
0000
0010
0001
0010
,
0100
0001
1000
0000
1000
0100
0010
0000
,
0001
0000
0000
0001
0000
0000
0100
0000
0010
0000
0000
0000
0010
0000
1000
0000
,
0001
0000
0101
0000
0000
0000
0000
0000
0100
0000
0000
0110
0000
0000
0000
0000
,
0010
0000
0000
1010
0000
0000
0000
0000
1001
0000
1000
0000
1001
0000
0000
0000
,
0011
0000
0010
0100
0000
0000
0000
0000
0000
1000
0000
0100
0000
0000
0000
0000
,
0010
0001
0000
0100
0000
0000
0100
0000
0020
0000
0000
0000
1030
0000
1000
0000
,
0001
0010
0100
0000
0001
0100
1000
0000
,
0010
0100
1000
0000
0100
0001
1000
0000
,
0001
0100
0001
0010
0001
1000
0010
1000
,
0001
0000
0011
0000
0010
0000
0110
0000
0100
0000
1100
0000
,
0000
0000
0000
0000
,
0000
0000
0000
0000
,
0002
0000
0000
0000
0013
0000
0000
0010
0000
0000
0000
0000
0200
0000
0000
0000
,
2300
0000
0000
0000
3010
0000
0000
0010
0000
0000
0000
0000
0200
0000
0000
0000
,
0302
0000
0000
0000
1003
0000
0000
1000
0000
0000
0000
0000
0200
0000
0000
0000
,
0320
0000
0000
0000
0130
0000
0000
0100
0000
0000
0000
0000
2000
0000
0000
0000
,
3010
0000
0000
0100
0000
0000
0000
0000
0100
0000
0000
0001
0000
0000
0000
0000
,
0001
0000
0000
0010
0000
0000
0000
0000
0010
0000
0000
0100
0000
0000
0000
0000
,
0100
1000
0100
0010
,
0001
0100
0010
1000
,
2002
0000
0000
0000
,
0000
0000
0000
0000
,
3003
0000
0000
0000
0001
0000
0100
0000
0010
0000
0000
0001
0000
0000
0010
0000
,
0100
0000
0000
0000
0001
0000
1000
0000
0100
0000
0000
0010
0000
0000
1000
0000
,
0010
0000
0100
0000
1000
0000
0001
0000
0100
0000
0000
1000
0000
0000
0100
0000
,
0001
0000
0000
0000
1000
0000
0100
0000
0001
0000
0000
1000
0000
0000
0010
0000
,
0001
0000
1000
0000
0001
0000
0001
0000
0100
0000
0000
0010
0000
0000
0010
0000
,
1000
0000
0100
0000
0010
0000
0100
0000
1000
0000
0000
0010
0000
0000
0100
0000
,
0010
0000
1000
0000
0100
0000
0010
0000
0100
0000
0000
1000
0000
0000
0001
0000
,
0100
0000
0010
0000
1000
0000
0000
1000
0000
0000
0100
0000
0110
0000
0000
0000
,
0010
0001
1000
0010
0001
1000
0000
0001
,
0010
1000
0001
0010
1000
0001
0000
1000
,
0010
0001
1000
0010
0100
1000
0000
0100
,
0010
1000
0001
0010
1000
0001
0000
1000
,
0010
0001
0100
1000
0100
0000
0001
0010
,
1000
0000
0001
0100
1000
0000
0001
0100
,
1000
0100
0001
0010
0100
0010
0001
1000
,
0010
1000
0200
0000
0320
0000
0032
0000
,
2003
0000
0000
0000
3010
0000
0100
0000
0010
0000
0000
1000
0000
0000
0001
0000
,
0010
0000
0000
0000
0100
0000
1000
0000
0001
0000
0000
1000
0000
0000
0010
0000
,
0100
0001
0010
0010
0010
0000
0000
0000
,
0000
0000
0000
0000
0000
0000
0100
0000
0100
0000
1000
0000
0000
0001
0000
0000
,
0100
0000
0001
0000
1000
0000
0000
0001
0000
1000
0000
0000
0000
0100
0000
0010
,
0000
0100
0000
0000
1000
0000
0001
0000
1000
0000
0000
0010
0000
0100
0000
0000
,
0010
0000
0001
0000
0010
0000
0010
0000
1000
0000
0000
1100
0000
0000
0000
0000
,
0100
0010
0001
1000
0010
0001
0010
0100
,
0002
0013
0000
0000
;

//--------------- dance-single - ----------------
#NOTEDATA:;
#STEPSTYPE:dance-single;
#DESCRIPTION:;
#DIFFICULTY:Medium;
#METER:14;
#RADARVALUES:0.641079,0.778349,0.158188,0.199817,0.836733,539,520,19,24,0,0,0,0,0,0.641079,0.778349,0.158188,0.199817,0.836733,539,520,19,24,0,0,0,0,0;
#DISPLAYBPM:150.000;
#CHARTNAME:Standard 14;
#CHARTSTYLE:;
#CREDIT:Frondal;
#NOTES:
0000
0000
0000
0000
,
0000
0000
0000
0000
,
0000
0000
0000
0000
,
0000
0000
0000
0000
,
0000
0000
0000
0000
,
0001
1000
0100
1000
0000
0010
0001
0010
,
0100
0001
1000
0100
0010
0100
1000
0001
,
1001
1000
0010
0100
0000
1000
0100
0001
,
1001
0000
0000
1100
0000
0000
0012
0000
1003
0000
0000
0000
0001
1000
0001
1000
,
0001
0000
1000
0100
0000
1000
0000
0000
0000
0000
0001
0100
0000
0001
0100
0000
,
0010
0000
1000
0100
0000
0010
0000
0000
0000
0000
0001
0100
0000
0001
0100
0000
,
0001
0000
1000
0010
0000
1000
0000
0000
0000
0000
0001
0100
0000
0001
0100
0000
,
0010
0000
1000
0100
0000
0010
0000
0000
0000
0000
0001
1000
0000
0001
1000
0000
,
0100
0000
0010
0100
1000
0100
0000
0000
0100
0000
1000
0010
0100
0010
0000
0000
,
0010
0000
1000
0100
0010
0001
0000
0000
0001
0000
1000
0001
0100
0010
0000
0010
,
1000
0000
0000
1000
0001
0000
0000
0001
0010
0000
0000
0010
0100
0000
0000
1000
,
0010
0100
0010
1000
0001
0100
0001
0010
0200
0000
0000
0000
0020
0000
0000
0300
,
0030
0000
0000
0011
0000
0000
0000
0000
0000
0000
0001
0000
0000
0001
0000
0000
,
1000
0010
0000
0100
0010
0000
0001
0000
0000
0000
1000
0000
0000
0100
0000
0000
,
0001
0010
0000
0100
0000
0000
0000
0000
1000
0000
0010
0000
0000
0100
0000
0000
,
0000
0001
0000
0001
1000
0000
0100
0000
0020
0000
0000
0000
0200
0000
0000
0030
,
1300
0000
0001
0100
0010
0000
0000
0000
1000
0000
0010
0000
0100
0000
0010
0000
,
1000
0001
0000
1000
0100
0000
0001
0000
0000
0000
1000
0000
0010
0001
0000
0000
,
1000
0000
0001
0100
0001
0000
0000
0000
1000
0000
0001
0000
0010
0000
0001
0000
,
1001
0000
0000
1010
0000
0000
0101
0000
1001
0000
0000
0000
1000
0100
0010
0001
,
1000
0000
1000
0001
0000
0000
0000
0000
0100
0001
0000
0001
0000
0000
0000
0000
,
1000
0100
0000
0100
0000
0000
0000
0000
1001
0000
0110
0000
1001
0000
0000
0000
,
0001
0000
0001
0100
0000
0000
0000
0000
0010
1000
0000
1000
0000
0000
0000
0000
,
0100
0010
0000
0011
0000
0000
1001
0000
2000
0000
0000
0000
3001
0100
0010
0100
,
0001
1000
0100
1000
0000
0000
0000
0000
1000
0001
0100
0001
0000
0000
0000
0000
,
0010
0100
0010
0001
0000
0000
0000
0000
0100
0010
1000
0020
0000
0000
0030
0000
,
0100
0001
1000
0100
0010
0100
1000
0001
0100
0010
0001
0010
,
0100
0001
0000
0001
1000
0000
1000
0100
0000
0001
0100
1000
,
0000
0000
0000
0000
,
0000
0000
0000
0000
,
1000
0000
0001
0000
1000
0010
0000
1000
0000
0000
0000
0000
0001
0000
0100
0000
,
0001
0000
1000
0000
0001
0010
0000
0001
0000
0000
0000
0000
1000
0000
0001
0000
,
0100
0000
0010
0000
0100
0001
0000
1000
0000
0000
0000
0000
0001
0000
1000
0000
,
0100
0000
0010
0000
0100
1000
0000
0001
0000
0000
0000
0000
1000
0000
0001
0000
,
0100
0000
0000
0010
0000
0010
0000
1000
0001
0000
0000
0010
0000
0010
0000
0001
,
1000
0000
0000
0100
0000
0100
0000
1000
0010
0000
0000
0100
0000
0100
0000
0001
,
0010
0000
0100
0010
0100
0000
0010
0100
0010
0000
0001
1000
0001
0000
1000
0001
,
1000
0000
0010
0100
0010
0000
0100
0001
1000
0000
0100
1000
0010
0000
0100
0002
,
0020
0000
0000
0000
0000
0000
0000
0003
0200
0000
0000
0000
0000
0000
0000
0030
,
2000
0000
0000
0000
0000
0000
0000
0300
0020
0000
0000
3000
0200
0000
0000
0000
,
0330
0000
0000
0000
0001
0000
1000
0000
0100
0000
0000
0010
0000
0100
0010
0000
,
0001
0000
1000
0000
1000
0000
0001
0000
0100
0000
0000
0001
0000
1000
0100
0000
,
0010
0000
0100
0010
0001
0000
0001
0000
0010
0000
0000
0100
0000
0100
1000
0000
,
0001
0000
0010
0001
1000
0000
1000
0000
0010
0000
0000
0100
0000
0100
0001
0000
,
1000
0000
0010
0000
1001
0000
0001
0000
0010
0000
0000
0100
0000
0010
1000
0000
,
0010
0000
0001
0000
1000
0000
0010
0000
0100
0000
0000
1000
0000
0100
0001
0000
,
0010
0000
0100
0000
1000
0000
1000
0000
0001
0000
0000
0100
0000
0010
0001
0000
,
0010
0000
0100
0001
1000
0000
0000
1010
0000
0000
1001
0000
0011
0000
0000
0000
,
0001
0010
0001
0010
0001
0000
0100
0010
0000
0010
0100
0000
0001
1000
0000
0001
,
0000
1000
0001
0000
1000
0000
0010
0000
1000
0000
1000
0100
0000
0000
0010
0000
,
0001
0000
0001
0100
0010
0000
0100
0001
0000
1000
0001
0000
0010
0100
0000
1000
,
0000
0100
0000
0010
0001
0000
0001
0000
1000
0000
0010
1000
0000
0100
0010
0000
,
0002
0000
0000
0000
1003
0000
0001
0100
0000
0010
0100
0000
0001
0000
1000
0100
,
0000
0010
0100
1000
0001
0000
0100
0010
0000
0010
0100
0001
1000
0000
0100
0010
,
0000
0010
0100
1000
0010
0000
0100
0001
0010
0000
0100
1000
0010
0000
0100
0001
,
1000
0000
0100
1000
0001
1000
0001
1000
0001
1000
0001
1000
0002
2000
0000
0003
,
0200
0000
0000
3000
0310
0000
0010
0000
0001
0000
0010
0100
0000
1000
0001
0000
,
0100
0000
0010
1000
0100
0000
0010
0000
0001
0000
1000
0010
0000
0100
0010
0000
,
1000
0000
0001
0010
0200
0300
0200
0300
0200
0300
0001
0000
0000
0100
0000
1000
,
0010
0100
0001
0000
1000
0000
0200
0300
0200
0300
0010
0001
0000
0100
0000
0010
,
0100
0001
1000
0000
0001
0000
0010
0100
0000
1000
0100
0000
0010
0001
0000
1000
,
0000
0001
0000
0100
0010
0000
0010
0000
0010
0000
1000
0001
0000
1000
0100
0000
,
0010
0000
0000
0000
0000
0000
0001
0000
0000
0100
0000
0000
0010
0000
0000
0000
1000
0000
0000
0000
0000
0000
0000
0000
0010
0000
0000
0000
0100
0000
0000
0000
0000
0101
0000
0000
0000
0000
0000
0000
0000
0000
0000
0000
0000
0000
0000
0000
,
0001
1000
0100
1000
0001
1000
0010
1000
0001
0100
0001
1000
0002
0000
0000
0000
,
0020
0033
0000
0000
;

//--------------- dance-single - ----------------
#NOTEDATA:;
#STEPSTYPE:dance-single;
#DESCRIPTION:;
#DIFFICULTY:Hard;
#METER:16;
#RADARVALUES:0.795699,0.864832,0.308051,0.166514,1.028224,669,632,37,20,16,0,0,0,0,0.795699,0.864832,0.308051,0.166514,1.028224,669,632,37,20,16,0,0,0,0;
#DISPLAYBPM:150.000;
#CHARTNAME:Heavy 16;
#CHARTSTYLE:;
#CREDIT:Frondal;
#NOTES:
0000
0000
0000
0000
,
1001
0001
0010
0100
0010
1000
0010
0100
,
1000
0001
0100
0010
0100
0001
0010
0100
,
1100
1000
0001
0100
0010
0001
0010
0100
,
0001
0010
0100
1000
0001
0010
0001
1000
,
1010
0000
0010
0100
0010
0000
1000
0000
0000
0000
0100
0001
0100
0000
1000
0000
,
0000
0000
0010
0100
0010
0000
0100
0000
0000
0000
0001
0010
0001
0000
1000
0000
,
1001
0000
0001
0100
0001
0000
1000
0000
0000
0000
0010
0001
0010
0000
0100
0000
,
0110
0000
0000
1010
0000
0000
1001
0000
0110
0000
0000
0000
0001
1000
0001
1000
,
0001
0000
0010
0100
0000
0100
0000
0000
0000
0000
1000
0010
0000
0010
0100
0000
,
0001
0000
1000
0100
0000
0100
0000
0000
0000
0000
0010
0001
0000
0001
1000
0000
,
1000
0000
0001
0010
0000
0010
0000
0000
0000
0000
0100
1000
0000
1000
0010
0000
,
0100
0000
0001
0010
0000
0010
0000
0000
0000
0000
0100
1000
0000
1000
0001
0000
,
1001
0000
1000
0010
0100
0001
0000
1000
0010
0000
1000
0100
0010
0001
0000
1000
,
0100
0000
0010
0001
1000
0001
0000
0100
0001
0000
1000
0010
1000
0001
0000
1000
,
0100
0000
0001
0100
1000
0000
0010
0100
0010
0000
0001
0010
1000
0000
0100
0010
,
0100
0000
0000
1000
0000
0000
0001
0000
0000
1000
0000
0000
0010
0000
0000
1000
0000
0000
0001
0000
0000
1000
0000
0000
0100
0000
0010
0000
0100
0000
0010
0000
0100
0000
0010
0000
0002
0000
0000
0000
0000
0000
0000
0000
0000
0000
0000
0000
,
0003
1000
0010
0200
0000
0000
0000
0000
0000
0000
0001
0000
0000
2300
0000
0000
,
3100
0001
0000
0100
0001
0000
0020
0000
0000
0000
0100
0000
0000
2030
0000
0000
,
3010
0100
1000
0001
0000
0000
0000
0000
1000
0010
0100
0001
0000
0000
0000
0000
,
0000
0000
0000
1000
0000
0000
0000
0000
0000
0001
0000
0000
0010
0000
0000
0000
0000
0000
0110
0000
0000
0000
0000
0000
0100
0000
1000
0000
0010
0000
1000
0000
0010
0000
1000
0000
0002
0000
0000
0000
0000
0000
0000
0000
0000
0000
0000
0000
,
1003
0000
1000
0010
0100
0000
0001
0000
0010
0000
0001
0000
0100
0000
0010
0000
,
1000
0001
0010
0001
1000
0000
1001
0000
0001
0000
0100
0000
0001
0010
0000
0000
,
0001
0000
0001
1000
0010
0000
0100
0000
0001
0000
1000
0000
0100
0000
1000
0000
,
0010
0001
0000
1000
0100
0000
0102
0000
0013
0000
0000
0000
0010
0100
0010
0100
,
1000
0000
0001
0100
1000
0000
0000
0000
0100
0000
0001
0010
1000
0000
0000
0000
,
0010
0100
0000
0110
0000
0000
0000
0000
0011
0000
1001
0000
1010
0000
0000
0000
,
0010
0000
0010
1000
0100
0010
0000
0000
0001
0100
0001
1000
0100
1000
0000
0000
,
1000
0100
0000
0110
0000
0000
0012
0000
1003
0000
0000
0000
0001
0100
0001
0100
,
0010
0000
1000
0100
0000
0000
0000
0000
0001
0100
1000
0010
0000
0000
0000
0000
,
0200
1000
0000
0301
0000
0000
0000
0000
0001
0010
1000
0002
0000
0000
1003
0010
,
0001
0100
0100
0010
1000
1000
0100
0001
1000
0010
0001
0001
,
1000
0000
0010
0100
0010
0000
0001
0000
0010
0100
0010
0000
1000
0000
0100
0010
0100
0000
0001
0000
0100
0010
0100
0000
,
1000
0000
0000
0000
,
0000
0000
0000
0000
,
0001
0000
0001
0000
0100
0010
0000
0001
0000
0000
0000
0000
0010
0000
0010
0000
,
1000
0000
1000
0000
0100
0010
0000
1000
0000
0000
0000
0000
0010
0000
0010
0000
,
0001
0000
0001
0000
0100
1000
0000
0001
0000
0000
0000
0000
0010
0000
0010
0000
,
1000
0000
1000
0000
0001
0010
0000
1000
0000
0000
0000
0000
0010
0000
0010
0000
,
0001
0000
1000
0100
0000
1000
0000
0100
1000
0000
0001
0100
0000
0001
0000
0100
,
0001
0000
0010
0100
0000
0010
0000
0100
0010
0000
0100
1000
0000
0100
0000
1000
,
0001
0000
0100
0010
1000
0000
0100
0010
0001
0000
1000
0010
0001
0000
1000
0100
,
0001
0000
1000
0100
0001
0000
1000
0010
0001
0000
1000
0001
0010
0000
0001
1000
,
2002
0000
3003
MMMM
2002
0000
3003
MMMM
,
2002
0000
3003
MMMM
1001
MMMM
2002
0000
,
3003
0000
0000
0000
0001
0000
0010
0000
0010
0000
0100
1000
0000
0001
1000
0000
,
0010
0000
0001
0010
1000
0000
0100
0000
0100
0000
0010
0001
0000
0100
0001
0000
,
0010
0000
1000
0010
0001
0000
1000
0000
1000
0000
0001
0010
0000
0100
1000
0000
,
0100
0000
0001
0100
1000
0000
0001
0000
0001
0000
1000
0100
0000
0010
0001
0000
,
0100
0000
1000
0100
0001
0000
1001
0000
1000
0000
0001
0010
0000
0010
1000
0000
,
0010
0000
0100
1000
0001
0000
0100
0000
0010
0000
1000
0010
0000
0010
0001
0000
,
0010
0000
0100
0001
0010
0000
0110
0000
0100
0000
1000
0001
0000
0001
0100
0000
,
0010
0000
1000
0100
0010
0000
0000
0110
0000
0000
0110
0000
0100
0000
0000
0000
,
1000
0100
0001
0100
1000
0000
0001
0100
0000
1000
0001
0000
0010
1000
0000
0001
,
0000
1001
0000
1000
0100
0000
0001
0000
1000
0000
0010
0001
0000
1000
0001
0000
,
1001
0000
1000
0001
1000
0000
0010
0001
0000
1000
0100
0000
0001
0010
0000
0100
,
0000
0110
0000
0010
0001
0000
1000
0000
0010
0000
0001
1000
0000
0100
0001
1000
,
0001
0000
1000
0000
0010
0000
1000
0000
0010
0000
1000
0000
0100
0000
0000
0000
0000
0000
0010
0000
0000
0001
0000
0000
0000
0000
0000
0001
0000
0000
1000
0000
0000
0000
0000
0000
0010
0000
0000
0000
0000
0000
0100
0000
0000
0001
0000
0000
,
0000
0010
0100
1000
0001
0000
0001
1000
0000
1000
0100
0000
0010
0000
0100
1000
,
0000
1000
0001
0100
0010
0000
1000
0001
0010
0000
0001
0100
0010
0000
0001
0010
,
1000
0000
0000
0000
0000
0000
0100
0000
0000
0010
0000
0000
1000
0000
0000
0010
0000
0000
0001
0000
0000
0100
0000
0000
0010
0000
0000
1000
0000
0000
0001
0000
0000
0010
0000
0000
0100
0000
1000
0000
0001
0000
1000
0000
0001
0000
1000
0000
,
0020
0000
0000
0000
0130
0000
0100
0000
0001
0000
1000
0010
0000
0010
1000
0100
,
0010
0000
0010
0001
0100
0000
0010
0000
0100
0000
0100
0001
0000
1000
0100
0000
,
0110
0000
0010
0100
1001
0000
1001
0000
1001
0000
0000
0001
0000
0100
0000
0100
,
0010
1000
0001
0000
0000
0000
0011
0000
0011
0000
0000
0010
0000
0010
0000
0001
,
0100
0001
1000
0000
1000
0001
0100
0001
1000
0100
0010
0000
0001
1000
0000
1000
,
0000
0001
0000
0001
0010
0100
0010
0001
0010
0000
0010
1000
0000
0010
0001
0000
,
0010
0000
0000
0000
0000
0000
0000
0000
0001
0000
0000
0000
1000
0000
0000
0000
0001
0000
0000
0000
0000
0001
0000
0000
0000
0000
0000
0000
0000
0000
0000
0000
1000
0000
0000
0000
0000
1000
0000
0000
0000
0000
0000
0000
1001
0000
0000
0000
0000
0000
0000
0000
0000
0000
0000
0000
0000
0000
0000
0000
0000
0000
0000
0000
,
0001
0000
0000
0100
0000
0000
0010
0000
0000
1000
0000
0000
0010
0000
0000
0100
0000
0000
0010
0000
0000
0100
0000
0000
0001
0000
0000
1000
0000
0000
0001
0000
0000
1000
0000
0000
0001
0000
1000
0000
0010
0000
1000
0000
0100
0000
0010
0000
,
0002
1003
0000
0000
;

//--------------- dance-single - zgfrdl x special take it or leave it ----------------
#NOTEDATA:;
#STEPSTYPE:dance-single;
#DESCRIPTION:zgfrdl x special take it or leave it;
#DIFFICULTY:Challenge;
#METER:18;
#RADARVALUES:0.896797,1.188286,0.707685,0.391308,1.186412,754,669,85,47,0,0,0,0,0,0.896797,1.188286,0.707685,0.391308,1.186412,754,669,85,47,0,0,0,0,0;
#DISPLAYBPM:75.000:150.000;
#CHARTNAME:Challenge 18;
#CHARTSTYLE:;
#CREDIT:Frondal;
#OFFSET:-0.454;
#BPMS:0.000=150.000
,147.000=300.000
,163.000=150.000
;
#STOPS:34.000=0.200
,97.500=0.200
,113.000=0.200
,130.500=3.000
,131.000=0.100
,131.250=0.100
,131.500=0.050
,131.625=0.100
,131.875=0.250
,132.500=0.100
,132.750=0.100
,133.000=0.100
,133.250=0.100
,133.500=0.050
,133.625=0.100
,133.875=0.250
,134.500=0.100
,134.750=0.100
,135.000=0.100
,135.250=0.100
,135.500=0.050
,135.625=0.100
,135.875=0.250
,136.500=0.100
,136.750=0.100
,137.000=0.100
,137.250=0.100
,137.500=0.050
,137.625=0.100
,137.875=0.250
,138.500=0.100
,138.750=0.100
,139.000=0.100
,139.250=0.050
,139.375=0.100
,139.625=0.100
,139.875=0.050
,140.000=0.100
,140.250=0.050
,140.375=0.100
,140.625=0.100
,140.875=0.050
,141.000=0.100
,141.250=0.050
,141.375=0.100
,141.625=0.100
,141.875=0.050
,142.000=0.100
,142.250=0.050
,142.375=0.100
,142.625=0.100
,142.875=0.050
,143.000=0.100
,143.250=0.050
,143.375=0.050
,143.500=0.100
,143.750=0.050
,143.875=0.050
,144.000=0.100
,144.250=0.050
,144.375=0.050
,144.500=0.100
,144.750=0.050
,144.875=0.050
,145.000=0.100
,145.250=0.050
,145.375=0.050
,145.500=0.100
,145.750=0.050
,145.875=0.050
,146.000=0.100
,146.250=0.050
,146.375=0.050
,146.500=0.200
,163.000=1.200
,194.000=0.200
;
#NOTES:
0000
0000
0000
0000
,
1001
0001
0010
0100
0010
1000
0010
0000
,
0001
1000
0010
0100
0001
1000
0100
0000
,
1001
1000
0001
0100
0010
0001
0010
0000
,
1000
0100
1000
0000
0001
0100
0001
0000
1000
0100
1000
0000
0100
0000
0110
0000
,
1001
0000
0001
0100
0010
0100
0001
0000
0100
0000
1000
0000
0100
0000
0010
0000
,
1000
0001
0010
0100
0010
0001
1000
1000
,
0010
0000
1000
0100
0010
0100
1000
0000
0010
0000
0001
0000
0010
0000
0100
0000
,
0101
0000
0000
0000
0000
0000
0110
0000
0000
0000
0000
0000
2010
0000
0000
0000
3200
0300
0000
0000
0100
0000
0010
0000
1000
0000
0010
0000
0001
0000
0000
0000
,
0100
0001
0000
0012
0003
0000
0000
0000
1000
0100
0000
0100
0001
0000
0101
0000
,
0100
1000
0000
2010
3000
0000
0000
0000
0001
0100
0000
0100
1000
0000
1100
0000
,
0100
0010
0000
2010
3000
0000
0000
0000
0001
0010
0000
0010
1000
0000
1010
0000
,
0010
0001
1000
0010
0000
0000
0000
0000
0001
0010
0000
0100
0001
0000
1001
0000
,
1000
0100
0010
1000
0000
0010
0100
0000
1000
0010
0100
1000
0000
0100
0010
0000
,
0100
0001
0010
0100
0000
0001
0100
0000
0010
0001
0100
0010
0000
0001
0010
0000
,
1000
0100
0001
0000
1000
0010
0100
0000
0001
0100
1000
0000
0010
0100
1000
0100
,
0010
0000
0000
1000
0000
0000
0001
0000
0000
0010
0000
0000
1000
0000
0000
0010
0000
0000
0100
0000
1000
0000
0001
0000
1000
0000
0010
0000
0100
0000
0002
0000
0000
0000
0000
0000
0000
0000
0000
0000
0000
0000
2003
0000
0000
0000
0000
0000
,
0000
3020
0000
0000
0000
0000
0000
0030
0011
0000
0000
0012
0000
0000
0013
2000
,
0000
3200
0000
0000
0001
0000
0000
0300
0101
0000
0000
0102
0000
0000
0103
1000
,
0010
0001
0000
0000
0000
0000
0020
0000
0100
0000
0000
0130
0000
0000
0001
1000
,
0000
0000
0000
1000
0000
0000
0010
0000
0000
0000
0000
0000
0110
0000
0000
0000
0000
0000
0001
0000
0010
0000
0100
0000
1000
0000
0010
0000
0100
0000
0002
0000
0000
0000
0000
0000
0000
0000
0000
0000
0000
0000
2003
0000
0000
0000
0000
0000
,
0100
0000
0001
3000
1000
0000
0000
0000
0010
0000
0000
0000
0100
0000
0000
0000
0001
0000
0000
0000
0010
0000
0000
0000
0100
0000
0000
0000
0010
0000
1000
0000
,
0001
0100
1000
0000
0110
0000
0001
0000
1000
0000
0010
1000
0000
0000
0200
0000
,
1000
0000
0010
0300
0001
0000
0000
0000
1000
0000
0000
0000
0010
0000
0000
0000
0001
0000
0000
0000
0010
0000
0000
0000
0100
0000
0000
0000
1000
0000
0100
0000
,
0001
0000
0010
0000
1000
0000
0000
0000
0001
0000
0100
0000
0020
0030
0000
0000
0010
0000
0001
0000
0100
0000
1000
0000
0100
0000
0000
0000
0210
0000
0301
0000
,
0000
0000
0000
0000
0001
0010
0100
0001
0000
0000
0100
0000
0120
0031
0000
1001
,
0000
0000
0000
0000
0011
0000
1001
0000
1010
0000
0000
0000
0010
0000
0120
1030
,
0000
0000
0000
0000
1000
0100
0010
1000
0000
0000
0000
0000
0010
0200
0010
1000
,
0300
0000
0000
0000
1001
0000
0000
0000
0022
0033
0000
0000
0001
0000
1000
0000
0100
0000
1000
0000
0001
0000
0100
0000
1000
0000
0001
0000
1000
0000
0100
0000
,
0001
0010
0100
0001
0100
1000
0001
0010
1000
0001
1000
0010
0001
0100
1000
0100
,
0001
0000
0000
0010
0000
0000
0110
0000
0000
0100
0000
0000
1000
0000
0000
0001
0000
0000
0100
0000
0000
1000
0000
0000
0100
0000
0001
0000
0010
0000
2000
0000
0000
0000
0010
0000
0000
0000
3010
0000
0000
0000
0002
0000
0000
0000
0100
0000
,
0000
0103
0000
1000
0000
0100
0000
0210
0000
0301
0000
0102
0000
0013
0000
0110
0000
1100
0000
1001
0000
0101
0000
0110
,
0000
0000
0000
0000
1010
0000
0000
0000
0000
0000
0000
0000
1100
0000
0000
0000
0000
0000
0000
0000
0100
0000
0000
0000
0010
0000
0000
0000
0001
0000
0000
0000
0000
0000
0000
0000
1001
0000
0000
0000
0000
0000
0000
0000
1000
0000
0000
0000
0010
0000
0000
0000
0100
0000
0000
0000
0000
0000
0000
0000
0000
0000
0000
0000
0000
0000
0000
0000
0000
0000
0000
0000
0001
0000
0000
0000
0000
0000
0001
0000
0000
0000
0000
0000
1000
0000
0000
0010
0000
0000
0000
0000
0000
1010
0000
0000
,
0000
0000
0000
0000
1000
0000
0001
0000
0010
0000
0010
0000
0100
1000
0000
1100
0000
0000
0000
0000
0100
0000
0001
0000
0100
0000
0010
0000
0001
0100
0000
0110
,
0000
0000
0000
0000
0010
0000
0001
0000
0010
0000
1000
0000
0100
0010
0000
0110
0000
0000
0000
0000
0100
0000
1000
0000
1000
0000
0001
0100
0000
0100
0000
0010
,
1000
0000
0100
0010
0000
0010
0000
0100
0010
0000
0001
0100
0000
1000
0000
0100
0010
0000
1000
0100
0000
0001
0000
0100
0020
0000
0031
0100
0020
0000
1030
0100
,
0020
0000
0130
1000
0020
0000
0031
0010
0200
0000
0310
1000
0200
0000
0310
0001
0200
0000
0301
1000
0200
0000
0300
0000
1002
0000
0000
0000
0000
0000
0000
0000
,
0000
0000
0000
0000
0000
0003
2001
0000
,
0000
0000
0000
0000
0000
3000
1002
0000
,
0000
0000
0000
0000
0000
0003
2001
0000
,
0000
3000
0120
0000
0000
0030
0000
0000
,
1001
0000
0011
0000
1100
0000
1000
0001
0000
0010
0001
0000
1001
0000
1000
0010
,
0100
0000
1000
0000
0100
0000
0001
0010
0000
0100
0010
0000
0011
0000
0001
1000
,
0010
0000
0001
0000
0010
0000
1000
0100
0000
1000
0010
0000
0110
0000
0100
0001
,
0010
0000
1000
0000
0010
0000
0100
1000
0000
0010
1000
0000
1001
0000
0001
0010
,
0110
0000
1100
0000
1001
0000
0001
1000
0000
0010
1000
0000
1100
0000
0100
0010
,
0001
0000
0100
0000
1000
0000
0001
0010
0000
0100
0010
0000
1010
0000
1000
0100
,
0010
0000
1000
0000
0010
0000
0001
1000
0000
0001
0100
0000
0110
0000
0010
1000
,
1100
0000
0000
0000
0000
0000
0110
0000
0000
0000
0000
0000
0011
0000
0000
0000
2002
3003
0000
0000
0001
0000
1000
0000
0100
0000
0010
0000
1001
0000
0000
0000
,
1000
0010
0100
1000
0001
0010
0100
0001
0000
0011
0000
1100
0000
1000
0001
0000
,
0011
0000
1010
0000
1000
0010
0000
0100
1000
0000
1001
0000
0001
0100
0010
0000
,
0001
0010
0100
0001
1000
0100
0010
1000
0000
1010
0000
0011
0000
0001
1000
0000
,
1010
0000
0000
0000
0000
0000
0101
0000
0000
0000
0000
0000
0001
0000
0000
0010
0000
0000
0000
0000
0000
0010
0000
0000
0100
0000
0000
0000
0000
0000
1000
0000
0001
0000
1000
0000
0010
0000
0100
0000
0001
0000
0010
0000
0000
0100
0000
0000
,
0010
0100
1000
0100
1000
0001
0100
1000
0100
0010
0100
0001
0010
1000
0010
0100
,
1000
0010
0001
0010
0100
0001
1000
0001
0100
0001
1000
0100
0010
1000
0010
0100
,
1000
0010
0100
0001
0010
0100
0001
0100
1000
0001
0100
1000
0001
0010
1000
0001
,
1000
0000
0000
0010
0000
0000
0001
0000
0000
1000
0000
0000
0100
0000
0000
0001
0000
0000
0010
0000
0100
0000
1000
0000
0010
0000
0100
0000
0001
0000
0020
0000
0000
0000
0000
0000
0000
0000
0000
0000
0030
0000
0110
0000
0000
0000
0000
0000
,
0100
0000
1000
0000
0001
0010
0000
0020
1000
0000
0100
0000
0031
0100
0001
0000
,
0010
0000
0010
0000
0100
1000
0000
0001
1000
0000
0010
0000
0010
0100
0101
0000
,
1100
0000
0101
0000
0000
0000
0000
1000
0001
0000
0100
1000
0100
0010
1000
0000
,
1100
0000
0101
0000
0001
0100
0000
1000
0010
0100
1000
0000
0100
0000
0001
0010
,
0100
0010
0001
1000
0100
1000
0001
0010
0100
0010
0001
1000
0010
1000
0001
0010
,
0100
0000
0000
0000
0000
0000
0000
0000
0000
0000
0000
0000
1000
0000
0000
0000
0000
0000
0000
0000
0000
0000
0000
0000
0010
0000
0000
0000
0000
0000
0000
0000
0000
0000
0000
0000
0001
0000
0000
0000
0000
0000
0000
0000
0000
0000
0000
0000
0010
0000
0000
0000
0000
0000
0000
0000
0000
0000
0000
0000
0100
0000
0000
0000
0000
0000
0000
0000
0000
0000
0000
0000
0001
0000
0000
0000
0000
0000
0000
0000
0000
0000
0000
0000
0010
0000
0000
0000
0000
0000
0000
0000
0000
0000
0000
0000
0100
0000
0000
0000
0000
0000
0000
0000
0000
0000
0000
0000
0001
0000
0000
0000
0000
0000
0000
0000
0000
0000
0000
0000
0100
0000
0000
0000
0000
0000
0000
0000
0000
0000
0000
0000
1000
0000
0000
0000
0000
0000
0000
0000
0000
0000
0000
0000
0010
0000
0000
0000
0000
0000
0000
0000
0000
0000
0000
0000
0100
0000
0000
0000
0000
0000
0000
0000
0000
0000
0000
0000
0201
0000
0000
0000
0000
0000
0000
0000
0000
0000
0000
0000
0000
0000
0000
0010
0300
0000
0000
0000
0000
0000
0000
0000
,
0000
0000
0000
0000
0000
0000
0000
0000
0000
0000
0000
0000
0000
0000
0000
0000
0000
0000
0000
0000
0000
0000
0000
0000
0120
0000
0000
0000
0000
0000
0000
0000
0000
0000
0000
0000
0000
0000
0000
1000
0030
0000
0000
0000
0000
0000
0000
0000
0000
0000
0000
0000
0000
0000
0000
0000
0000
0000
0000
0000
1100
0000
0000
0000
0000
0000
0000
0000
0000
0000
0000
0000
0000
0000
0000
0000
0000
0000
0000
0000
0000
0000
0000
0000
0000
0000
0000
0000
0000
0000
0000
0000
0000
0000
0000
0000
0000
0000
0000
0000
0000
0000
0000
0000
0000
0000
0000
0000
0000
0000
0000
0000
0000
0000
0000
0000
0000
0000
0000
0000
0100
0000
0000
0000
0000
0000
0000
0000
0000
0000
0000
0000
0001
0000
0000
0000
0000
0000
0000
0000
0000
0000
0000
0000
0100
0000
0000
0000
0000
0000
0000
0000
0000
0000
0000
0000
1000
0000
0000
0000
0000
0000
0000
0000
0000
0000
0000
0000
0001
0000
0000
0000
0000
0000
0000
0000
0000
0000
0000
0000
0100
0000
0000
0000
0000
0000
0000
0000
0000
0000
0000
0000
,
0010
0000
0000
1000
0000
0000
0001
0000
0000
0010
0000
0000
1000
0000
0000
0010
0000
0000
0100
0000
1000
0000
0010
0000
0100
0000
0001
0000
0100
0000
2000
0000
0000
0000
0000
0000
0000
0000
0000
0000
0000
0000
3000
0000
0000
0000
0000
0000
;
