#TITLE:ゆめかぜファンタジー;
#SUBTITLE:;
#ARTIST:kagerow;
#TITLETRANSLIT:Yumekaze fantasy;
#SUBTITLETRANSLIT:;
#ARTISTTRANSLIT:;
#GENRE:DREAMY POP CORE;
#CREDIT:;
#MUSIC:Yumekaze fantasy.ogg;
#BANNER:Yumekaze fantasy.png;
#BACKGROUND:Yumekaze fantasy-bg.png;
#CDTITLE:;
#SAMPLESTART:69.858;
#SAMPLELENGTH:14.020;
#SELECTABLE:YES;
#OFFSET:-0.520;
#BPMS:0.000=180.000;
#STOPS:60.000=1.000;
#BGCHANGES:;
#FGCHANGES:;

//--------------- dance-single - eataninja ----------------
#NOTES:
     dance-single:
     eataninja:
     Beginner:
     4:
     0,0,0,0,0:
0000
0000
0000
0000
,
0000
0000
0000
0000
,
0000
0000
0000
0000
,
0000
0000
0000
0000
,
0002
0000
0000
0003
,
2000
0000
0000
3000
,
0200
0000
0000
0300
,
0020
0000
0000
0030
,
0001
0000
1000
0000
,
0010
0000
0100
0000
,
0010
0010
0010
0000
,
1000
0000
0001
0000
,
0010
0000
0100
0000
,
0010
0010
0001
0000
,
1001
0000
1001
0000
,
2002
3003
1000
0000
0000
0000
0010
0000
,
0000
0100
0000
0001
,
0000
0010
0000
0100
,
0000
2000
0000
3000
,
0000
0001
0000
1000
,
1000
0010
0000
0100
,
0000
0001
0000
0010
,
0000
0200
0000
0300
,
0000
1000
0000
0001
,
0000
0100
0000
0010
,
0000
0100
0000
0001
,
0000
2000
0000
3000
,
0000
0100
0000
0010
,
0010
0100
0000
1000
,
0000
0001
0000
1000
,
0000
2002
0000
3003
,
0000
1001
0000
0000
,
0000
0100
0000
0000
,
0000
1001
0000
0000
,
0000
0010
0000
0000
,
0000
0110
0000
0000
,
0000
1000
0000
0000
,
0000
0110
0000
0000
,
0000
0001
0000
0000
,
0000
0000
1000
1000
,
0000
0010
0000
0100
,
0000
0001
0001
0001
,
0000
0010
0000
0100
,
0000
1001
0000
0000
,
0000
0110
0000
0000
,
0000
1001
0000
0000
,
0000
0110
0000
0000
,
0000
0100
0000
0001
,
0000
1000
0000
0100
,
0000
1001
0000
1001
,
0000
1001
0000
0000
,
0000
1000
0000
0010
,
0000
0100
0010
0100
,
0000
0001
0000
0010
,
0000
0100
0010
0100
,
0000
1000
0000
1000
,
0000
0001
0000
0001
,
0000
0100
0000
0100
,
0000
0010
0000
2000
,
0000
3000
0001
0001
,
0000
0010
0000
0100
,
0000
1000
1000
1000
,
0000
0001
0000
0100
,
0000
0010
0000
1000
,
0000
0100
0000
0001
,
0000
0100
0010
0100
,
0000
1000
0001
1000
,
0001
0100
0000
0000
,
0000
2002
0000
0000
,
3003
0002
0000
0000
,
0003
0020
0000
0000
,
0030
0200
0000
0000
,
0300
2000
0000
0000
,
3000
0002
0000
0000
,
0003
2000
0000
0000
,
3000
0020
0000
0000
,
0030
0200
0000
0000
,
0300
0010
0010
0100
,
0000
0010
0010
1000
,
0000
0001
0000
0010
,
0000
0100
0010
0100
,
0000
1000
1000
1000
,
0000
0001
0001
0001
,
0000
0100
0010
1000
,
0000
0002
0000
0000
0000
0000
0000
0000
,
0000
0000
0000
0000
,
0000
0003
0000
0000
;

//--------------- dance-single - eataninja ----------------
#NOTES:
     dance-single:
     eataninja:
     Easy:
     8:
     0,0,0,0,0:
0000
0000
0000
0000
,
0000
0000
0000
0000
,
0000
0000
0000
0000
,
0000
0000
0000
0000
,
0002
0000
0000
0000
,
2003
0000
0000
0000
,
3200
0000
0000
0000
,
0320
0000
0000
0000
,
0031
1000
0010
0100
,
0010
0010
1000
0001
,
0010
0100
1000
0010
,
0001
0010
0100
0001
,
1000
0001
1000
1000
,
0100
0010
1000
0010
,
0110
0000
0110
0000
,
1001
2000
3000
0020
,
0030
0200
0300
0002
,
0003
0010
0100
0100
,
0010
0000
0001
0000
0000
1000
0000
0000
,
0010
0100
0001
0100
,
1000
0100
0010
1000
,
0001
0000
0010
0000
0000
0100
0000
1000
,
0000
2002
0000
0000
0000
0000
0000
0000
,
3003
0002
0003
0200
,
0300
0020
0030
2000
,
3000
0010
0100
0010
,
1000
0000
0001
0000
0000
0010
0000
0000
,
0100
1000
0001
0100
,
1000
0100
0010
1000
,
0001
0000
0010
0000
0000
0100
0000
0010
,
0000
2002
0000
0000
0000
0000
0000
0000
,
3003
0000
1000
1000
0000
0000
0000
0010
,
0000
0210
0000
0301
0000
0000
0000
1000
,
0000
0000
0001
0001
0000
0000
0000
0010
,
0000
0210
0000
1300
0000
0000
0000
0001
,
0000
0000
0100
0100
0000
0000
0000
0010
,
0000
1002
0000
1003
0000
0000
0000
0100
,
0000
0000
0010
0010
0000
0000
0000
0100
,
0000
2001
0000
3001
0000
0000
0000
0100
,
0100
0100
0000
0000
1001
0000
0001
0000
,
0100
1000
0100
0001
,
0010
0100
0001
0100
,
1000
0001
0100
0010
,
1000
0000
2010
0000
0000
3001
0000
0000
,
0000
0000
0012
0000
0000
1003
0000
0000
,
0000
0000
2100
0000
0000
3001
0000
0000
,
0000
0000
0102
0000
0000
1003
0000
0000
,
0000
0000
0010
0000
0000
0010
0000
0000
,
0100
0000
0000
0100
0000
0000
0001
0000
,
1000
1001
0000
0110
,
0000
1001
0000
0000
,
0000
1000
0010
1000
,
1000
0001
0010
1000
,
0010
0100
1000
0001
,
0001
0100
1000
0100
,
0001
0010
0000
0100
,
0001
0100
0000
0100
,
0010
0100
0000
0100
,
1000
0010
0100
0001
,
0010
0000
0110
1000
,
0001
0010
0100
0001
,
0100
1000
0001
1000
,
1000
0010
0001
1000
,
0100
0020
0000
2030
,
0000
3002
0000
0023
,
0000
0130
1000
1001
,
0000
0001
0100
1000
,
0100
0000
0010
0000
1000
0000
0001
0010
,
0000
2002
0000
0000
0000
0000
0000
0000
,
3003
0002
0000
0000
,
0000
2003
0000
0000
,
0000
3020
0000
0000
,
0000
0230
0000
0000
,
0000
0302
0000
0000
,
0000
0023
0000
0000
,
0000
2030
0000
0000
,
0000
3020
0000
0000
,
0000
0130
0100
1000
,
1000
0001
0100
1000
,
0100
0010
1000
0001
,
0010
0100
0100
0010
,
0010
0001
1000
0001
,
1000
0010
0001
0010
,
0100
0001
1000
0100
,
0010
0200
0000
0000
0000
0000
0000
0000
,
0000
0000
0000
0000
,
0000
0300
0000
0000
;

//--------------- dance-single - eataninja ----------------
#NOTES:
     dance-single:
     eataninja:
     Medium:
     11:
     0,0,0,0,0:
0000
0000
0000
0000
,
0000
0000
0000
0000
,
0000
0000
0000
0000
,
0000
0000
0000
0000
,
0002
0000
0000
0000
0000
0000
0000
0013
,
0200
0000
0000
0000
0000
0000
0000
1300
,
0002
0000
0000
0000
0000
0000
1003
0200
,
0000
0000
0000
0300
,
0100
0010
0001
0000
0100
0000
0001
0000
,
1000
0100
0000
0001
0100
0000
0010
0000
,
0002
2003
3020
0230
,
0301
1000
0001
0000
0010
0100
1000
0000
,
0001
0000
0100
0010
0000
0100
0001
0000
,
0010
0000
0100
0002
0000
0103
1000
0000
,
0001
0000
0001
0000
0001
0000
1000
0000
1000
0000
1000
0000
,
0200
0300
0000
0000
2000
0000
0000
0000
0001
0000
0000
0000
3200
0000
0000
0000
,
0001
0320
0001
0230
,
1300
0000
0001
0000
0100
0100
0000
0010
,
1000
0100
0020
0000
0000
0032
0000
0000
,
1003
0010
1000
0000
0100
0000
0001
0100
,
1000
0000
0010
0000
0100
0000
1000
0100
,
0001
0000
0010
0000
0100
1000
0000
1001
,
0000
0220
0000
0000
0000
0000
0000
0000
,
0330
0002
0010
0203
,
1000
0320
0100
2030
,
3001
0000
0010
0000
0100
0100
0000
1000
,
0010
0100
2000
0000
0000
3200
0000
0000
,
0301
0000
1000
0000
0100
0000
0001
0100
,
0010
0000
0001
0000
1000
0000
0010
0100
,
0001
0000
1000
0000
0100
0010
0000
0110
,
0000
2002
0000
0000
0000
0000
0000
0000
,
3003
0000
0010
0010
0100
0000
0000
1001
,
0000
2001
0000
3100
0000
0010
0001
0000
,
0100
0000
0010
0010
0100
0000
0000
1001
,
0000
1002
0000
0013
0000
0100
1000
0000
,
0001
0000
1000
1000
0010
0000
0000
0110
,
0000
0102
0000
1003
0000
0100
0010
0000
,
0001
0000
0100
0100
0001
0000
0000
0110
,
0000
2010
0000
3001
0000
0010
0100
1000
,
0001
0001
0000
0000
2001
0000
0010
0000
,
3001
0000
0100
0010
1000
0000
0100
0010
,
0001
1000
1002
0010
,
1003
0000
0010
0100
0010
0000
1000
0001
,
0010
0000
0021
0000
0031
0010
1000
0000
,
0010
0000
1200
0000
1300
0100
0001
0000
,
0100
0000
0120
0000
0031
0100
1000
0000
,
0100
0000
0210
0000
0301
0010
1000
0000
,
0010
0000
0100
0000
1000
0001
1000
0010
,
0100
0000
0001
1000
0010
0100
0010
0000
,
1000
0000
0000
0001
0000
0001
0000
0001
0000
1000
0000
1000
,
0000
1000
0000
0100
0000
0000
0000
0000
0000
0000
0000
0000
,
0000
0000
1000
0000
0001
0000
0100
0010
,
1000
0000
0100
0000
0001
0001
0000
0100
,
0000
1000
0010
0000
0100
0000
0001
1000
,
0010
0000
0001
0000
0010
0010
0000
0100
,
0000
0001
2000
0000
0010
0000
0100
0000
,
3100
1002
0010
0100
,
0103
1001
0100
0110
,
1000
0000
0001
0010
0100
1000
0001
0100
,
0010
1000
0000
0000
0110
0000
1000
0001
,
0010
0000
1000
0000
0010
0010
0000
0100
,
0000
1000
0001
0000
0100
0000
0010
1000
,
0100
0000
0001
0000
0100
0100
0000
0010
,
0000
0001
2000
0000
0100
0000
3002
0000
,
0010
2003
0010
3002
,
0100
1003
0010
0210
,
0301
0000
0000
0010
0000
0000
0100
0000
0000
1000
0000
0001
,
0000
0000
0100
0000
0000
0000
0020
0000
0000
0000
0000
0000
1000
0000
0000
0000
0000
0000
0100
0000
0000
0100
0000
0000
,
0000
0001
0000
1030
0010
0100
0001
0010
,
0100
1000
0002
0000
0000
0100
0000
0000
,
0100
0000
2003
0000
0000
0100
0000
0000
,
3100
2000
3002
0023
,
0130
0002
0000
0000
0103
0000
1000
0000
,
0010
0000
0200
0000
0000
1000
0000
0000
,
0010
0000
0302
0000
0000
0010
0000
0000
,
1000
0203
2300
3200
,
0302
0013
0100
1000
,
0001
0000
0100
0010
1000
0000
0001
1000
,
0001
0000
0010
0100
0010
0100
0001
0100
,
1000
0000
0010
0000
0100
0000
0001
0010
,
1000
0000
0010
0100
1000
0000
0010
0100
,
0001
0000
1000
0100
1000
0100
0010
0001
,
1000
0000
0001
0100
0001
0100
0010
1000
,
0001
0000
1000
0001
1000
0010
0100
0001
,
0010
0200
0000
0000
0000
0000
0000
0000
,
0000
0000
0000
0000
,
0000
0300
0000
0000
;

//--------------- dance-single - eataninja ----------------
#NOTES:
     dance-single:
     eataninja:
     Hard:
     14:
     0,0,0,0,0:
0000
0000
0000
0000
,
0000
0000
0000
0000
,
0000
0000
0000
0000
,
0000
0000
0000
0000
,
0002
0000
0000
0010
0000
0000
0010
0000
,
2003
0000
0000
0100
0000
0000
0100
0000
,
3020
0000
0000
0100
0000
0000
1000
0000
,
2030
0000
0000
0001
0000
0000
3001
0000
,
1000
0001
0100
2000
0000
3100
0010
1000
,
0001
0020
0000
0031
2000
0000
3010
0100
,
0001
0000
0000
0001
1000
0000
0000
1000
0100
0000
0000
0100
0010
0000
0001
0000
,
0100
1000
0100
0001
1000
0100
0010
0001
,
1000
0010
0010
0100
0100
0001
0010
0100
,
2000
0000
3010
0002
0000
1003
0100
0001
,
1000
0000
1000
0000
1000
0000
0001
0000
0001
0000
0001
0000
,
0220
0330
1000
0000
2000
0000
0000
0000
3010
0000
0100
0000
0200
0000
0000
0000
,
0301
0010
0020
0000
0130
1000
2000
0000
,
3010
0100
2000
0000
3100
0010
1000
0001
,
0010
0100
1000
0000
0001
0100
0000
0010
,
0100
0001
0020
0000
0130
0001
0001
0100
,
1000
0010
0100
0000
0010
1000
1000
0001
,
0010
0100
1000
0000
0001
0100
0000
0110
,
0000
1002
0000
1003
0100
0010
0001
0100
,
0010
1000
2000
0000
3001
0010
0020
0000
,
0031
1000
2000
0000
3010
0100
0200
0000
,
0301
0010
2000
0000
3010
0100
1000
0001
,
0100
0010
0002
0000
0013
2000
0000
3001
,
0010
0100
1000
0000
0001
1000
1000
0010
,
0001
1000
0200
0000
0310
1000
0001
0010
,
1000
0010
0100
0000
1000
0001
0000
0101
,
0000
0120
0000
1030
0001
1000
0100
0010
,
0001
1000
0010
0010
0000
0110
0000
1001
,
0000
0000
2001
0000
0000
0000
3100
0000
0010
0000
0001
0100
0002
0000
0000
0000
,
1003
0001
0010
0010
0000
0110
0000
1001
,
0000
1002
0000
0013
0100
1000
0010
0100
,
0001
0000
0100
0100
0000
0110
0000
1001
,
0000
0000
1002
0000
0000
0000
0013
0000
0100
0000
1000
0001
1000
0000
0000
0000
,
0001
0010
0100
0100
0000
0110
0000
1001
,
0000
1002
0000
1003
0010
0100
0001
0010
,
0010
0010
0000
0000
0110
0000
1000
0001
,
0200
0000
0000
0000
2300
0000
0000
0000
3100
0000
0010
1000
0010
0000
0000
0000
,
1000
0001
0010
0100
1000
0000
0020
0000
,
0032
0000
0023
0000
0130
0001
1000
0100
,
0010
0000
0000
0000
0011
0000
0000
0000
0000
0000
1000
0001
2000
0000
0000
0000
,
3000
0000
0000
0000
1010
0000
0000
0000
0000
0000
0001
1000
0002
0000
0000
0000
,
0003
0000
0000
0000
0101
0000
0000
0000
0000
0000
1000
0010
2000
0000
0000
0000
,
3000
0000
0000
0000
1100
0000
0000
0000
0000
0000
0001
0010
0002
0000
0000
0000
,
0003
0000
1000
0010
0100
1000
0100
0010
,
1000
0001
0010
1000
0010
0100
1000
1000
,
0001
0000
0000
0100
0000
0000
0010
0000
0000
0000
0010
0000
0000
0000
0010
0000
0000
0000
0100
0000
0000
0000
0100
0000
,
0000
0100
0000
1001
0000
0000
0000
0000
0000
0000
0000
0000
,
0000
0000
1000
0100
0010
0001
0001
1000
,
0010
0100
2000
0000
3100
0002
0000
2003
,
0000
0000
3100
0010
0001
0000
0000
0000
1000
0000
0010
0000
0010
0000
1000
0000
,
0001
0010
2000
0000
3010
0200
0000
2300
,
0000
0000
3001
0100
0020
0000
0000
0000
0030
0000
1000
0001
1000
0000
0000
0100
,
0000
0000
0010
0000
1001
0000
0000
0000
0000
0000
0001
1000
0001
0000
0000
0010
,
0000
0000
0100
0000
1001
0000
0000
0000
0000
0000
1000
0010
1000
0000
0000
0001
,
0000
0010
0100
0001
1000
0010
0001
1000
,
0010
0100
0200
0000
0301
1000
1000
0010
,
0100
1000
0002
0000
0013
2000
0000
3002
,
0000
0000
0013
0100
1000
0000
0000
0000
0001
0000
0100
0000
0100
0000
0001
0000
,
1000
0100
0020
0000
1030
0002
0000
0203
,
0000
0000
1300
0001
1000
0000
0010
0000
0100
0000
0010
0000
1000
0000
0001
0000
,
0010
0001
1000
0100
0010
0100
1000
0001
,
0100
0000
0010
0000
1000
0000
0000
0001
0000
0000
0010
0000
0110
0000
0000
0000
,
1000
0000
0000
0000
0000
0000
0001
0000
0000
0000
0000
0000
0100
0000
0000
0000
0000
0000
0000
0000
0000
1000
0000
0000
0000
0000
0000
0000
0000
0000
0100
0000
0000
0000
0000
0000
0010
0000
0000
0000
0000
0000
0000
0000
1000
0000
0000
0000
,
0000
0000
0001
0000
0000
0000
0010
0000
0000
0000
0000
0000
0100
0000
0000
0000
0000
0000
1000
0000
0000
1000
0000
0000
,
0000
0102
0000
1003
0010
0100
0001
0010
,
0100
1000
0020
0000
1000
0000
0100
0000
,
1000
2030
0100
0010
,
0001
3200
0001
0010
,
1300
0001
0200
0000
0310
0000
0100
0001
,
0010
0100
0002
0000
2003
0000
3020
0000
,
0130
0010
0200
0000
2300
0000
3002
0000
,
0103
1000
0200
0000
0320
0000
1030
0001
,
0010
0100
2000
0000
0010
0000
0001
0000
,
3100
0000
1000
0001
0001
1000
0001
0001
,
1000
0000
0100
0000
0010
0000
0000
0010
0000
0000
1000
0000
0010
0000
0100
0000
,
1000
0000
0001
0000
0100
0000
0000
0010
0000
0000
1000
0000
0000
0001
0000
0000
,
0010
0100
1000
0001
0100
0010
1000
0001
,
0010
0000
0100
0000
1000
0010
0000
1000
0010
0000
1000
0010
0000
1000
0010
0000
,
0100
0000
0001
0000
1000
0100
0000
1000
0100
0000
1000
0100
0000
1000
0100
0000
,
0001
0100
0010
0010
0001
0001
1000
0010
,
0100
2002
0000
0000
0000
0000
0000
0000
,
0000
0000
0000
0000
,
0000
3003
0000
0000
;

//--------------- dance-single - eataninja ----------------
#NOTES:
     dance-single:
     eataninja:
     Challenge:
     17:
     0,0,0,0,0:
0000
0000
0000
0000
,
0000
0000
0000
0000
,
0000
0000
0000
0000
,
0000
0000
0000
0000
,
0002
0000
0000
0000
0000
0000
0000
0000
0000
0000
0000
0000
0000
0000
1003
0010
,
0200
0000
0000
0000
0000
0000
0000
0000
0000
0000
0000
0000
0000
0000
0301
1000
,
0002
0000
0000
0000
0000
0000
0000
0000
0000
0000
0013
0100
1000
0000
0020
0000
,
0000
0000
0000
0030
,
0100
0010
1000
0001
0010
0000
0200
0000
0000
0000
0310
0000
0001
1000
0001
0100
,
0010
0000
1000
0000
0000
0000
0001
0000
0010
0000
0000
0000
0100
1000
0001
1000
,
0010
0000
0000
0010
0100
0000
0000
0100
0001
0000
0000
0001
0010
0100
0010
0100
,
1000
0010
0100
0000
0001
1000
0100
0000
0010
0001
0010
0001
1000
0010
0100
0010
,
0001
0000
0010
0100
0010
0000
0001
0000
0001
0000
0010
0000
1000
0000
0100
0000
,
0010
0001
0010
0000
0100
0000
0002
0000
0000
0000
0103
0010
0100
0010
0001
1000
,
0010
0000
0010
0000
0010
0000
0100
0000
0100
0000
0100
0000
,
2002
3003
0001
0100
0002
0000
0000
0000
0003
0000
0100
0010
0200
0000
0000
0000
,
0300
0000
0010
1000
0020
0000
0000
0000
0030
0000
1000
0001
2000
0000
0000
0000
,
3000
0000
0100
0010
0002
0000
0000
0000
1003
0000
0002
0000
0000
0000
0103
0010
,
1000
0100
0020
0000
0000
1000
0000
0000
,
0130
0010
0001
1000
0020
0000
0000
0000
0130
0000
0001
0010
0001
0000
0010
0000
,
0100
0000
2000
0000
0000
0000
0000
0000
3001
0000
1000
0010
1000
0000
0100
0000
,
0001
0000
0100
0000
0020
0000
0000
0000
0031
1000
0010
0000
0000
0000
0110
0000
,
0000
2010
0000
3001
0010
1000
0010
0100
,
1000
0000
0001
0100
0002
0000
0000
0000
1003
0000
0100
0010
0200
0000
0000
0000
,
0310
0000
0001
0010
0002
0000
0000
0000
1003
0000
0010
1000
0020
0000
0000
0000
,
0130
0000
0001
0010
0200
0000
0000
0000
1300
0000
0100
0000
0010
0000
0001
1000
,
0010
0001
0020
0000
1000
1000
0000
0130
,
0010
1000
0001
0010
0200
0000
0000
0000
0310
0000
0001
1000
0001
0000
0100
0000
,
1000
0000
0200
0000
0000
0000
0000
0000
0310
0000
1000
0001
0010
0000
0100
0000
,
0001
0100
0110
0000
0011
1001
0000
1010
,
0000
0102
0000
1003
0001
0010
1000
0010
,
0100
1000
0100
1000
0001
0000
0001
0000
0000
0000
MMMM
0000
0000
0000
1100
0000
,
0000
0000
0012
0000
0000
0000
1003
0000
0010
0000
0100
1000
0100
0000
0001
0000
,
0010
0100
1000
1000
0000
MMMM
0000
0101
,
0000
2010
0000
3001
1000
0001
0100
0010
,
1000
0001
0010
0010
0000
MMMM
0000
0011
,
0000
0000
2100
0000
0000
0000
3001
0000
1000
0000
0010
0100
0010
0000
1000
0000
,
0001
0010
0100
0100
0000
MMMM
0000
1100
,
0000
0000
0012
0000
0000
0000
1003
0000
0001
0000
0100
0000
0010
0000
1000
0100
,
1000
0100
1000
0100
0000
0000
MMMM
0000
1001
0000
0000
0000
0001
0000
0100
0000
,
1000
0000
0100
0000
0010
0000
1000
0000
0100
0000
0001
0100
0001
0000
0100
0000
,
0010
0001
1000
0010
0100
0010
0001
0010
,
0100
0010
1000
0001
0010
0100
0001
0100
,
1000
0000
0001
0000
0102
0000
0000
0000
1003
0000
0001
0010
0002
0000
0000
0000
,
0013
0100
1000
0001
0200
0000
0000
0000
0301
0000
0100
0010
0200
0000
0000
0000
,
0301
1000
0100
1000
0020
0000
0000
0000
0130
0000
0001
1000
0002
0000
0000
0000
,
0013
0100
1000
0001
0100
0000
1000
0000
0100
0000
0010
0100
0010
0000
1000
0000
,
0001
0010
0100
1000
0010
0000
0000
0000
0100
0010
0100
0010
1000
0001
0010
0100
,
1000
0001
1000
0001
0100
0010
0100
0001
1000
0010
0100
0001
1000
0100
1000
0100
,
0010
0000
0000
0001
0000
0000
1000
0000
0000
0010
0000
0000
0100
0000
0000
0000
0000
0000
0000
0000
0100
0000
0000
0000
0000
0000
0000
0000
0100
0000
0000
0000
0000
0000
0000
0000
0010
0000
0000
0000
0000
0000
0000
0000
0010
0000
0000
0000
,
0000
0000
0000
0000
0010
0000
0000
0000
0000
0000
0000
0000
2002
0000
0000
0000
0000
0000
3003
0000
0000
0000
0000
0000
0000
0000
0000
0000
0000
0000
1000
0000
0000
0100
0000
0000
0001
0000
0000
0000
0000
0000
0100
0000
0000
0010
0000
0000
,
0100
0000
0010
0000
0001
0000
1000
0000
0010
0000
0100
0010
0100
0000
0010
0000
,
1000
0100
0002
0000
0103
0200
0000
1300
,
0001
0000
0100
0010
2000
0000
0000
0000
3001
0000
1000
0100
1000
0000
0001
0000
,
0100
0010
0002
0000
0013
0200
0000
0301
,
1000
0000
0100
0010
0002
0000
0000
0000
1003
0000
0010
0100
0010
0000
1000
0001
,
0000
1000
0100
0000
0010
0000
0000
0000
0001
0000
1000
0010
1000
0000
0010
0100
,
0000
0010
1000
0000
0001
0000
0000
0000
0010
0000
0100
0001
0100
0000
0010
0001
,
0000
1000
0010
0000
0100
0000
1000
0000
0100
0000
0010
0000
0100
0000
0001
0000
,
1000
0100
1000
0100
0000
0000
MMMM
0000
1001
0000
0001
0100
0001
0000
1000
0000
,
0100
0001
2000
0000
3010
0020
0000
0130
,
1000
0000
0001
0100
0020
0000
0000
0000
0130
0000
0001
1000
0001
0000
0010
0000
,
0100
1000
0020
0000
0130
2000
0000
3001
,
0010
0000
0100
0001
1000
0000
0100
0000
0010
0000
0100
0000
0001
0000
0100
0000
,
0010
0001
1000
0010
0100
0010
0001
0010
,
0100
0000
0001
1000
0001
0000
0010
0100
0000
0010
0001
0000
2000
0000
0000
0000
,
3010
0000
0000
0100
0000
0000
0010
0000
0000
1000
0000
0000
0001
0000
0000
0000
0000
0000
0010
0000
0000
0100
0000
0000
0000
0000
0000
0010
0000
0000
0001
0000
0000
0000
0000
0000
0100
0000
0000
0000
0000
0000
0000
0000
0010
0000
0000
0000
,
0000
0000
1000
0000
0000
0000
0100
0000
0000
0010
0000
0000
1000
0000
0000
0001
0000
0000
0100
0000
0000
0010
0000
0000
,
0000
0000
2001
0000
0000
0000
3010
0000
1000
0001
1000
0001
0010
0100
1000
0001
,
0100
0010
0100
0010
2000
0000
0000
0000
0100
0000
0000
0000
0010
0000
0000
0000
,
3001
0000
1000
0010
0200
0000
0000
0000
1000
0000
0000
0000
0310
0000
1000
0000
,
0001
0010
0200
0000
1000
0000
0001
0000
,
0310
0000
0001
0000
2000
0000
0000
0000
0010
0000
0000
0000
3001
0010
0001
1000
,
0010
0100
0001
1000
0200
0000
0000
0000
0001
0000
0000
0000
0010
0000
0000
0000
,
1300
0000
0001
0100
0020
0000
0000
0000
0001
0000
0000
0000
1000
0000
0000
0000
,
0130
0000
0001
1000
0002
0000
0000
0000
0010
0000
0000
0000
1003
0000
0001
0100
,
0010
0200
1000
0000
0010
0000
0301
1000
,
0100
0000
0010
0000
0001
1000
0001
1000
0010
0000
1000
0001
1000
0001
0010
0000
,
0100
0010
0001
1000
0010
0100
0010
0001
0010
0100
0001
0000
1000
0100
0010
0001
,
1000
0010
1000
0010
0200
0000
0000
2300
0000
0000
3002
0000
0000
0023
0000
0000
,
0130
0001
1000
0000
0100
0010
0100
0010
0001
0000
0100
0010
0100
0010
1000
0000
,
0001
0010
0100
1000
0001
0100
0000
0010
0100
0000
0001
0100
0000
0010
0100
0000
,
0001
0010
0100
1000
0001
0100
0001
1000
0010
1000
0001
0010
0001
1000
0001
0100
,
1000
0000
0100
0010
1000
0001
1000
0001
0010
0100
0010
0100
0001
0100
0001
0100
,
0010
2002
0000
0000
0000
0000
0000
0000
,
0000
0000
0000
0000
,
0000
3003
0000
0000
;
