#TITLE:You You You;
#SUBTITLE:;
#ARTIST:D.watt feat. 紡音れい;
#TITLETRANSLIT:;
#SUBTITLETRANSLIT:;
#ARTISTTRANSLIT:;
#GENRE:;
#CREDIT:;
#BANNER:You You You.png;
#BACKGROUND:You You You-bg.png;
#LYRICSPATH:;
#CDTITLE:;
#MUSIC:You You You.ogg;
#OFFSET:-1.640000;
#SAMPLESTART:73.976768;
#SAMPLELENGTH:15.000000;
#SELECTABLE:YES;
#BPMS:0.000000=146.000000
;
#STOPS:
;
#BGCHANGES:;
#KEYSOUNDS:;
#ATTACKS:;

//---------------dance-single - ----------------
#NOTES:
     dance-single:
     :
     Easy:
     6:
     0.254013,0.266363,0.084225,0.093584,0.000000,190.000000,181.000000,9.000000,10.000000,0.000000,0.000000,0.254013,0.266363,0.084225,0.093584,0.000000,190.000000,181.000000,9.000000,10.000000,0.000000,0.000000:
// measure 0
0000
0000
0000
0000
,  // measure 1
0000
0000
0000
0000
,  // measure 2
1000
1000
1000
0000
,  // measure 3
0000
0100
0100
0010
,  // measure 4
0001
0001
0001
0000
,  // measure 5
0000
0100
0001
1000
,  // measure 6
0001
0001
0001
0000
,  // measure 7
0000
0010
0100
0100
,  // measure 8
1000
1000
1000
0000
,  // measure 9
0000
0010
0100
0001
,  // measure 10
0010
0010
0010
0000
,  // measure 11
0000
0100
1000
0001
,  // measure 12
1001
0000
0000
0000
1001
0000
0000
1001
,  // measure 13
0000
0000
0001
1000
,  // measure 14
0010
0010
0010
1000
,  // measure 15
0100
0100
0100
0010
,  // measure 16
0001
0001
0001
0100
,  // measure 17
1000
1000
1000
0100
,  // measure 18
0010
0000
0000
0100
0000
0000
0020
0000
,  // measure 19
0000
0000
0000
1030
,  // measure 20
0001
0001
0010
0001
,  // measure 21
0001
1000
0100
0010
,  // measure 22
0001
0000
0000
1000
0000
0000
0002
0000
,  // measure 23
0000
0000
0000
0103
,  // measure 24
0001
0001
1000
0100
,  // measure 25
0110
0000
1001
0000
,  // measure 26
0010
0010
1000
1000
,  // measure 27
0001
0000
0110
0000
,  // measure 28
0100
0100
0001
1000
,  // measure 29
0000
0001
0100
0100
,  // measure 30
0001
0010
0010
0100
,  // measure 31
1001
0000
0100
0000
,  // measure 32
0010
0000
0000
0000
0010
0000
0000
0010
,  // measure 33
0000
0000
0001
0001
,  // measure 34
0100
0000
0000
0000
0100
0000
0000
0100
,  // measure 35
0000
0000
0000
0000
,  // measure 36
2002
0000
3003
0000
,  // measure 37
0001
0010
0100
1000
,  // measure 38
0002
0103
2000
3100
,  // measure 39
0010
0001
1000
1000
,  // measure 40
0002
0013
2000
3010
,  // measure 41
0001
0010
0100
1000
,  // measure 42
0001
0001
1000
1000
,  // measure 43
0001
0000
0110
0000
,  // measure 44
0001
0001
0001
0000
,  // measure 45
0000
2000
0000
0000
0100
0000
3100
0000
,  // measure 46
1000
1000
1000
0000
,  // measure 47
0000
0100
1000
0001
,  // measure 48
0010
0010
0010
0000
,  // measure 49
0000
0001
1000
0001
,  // measure 50
0100
0100
0100
0100
,  // measure 51
0000
0000
0001
0001
,  // measure 52
0001
1000
1000
1000
,  // measure 53
0000
0010
0100
0001
,  // measure 54
0100
0100
0100
0000
,  // measure 55
0000
0001
0010
0100
,  // measure 56
0010
0010
0010
0000
,  // measure 57
0000
0100
1000
0001
,  // measure 58
1000
0000
0000
0000
1000
0000
0000
1000
,  // measure 59
0000
0000
0100
0010
,  // measure 60
0001
0000
0000
0000
0001
0000
0000
0001
,  // measure 61
0000
0100
0010
0200
,  // measure 62
0000
0000
0000
0000
,  // measure 63
0000
0300
0000
0000
;

//---------------dance-single - ----------------
#NOTES:
     dance-single:
     :
     Medium:
     10:
     0.415780,0.443939,0.514711,0.131017,0.004679,311.000000,256.000000,55.000000,14.000000,0.000000,0.000000,0.415780,0.443939,0.514711,0.131017,0.004679,311.000000,256.000000,55.000000,14.000000,0.000000,0.000000:
// measure 0
0000
0000
0000
0000
,  // measure 1
0000
0000
0000
0000
,  // measure 2
1001
1001
1001
0000
,  // measure 3
0000
0001
0001
0000
1000
0010
0100
0000
,  // measure 4
0110
0000
0110
0000
0110
0000
0000
0010
,  // measure 5
0000
0010
1000
0000
0001
1000
0001
0000
,  // measure 6
1000
0000
1000
0000
1000
0000
0100
0010
,  // measure 7
0000
0010
0100
0000
1000
0001
1000
0000
,  // measure 8
0001
0000
0001
0000
0001
0000
0100
0010
,  // measure 9
0000
0010
0100
0000
0001
1000
0001
0000
,  // measure 10
0010
0000
0010
0000
0010
0000
0001
1000
,  // measure 11
0000
1000
0001
0000
0100
0010
0100
0000
,  // measure 12
0110
0000
0110
0000
1001
0000
0000
1100
,  // measure 13
0000
0000
0000
0000
1000
0000
0100
0000
0010
0000
0100
0000
0010
0001
0000
0000
,  // measure 14
1000
0000
0100
0000
1000
0001
0001
0000
,  // measure 15
0100
0001
0001
0000
1000
0000
1001
0000
,  // measure 16
0001
0000
0010
0000
0001
1000
1000
0000
,  // measure 17
0010
1000
1000
0000
0010
0000
0100
0000
,  // measure 18
0101
0000
0000
0101
0000
0000
0101
0000
,  // measure 19
0000
0000
0000
0002
0000
1000
1003
0000
,  // measure 20
1100
0000
0011
0000
0001
1000
0001
0000
,  // measure 21
1000
0000
1000
0100
0010
0001
1000
0000
,  // measure 22
1010
0000
0000
1010
0000
0000
1010
0000
,  // measure 23
0000
0000
0000
0020
0000
0100
0130
0000
,  // measure 24
0002
1003
2000
3100
,  // measure 25
1001
0000
0001
1000
,  // measure 26
1001
1001
0101
0101
,  // measure 27
0110
0010
1000
0001
,  // measure 28
0011
1100
1000
0001
,  // measure 29
1000
0100
0100
0100
,  // measure 30
0010
0000
0001
0000
1000
0001
1000
0000
,  // measure 31
0001
0000
0000
1000
0001
0000
1000
0000
,  // measure 32
1001
0000
0101
0000
0110
0000
0000
1010
,  // measure 33
0000
1000
0001
0000
1001
0000
1000
0000
,  // measure 34
1100
0000
0110
0000
0011
0000
0000
1001
,  // measure 35
0000
0000
0000
2000
0000
0000
3001
0000
,  // measure 36
2002
0000
3003
0000
,  // measure 37
1000
0000
0001
1000
0001
0000
0100
0000
,  // measure 38
0002
0013
2000
3010
,  // measure 39
0100
0001
0100
0000
0001
0000
1000
0000
,  // measure 40
0002
0103
2000
3100
,  // measure 41
0010
0001
1000
0000
0001
0000
1000
0000
,  // measure 42
0010
0010
0100
0100
,  // measure 43
0001
1000
0001
0000
1000
0000
0001
0000
,  // measure 44
1001
0000
1001
0000
1001
0000
0001
0100
,  // measure 45
0000
0020
0000
1030
0001
0000
0010
0000
,  // measure 46
0110
0000
0110
0000
0110
0000
1000
0100
,  // measure 47
0000
0010
0001
0000
1000
0000
0001
0000
,  // measure 48
0101
0000
1100
0000
0101
0000
0001
1000
,  // measure 49
0000
1000
0001
0000
0010
0100
0010
0000
,  // measure 50
0000
0100
0100
0000
2000
0000
3001
0000
,  // measure 51
0000
0100
0001
1000
0001
0000
1000
0000
,  // measure 52
0001
0010
0100
0010
,  // measure 53
0000
0100
1000
0000
0001
1000
0001
0000
,  // measure 54
1000
0000
1000
0000
1000
0000
0000
0010
,  // measure 55
0000
0000
0100
0000
0001
1000
0001
0000
,  // measure 56
0100
0000
0100
0000
0100
0000
0000
0001
,  // measure 57
0000
0000
1000
0000
0100
0010
0001
0000
,  // measure 58
0101
0000
0101
0000
0101
0000
0000
0101
,  // measure 59
0000
0001
1000
1100
,  // measure 60
1100
0000
1100
0000
0000
1100
0000
0011
,  // measure 61
0000
0001
1000
0000
0010
0000
0200
0000
,  // measure 62
0000
0000
0000
0000
,  // measure 63
0000
0300
0000
0000
;

//---------------dance-single - ----------------
#NOTES:
     dance-single:
     :
     Hard:
     12:
     0.487973,0.473534,0.439844,0.243318,0.004679,365.000000,318.000000,47.000000,26.000000,0.000000,0.000000,0.487973,0.473534,0.439844,0.243318,0.004679,365.000000,318.000000,47.000000,26.000000,0.000000,0.000000:
// measure 0
0000
0000
0000
0000
,  // measure 1
0000
0000
0000
0000
,  // measure 2
1001
0110
1001
0000
,  // measure 3
0000
0001
0001
1000
0100
0001
0100
0000
,  // measure 4
1100
0000
0101
0000
1100
0000
0100
0010
,  // measure 5
0000
0010
0100
1000
0001
1000
1000
0000
,  // measure 6
0001
0000
0001
0000
0001
0000
1000
0010
,  // measure 7
0000
0100
0001
1000
0010
0001
0010
1000
,  // measure 8
0001
0000
0001
0000
0001
0000
1000
0100
,  // measure 9
0000
0010
0001
0100
1000
0100
0001
0000
,  // measure 10
1000
0000
1000
0000
1000
0000
0100
0010
,  // measure 11
0000
0010
0100
1000
0010
0100
0010
1000
,  // measure 12
1010
0000
0011
0000
0001
1000
0000
1010
,  // measure 13
0000
0000
1000
0000
0001
0000
1000
0000
0100
0000
0010
0000
0100
0010
0000
0000
,  // measure 14
0002
0000
0100
0000
1000
1000
1000
0000
,  // measure 15
0010
0010
0013
0000
1001
0000
1010
0000
,  // measure 16
2000
0000
0100
0000
0001
0001
0001
0000
,  // measure 17
0010
0010
3010
0000
1010
0000
0101
0000
,  // measure 18
0110
0000
0000
0110
0000
0000
0120
0000
,  // measure 19
0000
1030
0001
0020
0000
0130
1000
0001
,  // measure 20
1000
0000
0100
0001
0100
1000
0002
0000
,  // measure 21
0103
0010
1000
0010
0001
0010
0100
0001
,  // measure 22
1001
0000
0000
1001
0000
0000
1001
0000
,  // measure 23
0001
0010
0100
2000
0000
3001
0100
0010
,  // measure 24
0200
0000
0301
1000
0100
0010
0001
0000
,  // measure 25
1200
0000
0300
1000
0100
0000
0010
0000
,  // measure 26
1001
0000
0101
0000
0001
1000
0200
0000
,  // measure 27
1300
0000
0100
0000
1000
0001
0100
0001
,  // measure 28
0020
0000
0031
0010
0200
0000
1300
0010
,  // measure 29
0000
0100
0001
0000
0001
0000
0001
0000
,  // measure 30
1000
0000
1000
0000
0010
0100
0020
0000
,  // measure 31
0230
0000
0000
0301
1000
0000
1001
0000
,  // measure 32
0011
0000
1010
0000
1000
0010
0000
1001
,  // measure 33
0000
0001
0010
1000
0010
0000
0110
0000
,  // measure 34
1100
0000
0101
0000
0001
1000
0000
0220
,  // measure 35
0000
0330
0000
0200
0000
0301
1000
0000
,  // measure 36
2002
0000
3003
0000
,  // measure 37
0010
1000
0100
0010
0001
0100
0010
0100
,  // measure 38
0002
0000
1003
0100
2000
0000
3001
0000
,  // measure 39
1000
0100
1000
0001
0010
0000
1001
0000
,  // measure 40
2000
0000
3010
0100
0002
0000
0103
0000
,  // measure 41
0001
1000
0100
0010
0001
1000
0010
1000
,  // measure 42
0001
0010
0002
0000
0103
0000
0100
0010
,  // measure 43
0100
0010
0100
0000
0001
0000
1000
0000
,  // measure 44
1001
0000
0110
0000
1001
0000
1000
0100
,  // measure 45
0000
0020
0000
0031
1000
0010
0100
0000
,  // measure 46
0110
0000
1001
0000
0110
0000
0100
0001
,  // measure 47
0000
0001
1000
0100
0001
0100
1000
0000
,  // measure 48
1100
0000
0011
0000
1001
0000
1000
0001
,  // measure 49
0000
0001
1000
0010
1000
0001
1000
0000
,  // measure 50
0000
0001
0001
0100
0020
0000
0130
0000
,  // measure 51
0000
0001
1000
0001
0100
0000
0100
0000
,  // measure 52
0100
0000
0001
0000
0001
0000
0001
1000
,  // measure 53
0000
1000
0100
0010
0100
1000
0001
0100
,  // measure 54
0010
0000
0010
0000
0010
0000
0100
0010
,  // measure 55
0000
0010
1000
0001
0010
0100
0010
0001
,  // measure 56
1000
0000
1000
0000
1000
0000
0001
0100
,  // measure 57
0000
0010
1000
0100
0001
0100
1000
0000
,  // measure 58
0101
0000
1100
0000
0001
1000
0000
0110
,  // measure 59
0000
0000
0001
1000
0100
0000
1000
0000
,  // measure 60
1010
0000
0011
0000
0001
1000
0000
0110
,  // measure 61
0000
0100
0100
0001
0010
0000
0200
0000
,  // measure 62
0000
0000
0000
0000
,  // measure 63
0000
0300
0000
0000
;
