#VERSION:0.83;
#TITLE:XYZONANCE;
#SUBTITLE:;
#ARTIST:ZST "Lilith";
#TITLETRANSLIT:;
#SUBTITLETRANSLIT:;
#ARTISTTRANSLIT:;
#GENRE:;
#ORIGIN:;
#CREDIT:;
#BANNER:XYZONANCE.png;
#BACKGROUND:XYZONANCE-bg.png;
#PREVIEWVID:;
#JACKET:XYZONANCE-jacket.png;
#CDIMAGE:;
#DISCIMAGE:;
#LYRICSPATH:;
#CDTITLE:;
#MUSIC:XYZONANCE.ogg;
#OFFSET:-2.090000;
#SAMPLESTART:83.755089;
#SAMPLELENGTH:15.000000;
#SELECTABLE:YES;
#DISPLAYBPM:116.000000:232.000000;
#BPMS:0.000=232.000,
248.000=116.000,
250.000=58.000,
251.000=116.000,
265.000=232.000;
#STOPS:251.000=0.259,
264.500=0.129,
264.750=0.129;
#DELAYS:;
#WARPS:;
#TIMESIGNATURES:0.000=4=4;
#TICKCOUNTS:0.000=4;
#COMBOS:0.000=1;
#SPEEDS:0.000=1.000=0.000=0;
#SCROLLS:0.000=1.000;
#FAKES:;
#LABELS:0.000=Song Start;
#BGCHANGES:;
#KEYSOUNDS:;
#ATTACKS:
;

//---------------dance-single - ----------------
#NOTEDATA:;
#CHARTNAME:;
#STEPSTYPE:dance-single;
#DESCRIPTION:;
#CHARTSTYLE:;
#DIFFICULTY:Hard;
#METER:17;
#RADARVALUES:0.886155,1.235219,0.523152,0.365376,0.319704,747.000000,684.000000,63.000000,44.000000,0.000000,0.000000,0.000000,0.000000,0.000000,0.886155,1.235219,0.523152,0.365376,0.319704,747.000000,684.000000,63.000000,44.000000,0.000000,0.000000,0.000000,0.000000,0.000000;
#CREDIT:;
#DISPLAYBPM:116.000000:232.000000;
#NOTES:
// measure 0
0000
0000
0000
0000
,  // measure 1
0000
0000
0000
0000
,  // measure 2
0000
0000
0000
0000
,  // measure 3
0000
0000
0000
0000
,  // measure 4
2000
0000
0000
0000
0000
0000
0001
3002
,  // measure 5
0000
0000
0203
0320
,  // measure 6
2030
0000
0000
0000
0000
0000
0010
3002
,  // measure 7
0000
0000
0000
0000
0003
0000
0001
0001
,  // measure 8
0100
0000
0001
0000
0001
0100
0000
0100
,  // measure 9
0010
0000
0100
0000
0001
0000
0100
0010
1000
0000
1000
0000
0001
0000
1000
0000
,  // measure 10
0100
0000
0100
1000
0000
1001
0000
1000
,  // measure 11
0100
0000
0010
0000
0100
0000
0001
0000
0000
0000
0100
0000
1000
0001
1000
0000
,  // measure 12
0001
0000
0101
0000
0110
0010
0000
0010
,  // measure 13
1010
0000
1000
0000
0001
0000
0010
0001
0010
0000
0100
0000
1000
0000
0001
0000
,  // measure 14
0200
0000
0300
0100
,  // measure 15
0020
0000
0000
0000
0000
0000
1030
0001
,  // measure 16
2002
0000
0000
0000
,  // measure 17
0000
0000
3003
1001
,  // measure 18
0220
0000
0000
0000
,  // measure 19
0330
0000
0000
0000
,  // measure 20
0001
0010
0100
1000
0100
0010
0001
0010
,  // measure 21
0200
0000
0000
0000
1000
1000
1300
0000
,  // measure 22
1001
0000
0000
0000
0001
0000
0100
0000
0010
0000
1000
0000
0010
0000
0100
0010
,  // measure 23
0100
0000
0001
0000
1000
0000
0100
0000
0010
0000
0100
0010
0100
0000
1000
0000
,  // measure 24
0001
0000
0000
0000
1000
0000
0100
0000
0010
0000
0001
0000
0010
0000
0100
0010
,  // measure 25
0001
0001
1000
1000
0020
0000
1030
0100
,  // measure 26
0001
0000
0001
0100
0010
0100
1000
0001
,  // measure 27
1000
0010
0100
0010
1000
1000
0002
0000
,  // measure 28
0103
0000
0100
0010
0100
1000
0100
0001
,  // measure 29
1000
0000
0010
1000
0010
0000
1000
0000
0001
0010
0001
0000
0010
0000
0100
0000
,  // measure 30
0110
0000
1100
0100
0010
0001
0101
0100
,  // measure 31
0010
0000
1000
0000
1001
0000
0001
0000
0010
0000
0100
0000
0110
0000
0010
0001
,  // measure 32
1000
0001
0100
0010
0002
0000
0013
0010
,  // measure 33
0010
0000
1000
0001
1000
0000
0100
1000
0100
0000
0010
0000
0100
0000
0010
0000
,  // measure 34
0001
0000
0000
0000
0001
0000
0100
0000
0010
0000
1000
0000
0100
0000
0010
0100
,  // measure 35
1000
0010
0100
0101
0001
0010
0100
1100
,  // measure 36
1000
0000
0001
0000
0010
0000
0100
0000
0010
0000
0110
0000
0000
0011
0000
0000
,  // measure 37
1001
0000
0000
1010
0000
0000
0110
0000
0002
0000
0000
0000
0000
0000
0000
0000
,  // measure 38
1003
0100
1000
0100
0010
0100
0010
0100
,  // measure 39
0010
0001
0010
0001
0100
0001
0100
0001
,  // measure 40
1000
0000
0010
0000
1000
0001
1000
0001
1000
0000
0010
0000
1000
0000
0010
0000
,  // measure 41
0100
0000
0010
0000
0100
0000
0010
0000
1000
0000
0001
0000
1000
0000
0001
0010
,  // measure 42
0001
0010
0001
0001
0001
1000
0100
0010
,  // measure 43
0001
0100
0010
1000
0001
1000
0100
0010
,  // measure 44
0001
0000
0000
0000
1000
0010
1000
0000
0001
0100
0001
0000
0100
0000
0010
0000
,  // measure 45
1000
0000
0110
0000
0001
0010
0100
1000
,  // measure 46
0010
1000
0100
1000
0001
0100
0001
0010
,  // measure 47
0001
1000
0100
1000
0001
0010
0001
1000
,  // measure 48
0010
0000
0100
0000
0010
1000
0010
1000
0001
0000
0010
0000
0100
0000
1000
0100
,  // measure 49
0010
0000
0100
0000
1000
0000
0001
0000
1000
0000
0010
0000
0100
0000
0001
1000
,  // measure 50
0001
0010
0010
0010
0010
0100
1000
0001
,  // measure 51
0010
0001
0100
0010
1000
0010
0100
0010
,  // measure 52
1000
0001
1000
0001
1000
0001
1000
0100
,  // measure 53
0110
0000
0110
0000
0001
0010
0100
1000
,  // measure 54
0100
1100
0000
1000
1001
0000
0001
0101
,  // measure 55
0000
0100
0110
0000
0001
0100
0010
1000
,  // measure 56
0010
1010
0000
1000
1001
0000
0001
0011
,  // measure 57
0000
0010
0110
0000
0100
1000
0100
0001
,  // measure 58
0100
1100
0000
1000
1001
0000
0001
0101
,  // measure 59
0000
0100
0110
0000
0010
0010
1000
0001
,  // measure 60
0001
0010
0100
0100
1000
0010
0010
0100
,  // measure 61
0001
0022
0000
0000
,  // measure 62
0000
0000
0000
0000
0000
0000
0000
0000
0000
0000
0000
0000
0033
0000
0000
1000
,  // measure 63
0100
0010
0002
0000
2003
0000
3020
0000
0000
0000
2030
0000
3200
0000
0320
0000
,  // measure 64
0000
0032
2003
3020
0230
0302
0100
1003
,  // measure 65
1000
0001
0020
0000
0230
0000
2300
0000
0000
0000
3100
1000
0001
0100
0020
0000
,  // measure 66
0030
0000
0100
0010
0100
0000
1001
0000
0220
0000
0000
0000
0000
0000
0000
0000
0000
0000
0000
0000
0000
0000
0000
0000
0000
0000
0000
0000
0000
0000
0000
0000
,  // measure 67
0000
0000
0000
0000
,  // measure 68
0330
0000
0000
0000
1000
0010
1000
0000
0001
0000
0100
0001
0100
0000
0010
0000
,  // measure 69
1000
0010
1000
0000
0001
0000
0100
0001
0100
0000
0010
0000
1000
0000
0001
0000
,  // measure 70
0010
0200
0020
0000
0000
0000
0000
0000
,  // measure 71
0000
0000
0000
0000
,  // measure 72
0330
0000
0000
0000
1000
0000
0001
0000
1000
0000
0001
0000
0010
0001
0010
0000
,  // measure 73
0100
1000
0100
0000
0020
0000
0000
0000
0000
0000
0000
0000
0001
0000
0001
0000
,  // measure 74
0031
0000
0000
0000
1000
0000
1000
0000
0010
0000
1000
0000
0001
0000
0010
0100
,  // measure 75
0000
0000
0010
0000
0001
0000
0001
0000
0010
0000
0001
0000
1000
0000
0010
0100
,  // measure 76
0000
0000
0010
0000
1000
0000
0100
0000
0010
0000
0001
0000
0010
0000
0100
0010
,  // measure 77
0000
0000
0001
0000
1000
0000
0010
0100
0000
0000
0010
0000
1000
0000
0010
0000
,  // measure 78
0100
0000
0001
0000
1000
0000
1000
0000
0010
0000
1000
0000
0100
0000
0010
0001
,  // measure 79
0000
0000
0001
0000
0100
0000
0000
0010
0000
0000
1000
0000
0001
0000
1000
0000
,  // measure 80
0010
0000
0100
0000
0001
0000
0010
0000
0001
0000
0100
0000
0010
0000
1000
0001
,  // measure 81
0000
0000
1000
0000
0100
0000
0000
0100
1000
0000
0000
1000
0001
0000
0000
0001
,  // measure 82
0010
0000
0001
0000
1001
0000
1000
0000
0010
0000
0100
0000
0010
0000
1000
0001
,  // measure 83
0000
0000
1000
0000
1001
0000
0001
0000
0010
0000
0100
0000
0010
0000
0001
1000
,  // measure 84
0000
0000
0100
0000
0110
0000
0010
0000
0001
0000
1000
0000
0010
0000
0100
0001
,  // measure 85
0000
0000
0001
0000
1000
0000
0100
0010
0000
0000
0100
0000
1000
0000
0001
0000
,  // measure 86
1000
0010
0100
0000
0001
0000
0001
0000
0100
0000
0010
0000
1000
0000
1000
0100
,  // measure 87
0000
0000
0100
0000
0010
0000
0001
0000
0010
0100
0010
0000
0001
0000
1000
0000
,  // measure 88
0010
0000
0100
0000
0001
0000
1000
0000
0100
0000
0010
0000
0001
0000
0010
0100
,  // measure 89
0000
0010
0100
0000
1000
0100
1000
0000
0001
0010
0001
0000
1000
0001
1000
0001
,  // measure 90
2000
0000
3020
0000
0130
0001
0100
0010
,  // measure 91
0100
1000
0100
0001
0010
0100
1000
0010
,  // measure 92
1000
0100
0010
1000
0010
0001
0100
0110
,  // measure 93
0000
0101
0000
0000
1001
0000
0000
1100
0000
0000
0110
0000
0010
0000
0100
0000
,  // measure 94
1000
0001
1000
1010
0000
0010
0110
0000
,  // measure 95
0100
0101
0000
0001
1001
0000
0001
0010
,  // measure 96
0100
1000
0001
0011
0000
0010
0110
0000
,  // measure 97
0100
1100
0000
1000
1001
0000
1000
0001
,  // measure 98
0100
0010
1010
1010
0000
1100
1100
0000
,  // measure 99
0101
0101
0000
0011
0011
0000
0010
0010
,  // measure 100
0100
1000
1000
0001
0100
0100
0001
0010
,  // measure 101
0010
0000
0100
0000
1000
0100
0010
0001
0010
0100
1000
0100
0000
0000
0000
0000
,  // measure 102
0220
0000
0000
0000
,  // measure 103
0000
0000
0000
0000
0000
0000
0000
0000
0330
0000
0000
0000
1000
0100
1000
0100
,  // measure 104
0010
0000
0001
0010
0001
0010
0100
0000
1000
0010
1000
0010
0100
0000
0001
0100
,  // measure 105
0001
0100
0010
0000
1000
0001
1000
0000
0100
1000
0100
0010
0002
0000
0000
0000
,  // measure 106
1000
1000
1003
0000
0000
0000
0000
0000
;

//---------------dance-single - ----------------
#NOTEDATA:;
#CHARTNAME:;
#STEPSTYPE:dance-single;
#DESCRIPTION:;
#CHARTSTYLE:;
#DIFFICULTY:Medium;
#METER:14;
#RADARVALUES:0.580093,0.749954,0.124560,0.232512,0.062280,489.000000,474.000000,15.000000,28.000000,0.000000,0.000000,0.000000,0.000000,0.000000,0.580093,0.749954,0.124560,0.232512,0.062280,489.000000,474.000000,15.000000,28.000000,0.000000,0.000000,0.000000,0.000000,0.000000;
#CREDIT:;
#NOTES:
0000
0000
0000
0000
,
0000
0000
0000
0000
,
0000
0000
0000
0000
,
0000
0000
0000
0000
,
0000
0000
0000
0000
,
0000
0000
0000
0000
,
0000
0000
0000
0000
,
0000
0000
0000
0000
,
1000
0000
0001
0000
1000
0100
0000
0010
,
0001
0010
0100
1000
0001
0000
1000
0000
,
0001
0000
0100
0010
0000
1000
0000
0010
,
0100
0000
0001
0100
0000
0100
0010
0000
,
1000
0001
0010
0100
,
1000
0000
0010
0000
0100
0001
1000
0001
,
0020
0000
0030
0010
,
0200
0000
0000
0300
,
1001
0000
0000
0000
,
0000
0000
0000
1001
,
0220
0000
0000
0000
,
0330
0000
0000
0000
,
0001
0000
0001
0000
0001
0100
0010
1000
,
0200
0000
0000
0000
0310
0100
0010
0000
,
0002
0000
1003
0100
1000
0000
0100
0010
,
0100
0000
0010
0001
0000
1000
0001
0000
,
2000
0000
3001
0100
0001
0000
0100
0010
,
0100
0010
1000
0010
0000
0010
0000
1000
,
0002
0000
1003
0100
0010
0000
0100
1000
,
0020
0000
0130
0010
0100
0001
1000
0000
,
0200
0000
1300
0001
1000
0100
0010
0000
,
0001
0000
0100
1000
0000
0100
0010
0000
,
1000
0000
1001
0000
1000
0100
0010
0000
,
0001
0000
1001
0000
0001
0100
0010
0000
,
1000
0000
1010
0000
0010
0100
0001
0000
,
0010
0000
0011
0000
0001
1000
0000
1000
,
0100
0000
0100
1000
0010
0000
0010
0100
,
0001
0000
0001
0010
0000
0010
0100
0000
,
1000
0000
0100
0000
1000
0000
0000
0000
1000
0000
0001
0000
0000
0100
0000
0000
,
0010
0000
0000
1000
0000
0000
0100
0000
0020
0000
0000
0000
0000
0000
0000
0000
,
0130
0100
1000
1000
,
0001
0001
0100
0100
,
0010
0000
1000
0010
0100
0010
0100
0000
,
0010
0001
0010
1000
,
0001
0001
0010
0001
,
1000
1000
0010
0010
,
0100
0000
0100
0001
0100
0010
1000
0000
,
1000
0000
1000
0100
1000
0001
0010
0000
,
0010
0010
0001
0001
,
1000
1000
0010
0010
,
0100
0000
0001
0100
0010
0100
0010
0000
,
0100
1000
0100
0001
,
0010
0100
1000
0100
,
0010
0001
0010
0000
0100
1000
0100
0000
,
1000
0000
0001
1000
0010
0000
1000
0001
,
0100
0000
0100
0000
0001
1000
0001
1000
,
0100
1000
0000
1000
0001
0000
0001
0100
,
0000
0100
0010
0000
1000
0000
1000
0000
,
0010
1000
0000
1000
0001
0000
0001
0010
,
0000
0010
0100
0000
1000
0001
1000
0000
,
0001
0010
0000
0100
0010
0000
0100
1000
,
0000
0001
1000
0000
0010
1000
0000
0010
,
0100
0000
0001
0100
0000
0001
1000
0000
,
0100
0020
0000
0000
,
0000
0000
0000
0030
,
0000
0100
1000
0002
0000
1003
0100
0020
,
0000
0130
1000
0001
0100
0020
0000
0030
,
1000
0010
1000
0002
0000
0013
0100
2000
,
3000
0000
0010
1000
2002
0000
0000
0000
0000
0000
0000
0000
0000
0000
0000
0000
,
0000
0000
0000
0000
,
3003
0000
1000
0001
1000
0001
1000
0001
,
1000
0001
1000
0001
1000
0001
1000
0001
,
1000
0010
0200
0000
0000
0000
0000
0000
,
0000
0300
0000
0000
,
0000
0000
0001
0000
0001
0000
0001
0010
,
0100
1000
0020
0000
0000
0000
0130
0010
,
0100
0000
0000
0000
0001
0000
0000
0000
0100
0000
0000
0000
0001
0000
0000
0010
,
0000
0000
0100
0000
1000
0000
0000
0000
0100
0000
0000
0000
1000
0000
0000
0010
,
0000
0000
0100
0000
0001
0000
1000
0000
0001
0000
0000
0000
1000
0000
0000
0100
,
0000
0000
1000
0000
0010
0000
0000
0100
0000
0000
0010
0000
1000
0000
0000
0000
,
1000
0000
0001
0000
0010
0000
0000
0000
0100
0000
0000
0000
0010
0000
0000
0001
,
0000
0000
1000
0000
0010
0000
0000
1000
0000
0000
0001
0000
0100
0000
0000
0000
,
0100
0000
0010
0000
1000
0000
0000
0000
1000
0000
0000
0000
0001
0000
0000
0010
,
0000
0100
1000
0000
1100
0000
1001
0000
,
0101
0000
0000
0000
0001
0000
1000
0000
0010
0000
1000
0000
0001
0000
0000
0010
,
0000
0000
0100
0000
1000
0000
0001
0000
0010
0000
0001
0000
1000
0000
0000
0010
,
0000
0000
0100
0000
0001
0000
1000
0000
0001
0000
0000
0000
0001
0000
0000
0100
,
0000
0000
1000
0000
0100
0000
0000
0001
0000
0000
0010
0000
1000
0000
0010
0000
,
0100
0000
0000
0000
1000
0000
0000
0000
1100
0000
0000
0000
1000
0000
0000
0001
,
0000
0010
0001
0000
0101
0000
0110
0000
,
0010
0100
0001
0000
1000
0100
0010
0000
,
0100
1000
0001
1000
0001
1000
0001
1000
,
0002
0023
0000
0000
,
0030
0000
0010
0100
1000
0001
0020
0000
,
0032
0000
1003
0010
1000
0010
0100
0000
,
0010
0100
0001
0010
0001
0010
0100
0010
,
0100
0010
0001
0010
0000
0010
0100
0000
,
0100
1000
0000
1000
0010
0000
1000
0000
,
0001
0000
1000
0010
0000
0010
0100
0000
,
0100
0001
0000
0001
0010
0000
0001
1000
,
0001
0000
0010
0100
0000
0100
1000
0000
,
0010
0100
0000
0100
0001
0000
1000
0100
,
0000
0100
0010
0000
0001
0100
0000
0100
,
0010
0000
1000
0001
1000
0001
0000
0000
,
2200
0000
0000
0000
,
0000
0000
0000
0000
3300
0000
1000
0100
,
0010
0001
0010
0100
1000
0100
0010
0001
,
0010
0100
1000
0100
0010
0001
0200
0000
,
0310
0100
0010
0000
0000
0000
0000
0000
;

//---------------dance-single - ----------------
#NOTEDATA:;
#CHARTNAME:;
#STEPSTYPE:dance-single;
#DESCRIPTION:;
#CHARTSTYLE:;
#DIFFICULTY:Easy;
#METER:10;
#RADARVALUES:0.381984,0.749954,0.049824,0.182688,0.012456,322.000000,316.000000,6.000000,22.000000,0.000000,0.000000,0.000000,0.000000,0.000000,0.381984,0.749954,0.049824,0.182688,0.012456,322.000000,316.000000,6.000000,22.000000,0.000000,0.000000,0.000000,0.000000,0.000000;
#CREDIT:;
#NOTES:
0000
0000
0000
0000
,
0000
0000
0000
0000
,
0000
0000
0000
0000
,
0000
0000
0000
0000
,
0000
0000
0000
0000
,
0000
0000
0000
0000
,
0000
0000
0000
0000
,
0000
0000
0000
0000
,
1000
0000
0000
0100
0000
0000
1000
0000
,
0001
0010
0100
0010
,
0001
0000
0000
0100
0000
0000
0010
0000
,
1000
0000
0001
1000
0000
0000
0001
0000
,
0100
0001
1000
0100
,
1000
0001
0100
0010
,
2000
0000
0000
3000
,
0002
0000
0000
0003
,
0100
0000
0000
0000
,
0000
0000
0000
0100
,
0020
0000
0000
0000
,
0030
0000
0000
0000
,
0000
0000
0000
0000
,
1001
0000
0000
0000
0001
1000
0001
0000
,
1000
0100
0010
0001
,
0010
0100
1000
0010
,
0100
0001
0100
0010
,
1000
0001
1000
0100
,
0020
0031
0100
0010
,
1000
0100
0010
0100
,
1000
0010
0100
0001
,
1000
0000
0000
1000
0000
0000
1000
0001
,
0000
1000
0100
0010
,
0100
0001
0100
0010
,
0001
0100
0010
0100
,
1000
0000
0100
0000
0010
1000
0000
1000
,
0000
0010
0100
0001
,
0100
0010
1000
0010
,
1000
0000
0000
0000
0100
0000
0000
0000
0000
0000
0100
0000
0000
1000
0000
0000
,
0001
0000
0000
0100
0000
0000
0010
0000
2000
0000
0000
0000
0000
0000
0000
0000
,
3001
0100
0001
0100
,
0001
1000
0001
1000
,
0001
0010
0001
0010
,
0100
0010
0001
1000
,
0010
1000
0010
0100
,
0001
0100
0010
0100
,
0001
0010
0100
0010
,
0100
1000
0100
0010
,
0001
0010
0001
0010
,
0100
0010
0100
0010
,
0001
1000
0010
1000
,
0010
0100
0001
0010
,
0001
1000
0100
1000
,
0010
0100
0001
0100
,
0010
1000
0100
0010
,
0001
0001
0002
0003
,
1000
0000
0000
0100
0000
0000
1000
0000
,
0000
0010
0000
0000
0000
0000
1000
0000
,
0001
0000
0000
0100
0000
0000
0001
0000
,
0000
0010
0000
0000
0000
0000
0001
0000
,
1000
0000
0000
0100
0000
0000
0010
0000
,
0000
0100
0000
0000
1000
0000
0000
0010
,
0000
0000
0100
0000
0000
0001
0000
0000
,
0010
0200
0000
0000
,
0000
0000
0300
0000
,
0000
1000
0000
2000
0000
3001
0000
0002
,
0000
1003
0000
0010
0100
0002
0000
0003
,
0000
0010
0000
0200
0000
1300
0100
0020
,
0000
0000
0031
0001
2002
0000
0000
0000
0000
0000
0000
0000
0000
0000
0000
0000
,
0000
0000
0000
0000
,
0000
3003
0000
0000
,
0000
1000
0100
0010
,
0001
2002
0000
0000
,
0000
3003
0000
0000
,
0000
0000
0000
0000
,
0000
0000
1001
0000
0000
0000
1000
0001
,
1000
0001
0100
0010
,
0010
0100
0010
1000
,
1000
0100
1000
0001
,
0001
0010
0001
1000
,
0010
1000
0001
0100
,
0100
0001
0010
0001
,
0100
0010
1000
0001
,
1000
0100
0010
0010
,
0100
1000
0100
0010
,
0010
0100
0010
0001
,
0001
0100
0001
1000
,
1000
0100
1000
0001
,
0100
0010
0100
0001
,
1000
0010
1000
0100
,
0010
0001
0001
1000
,
1000
0010
0010
0010
,
0010
0220
0000
0000
,
0330
0010
1000
0001
,
1000
0200
0000
0000
,
0300
0020
0000
0031
,
1000
0000
0001
0000
0000
0100
0000
0000
,
0010
0000
0000
1000
0000
0000
0000
0000
,
0001
0000
1000
0000
0000
0100
0000
0000
,
0010
0000
0000
0001
0000
0000
0000
0000
,
1000
0000
0001
0000
0000
0100
0000
0000
,
1000
0000
0000
0100
0000
0000
0001
0000
,
0000
0010
0000
0000
0100
0000
0000
1000
,
0000
1000
0001
0000
,
2002
0000
0000
0000
,
0000
0000
0000
0000
3003
0000
1000
0001
,
1000
0001
1000
0001
1000
0001
1000
0001
,
1000
0001
1000
0001
1000
0100
0010
0000
,
0001
1000
0001
0000
0000
0000
0000
0000
;

//---------------dance-single - ----------------
#NOTEDATA:;
#CHARTNAME:;
#STEPSTYPE:dance-single;
#DESCRIPTION:;
#CHARTSTYLE:;
#DIFFICULTY:Beginner;
#METER:5;
#RADARVALUES:0.212345,0.352920,0.058128,0.265728,0.004152,179.000000,172.000000,7.000000,32.000000,0.000000,0.000000,0.000000,0.000000,0.000000,0.212345,0.352920,0.058128,0.265728,0.004152,179.000000,172.000000,7.000000,32.000000,0.000000,0.000000,0.000000,0.000000,0.000000;
#CREDIT:;
#NOTES:
0000
0000
0000
0000
,
0000
0000
0000
0000
,
0000
0000
0000
0000
,
0000
0000
0000
0000
,
0000
0000
0000
0000
,
0000
0000
0000
0000
,
0000
0000
0000
0000
,
0000
0000
0000
0000
,
1000
0000
0000
0000
,
1000
0000
0000
0000
,
0001
0000
0000
0000
,
0001
0000
0000
0000
,
1000
0000
0000
0000
,
0010
0000
0100
0000
,
0010
0000
0000
0000
,
0100
0000
0000
0000
,
0001
0000
0000
0000
,
0000
0000
0000
0001
,
1000
0000
0000
0000
,
0000
0000
0000
0000
,
0000
0000
0000
0000
,
1001
0000
0000
0000
,
0000
1000
0000
0100
,
0000
1000
0000
0001
,
0000
1000
0000
0010
,
0000
1000
0000
1000
,
0000
0001
0000
0100
,
0000
0001
0000
1000
,
0000
0001
0000
0010
,
0000
0001
0001
0001
,
0000
1000
0000
0010
,
0000
1000
0000
0001
,
0000
1000
0000
0100
,
0000
1000
0000
1000
,
0000
0001
0000
0100
,
0000
0010
0000
1000
,
0000
0000
0100
0000
0000
0100
0000
0000
,
0000
0000
1001
0000
,
0002
0000
0203
0000
,
0320
0000
2030
0000
,
3200
0000
0000
0000
,
2300
0000
3020
0000
,
0230
0000
0302
0000
,
2003
0000
3200
0000
,
0320
0000
0000
0000
,
0130
0010
0100
0010
,
0002
0000
0023
0000
,
0230
0000
2300
0000
,
3020
0000
0030
0100
,
0020
0000
1030
0001
,
2000
0000
3002
0000
,
0023
0000
0230
0000
,
0320
0000
0032
0000
,
1003
0001
1000
0001
,
0100
0000
0000
0100
,
0000
0000
0000
0000
,
0010
0000
0000
0010
,
0000
0000
0000
0000
,
0100
0000
0000
0100
,
0000
0000
0010
0000
,
0000
0010
0000
0000
,
0000
2002
0000
0000
,
0000
0000
3003
0000
,
0000
1000
0000
0001
0000
1000
0000
0010
,
0000
0100
0000
0001
0000
0200
0000
0300
,
0000
0001
0000
0010
0000
0100
0000
0010
,
0000
0000
0001
1000
0000
0000
0000
0000
0000
0000
0000
0000
0000
0000
0000
0000
,
0000
0000
0000
0000
,
0000
0000
0000
0000
,
0000
0000
0000
0000
,
0000
0110
0000
0000
,
0000
0000
0000
0000
,
0000
0000
0000
0000
,
0000
1001
0000
0000
,
0000
1000
0100
1000
,
0000
0001
0010
0001
,
0000
1000
0100
1000
,
0000
0001
0000
0001
,
0000
1000
0010
1000
,
0000
0001
0100
0001
,
0000
1000
0000
1000
,
0000
0001
0001
0001
,
0000
1000
0100
0010
,
0000
0001
0010
0100
,
0000
1000
0010
0100
,
0000
0001
0100
0010
,
1000
0001
0010
0100
,
0000
1000
0100
0010
,
0000
0001
0000
0001
,
0000
1000
1000
1000
,
0001
0020
0000
0000
,
0030
0010
0001
0100
,
0010
2000
0000
0000
,
3000
0002
0000
0000
,
0003
0010
0000
0000
,
0010
0000
0000
0000
,
0000
0100
0000
0000
,
0100
0000
0000
0000
,
0000
0010
0000
0000
,
0001
0000
0000
1000
,
0000
0000
0010
0000
,
0000
0100
0000
0000
,
1001
0000
0000
0000
,
0000
0000
0000
0220
,
0000
0000
0000
0000
,
0000
0000
0330
0000
,
0001
1000
0001
0000
0000
0000
0000
0000
;
