#TITLE:Wings of Twilight;
#SUBTITLE:;
#ARTIST:sky_delta;
#TITLETRANSLIT:;
#SUBTITLETRANSLIT:;
#ARTISTTRANSLIT:;
#GENRE:;
#CREDIT:;
#MUSIC:Wings of Twilight.ogg;
#BANNER:Wings of Twilight.png;
#BACKGROUND:Wings of Twilight-bg.png;
#CDTITLE:;
#SAMPLESTART:78.199;
#SAMPLELENGTH:15.000;
#SELECTABLE:YES;
#OFFSET:-0.028;
#BPMS:0.000=175.000
,143.500=350.000
,144.500=175.000
;
#STOPS:143.500=0.171;
#DISPLAYBPM:175.000;
#BGCHANGES:;
#FGCHANGES:;

//--------------- dance-single - Marten ----------------
#NOTES:
     dance-single:
     Marten:
     Medium:
     12:
     0,0,0,0,0:
0000
0000
0000
0000
,
0000
0000
0000
0000
,
0000
0000
0000
0000
,
0000
0000
0000
0000
,
0000
0000
0000
0000
,
0000
0000
2000
0000
3002
0000
0000
0023
,
0000
0230
0300
2000
,
3002
0000
0000
0203
0000
0000
0320
0000
,
0000
0000
0000
1030
0100
0010
0001
0000
,
0100
0000
0001
0010
0200
0000
1300
0002
,
0000
0000
0103
0010
1000
0000
0020
0000
,
0230
0000
0301
0010
0100
0000
0020
0000
,
0000
0100
0000
0130
0010
0001
1000
0000
,
1000
1010
0001
0011
,
1000
1100
0001
0101
,
0001
0100
0001
0100
0010
1000
0010
1000
,
0001
0010
0100
1000
0001
1000
0010
0000
,
1020
0000
1030
0100
0010
0100
0000
1100
,
0000
0101
0000
0001
0200
0000
0310
0100
,
0002
0000
0013
0001
0100
0001
0000
0101
,
0000
1100
0000
0001
0010
0100
1000
0001
,
2000
0000
3010
0100
0001
0010
0000
0011
,
0000
1010
0000
1000
0020
0000
0130
0001
,
0020
0000
0031
0100
0010
1000
0000
0001
,
2000
0000
0000
3002
0000
0000
0013
0000
,
0120
0000
0031
0100
0010
0100
0001
0000
,
1000
0100
0010
0001
0100
0001
1000
0000
,
0020
0000
1030
0100
0010
0100
1000
0000
,
0001
0100
0010
1000
0100
1000
0001
0000
,
2001
0000
3100
0010
0001
0010
0100
0000
,
1000
0010
0100
0010
1000
0100
0010
0000
,
1002
0000
0103
0010
1000
0010
0100
0000
,
0001
0010
0000
1000
0010
0000
0110
0000
,
1002
0000
0103
0020
0000
0000
0130
0100
,
0001
0000
0010
0000
0100
0000
0000
0100
0000
0000
1000
0000
0001
0000
0100
0000
,
0020
0030
0202
0303
0000
2200
3300
0000
,
0000
0200
0000
0310
0001
0100
0001
1000
,
0010
0100
0020
0000
1030
0020
0000
0130
,
0001
0000
1000
0000
0001
0000
0000
0010
0000
0000
0100
0000
0000
1000
0000
0000
,
0001
0000
0100
0001
1000
0000
0100
1000
,
0001
0000
1000
0010
0100
0001
0010
0100
,
1000
0000
0020
0000
0230
0000
0000
0302
,
0000
0023
0030
0002
,
0203
0000
0000
0320
0000
0030
0210
0000
,
0010
0000
0000
1000
0000
0000
0301
0000
,
0000
0000
0020
0000
0230
0000
0000
2300
,
0000
3020
0030
2000
,
3200
0000
0000
0320
0000
0030
0210
0000
,
0000
0000
2300
0000
,
3001
0000
0100
0001
1000
0000
0100
1000
,
0001
0000
0010
0100
1000
0001
1000
0000
,
0010
0000
1000
0100
0000
0010
0001
0000
,
0100
0010
1000
0000
0100
0010
0001
0000
,
1000
1100
0001
0101
,
1000
1010
0001
0011
,
0010
0001
0010
0001
1000
0010
1000
0010
,
1000
0100
0010
0001
0100
0010
1000
0000
,
0001
0000
0100
0001
2000
0000
3100
0020
,
0000
0000
0130
1000
0010
0100
0110
0000
,
0200
0000
0301
0200
0000
1300
0200
0000
,
0301
1000
0010
0000
1000
0100
0010
0100
,
1000
0000
0100
1000
0002
0000
0103
0020
,
0000
0000
0130
0001
0010
0100
0110
0000
,
0200
0000
1300
0200
0000
0301
0200
0000
,
1300
0001
0010
0000
0001
1000
0010
0000
,
0100
0000
0001
0010
0200
0000
1300
0002
,
0000
0103
0020
0000
0130
0001
1000
0000
,
0020
0000
1030
0020
0000
0031
0020
0000
,
0000
0000
1030
0000
0001
0010
0110
0000
,
2100
0000
3001
0000
0100
0010
1000
0010
,
0200
0000
0301
0000
0020
0000
0130
1000
,
0001
0100
0001
0100
0010
1000
0010
1000
,
0001
0010
0100
1000
0010
0100
0001
1000
,
1200
0000
0310
0001
1000
0000
1002
0000
,
0100
0000
0013
0001
0100
0001
1000
0020
,
0030
0000
1000
0100
0010
0001
0021
0000
,
0230
0000
1300
0002
0000
0103
0010
0100
,
0002
0000
0013
0200
0000
1300
1100
0000
,
0010
0000
0011
0000
0001
1000
0010
0000
,
0100
0101
0010
1010
,
1000
0010
1000
0010
0100
0001
0010
0100
,
0000
1000
0100
0010
0001
0000
0000
0000
,
0000
1000
0100
0010
0001
0000
0000
0000
,
0000
0001
0100
0010
1000
0000
0000
0000
,
0000
0001
0100
0010
1000
0000
0000
0000
,
0000
0001
0000
0001
0010
0000
0000
0100
,
0000
0100
0000
0100
1000
0000
1000
0000
,
0000
1000
0000
1000
0010
0000
0000
0100
,
0000
0100
0000
0100
0001
0000
1000
0100
;

//--------------- dance-single - Marten ----------------
#NOTES:
     dance-single:
     Marten:
     Hard:
     15:
     0,0,0,0,0:
0000
0000
0000
0000
,
0000
0000
0000
0000
,
0000
0000
0000
0000
,
0000
0000
0000
0000
,
0000
0000
0000
0000
,
0000
0000
0002
0000
2003
0000
3010
0200
,
0000
0302
0003
0010
,
0200
0000
0000
2300
0000
0000
3020
0000
,
0000
0000
0000
0130
0001
1000
1001
0000
,
1000
0000
0100
0010
0001
0000
0100
2000
,
0000
0000
3100
0001
1000
0100
0020
0000
,
0230
0000
0000
0301
0100
0000
0020
0000
,
0000
0031
0100
0010
1000
0000
0010
0000
,
0100
1010
0100
0011
,
0100
1001
0010
1001
,
0001
0100
0010
1000
0001
1000
0100
0010
,
0001
0010
0001
0010
0100
1000
0100
1000
0001
0100
0010
1000
0001
0000
0000
0000
,
0012
0000
1003
0100
0001
0100
0000
1100
,
0000
0101
0000
0100
0001
0010
0100
0100
,
2000
0000
3001
0100
1000
0100
0000
0101
,
0000
0000
1100
0000
0000
0000
1000
0000
0001
0010
0001
0000
0100
0000
0010
1000
,
0002
0000
0013
1000
0010
0001
0000
0011
,
0000
1010
0000
1000
0001
0010
0100
0100
,
2000
0000
3010
0001
0010
1000
0000
0001
,
0101
0000
1000
1100
0000
0010
1001
0000
,
1020
0000
0130
1000
0100
0010
1000
0001
,
0010
0000
0100
0000
0010
0000
0001
0000
1000
0100
1000
0000
0001
0000
0100
0000
,
0102
0000
0013
0100
0001
0100
0010
0001
,
1000
0000
0010
0000
0100
0000
0010
0000
1000
0001
1000
0000
0100
0000
0010
0001
,
0020
0000
0130
0001
0100
0010
0001
1000
,
0010
0000
0100
0000
0010
0000
1000
0000
0001
0100
0001
0000
1000
0000
0100
0000
,
2100
0000
3010
0100
1000
0100
0010
1000
,
0001
1000
0001
1000
0010
0100
0010
0100
0001
0010
0100
1000
0010
0000
0000
0000
,
0110
0000
0000
0000
0100
0000
0001
0000
0010
0000
0001
0000
0100
0000
0010
1000
,
0010
0000
0100
0000
0001
1000
0000
1000
0000
1000
0010
0000
1000
0000
0100
0010
,
0002
1003
2100
0000
3001
0102
0000
0013
,
0000
0000
1000
0000
0010
0000
0001
0000
1000
0010
0100
0000
0001
0000
0010
0100
,
0010
0001
0011
0000
1000
1010
0000
0010
,
0000
0000
0100
0000
0002
0000
0000
0023
0000
0000
2030
0000
0000
3020
0000
0000
,
0031
0100
0010
1000
0001
0010
0100
1000
,
0001
0010
0001
0000
1000
0010
1000
0000
0001
0100
0001
1000
0100
1000
0100
0010
,
0001
0000
0200
0000
0320
0000
1030
0200
,
0000
0320
0031
0002
,
0203
0000
0310
0200
0000
0300
0120
0000
,
0001
0000
0000
1000
0000
0000
0130
0000
,
0001
0000
0020
0000
0230
0000
0310
0002
,
0000
2003
0000
3020
,
0230
0000
0000
0302
0000
0000
0023
0000
,
1000
0000
0031
0000
1000
0010
0100
0100
,
0001
0000
1000
0100
0020
0000
0031
0200
,
0000
0000
0301
0010
0100
1000
0002
0000
,
0203
0000
0310
0100
0000
0001
0020
0000
,
1030
0010
0002
0000
1003
0000
0010
0000
,
0100
1010
0100
0011
,
0100
1001
0010
1001
,
0001
0001
1000
1000
0010
0010
0100
0100
,
0001
0010
0001
0010
0100
1000
0100
1000
0001
0100
0010
1000
0001
0000
0000
0000
,
0100
0000
1020
1030
0002
0003
0011
0020
,
0000
0130
0210
0310
0001
0100
0210
0300
,
0102
0000
1003
1200
0000
0310
0120
0000
,
1000
0000
0000
0000
0031
0000
0000
0000
0001
0010
0001
0010
0100
0000
1000
0000
,
0100
0000
0021
0031
2000
3000
1010
0020
,
0000
0130
0210
0310
1000
0100
0210
0300
,
2100
0000
3001
0201
0000
0310
0120
0000
,
0001
0000
1030
0000
0200
0310
1001
0000
,
0001
0000
0201
0301
0020
0030
0110
0200
,
0000
0310
0021
0031
1000
0010
0210
0300
,
0102
0000
1003
1200
0000
0310
0120
0000
,
0000
0000
0032
0103
0010
1000
0002
0000
,
0103
0001
0010
0000
0100
1000
0010
0000
,
1000
0100
0001
0000
1000
0010
0001
0000
,
0001
0001
0010
0010
0100
0100
1000
1000
,
0010
1000
0010
1000
0001
0010
0001
0010
0100
1000
0001
0100
0010
0000
0000
0000
,
2000
0000
3010
0100
0010
1000
0002
0000
,
1000
0000
0013
0100
0010
0001
1000
0020
,
0030
0100
1000
0100
0001
0010
0210
0000
,
2300
0000
3010
0200
0000
0301
0010
1000
,
0020
0000
0031
0100
1000
0100
0001
0000
,
1001
0000
1000
0100
0001
0100
1000
0000
,
0001
0010
0100
1000
0010
0100
0001
1000
,
0001
0100
0001
0100
0010
1000
0010
1000
0010
0100
0001
1000
0001
0010
0100
1000
,
0001
0100
0010
1000
0001
0000
0000
0000
,
0000
1000
0100
0010
0001
0000
0000
0000
,
0000
1000
0010
0100
0001
0000
0000
0000
,
0000
0001
0010
0100
1000
0100
0010
0100
,
0000
1000
0000
0010
1000
0010
0000
0100
,
0000
0100
0000
0001
0200
0000
0310
0100
,
0000
0002
0000
0000
1003
0100
0000
0100
,
0000
0010
0000
0001
0100
0010
1000
0001
;
