#TITLE:Where Do We Go;
#SUBTITLE:;
#ARTIST:Mazare ft. RUNN;
#TITLETRANSLIT:;
#SUBTITLETRANSLIT:;
#ARTISTTRANSLIT:;
#GENRE:Drum & Bass;
#CREDIT:darkanine;
#MUSIC:Where Do We Go.ogg;
#BANNER:Where Do We Go.png;
#BACKGROUND:Where Do We Go-bg.png;
#CDTITLE:cdtitle.png;
#SAMPLESTART:86.667;
#SAMPLELENGTH:21.333;
#SELECTABLE:YES;
#OFFSET:1.333;
#BPMS:0.000=90.000
,99.500=180.000
,228.000=90.000
;
#STOPS:99.500=0.167;
#BGCHANGES:;
#FGCHANGES:;

//--------------- dance-single - ----------------
#NOTES:
     dance-single:
     :
     Beginner:
     4:
     0,0,0,0,0:
0000
0000
0000
0000
,
0000
0000
0000
0000
,
0000
0000
0000
0000
,
0000
0000
0000
0000
,
0000
0000
0000
0000
,
1000
0000
1000
0000
,
0001
0000
0001
0000
,
0100
0000
0100
0000
,
0010
0000
0010
0000
,
0000
0100
0000
0001
,
0000
1000
0000
0100
,
0000
0010
0010
0010
,
0000
0001
0000
0001
,
0000
1000
0000
0010
,
0000
0001
0000
0010
,
0000
1000
1000
1000
,
0000
0001
0000
0001
,
0001
0000
0100
0000
,
0010
0010
0010
0000
,
1000
0000
0001
0000
,
1000
1000
1000
0000
,
0100
0000
0100
0010
,
0010
0000
0001
1000
,
0001
0000
0001
0001
,
0002
0000
0003
0000
,
1000
1000
0000
0001
,
0001
0001
0000
0100
,
0100
0100
0000
0010
,
0000
0010
0000
0010
,
0010
0010
0000
1000
,
1000
1000
0000
0100
,
0100
0100
0000
0001
,
0000
0100
0000
1000
,
1000
1000
0000
0001
,
0000
0001
0000
0100
,
0100
0100
0000
0001
,
0000
1000
0000
0001
,
0001
0001
0000
0100
,
0100
0100
0000
0010
,
0000
0010
0000
1000
,
0001
0000
2000
0000
,
3000
0100
0000
0001
,
0000
0100
0000
1000
,
0000
0001
0000
0100
,
0000
1000
0000
0100
,
0000
0010
0000
0001
,
0000
0010
0000
1000
,
0000
0001
0000
0010
,
0000
0100
0100
0100
,
0000
1001
0000
1000
,
0000
0001
0000
0100
,
0000
1000
0000
0001
,
0000
0010
0000
1000
,
0000
0001
0000
0010
,
0000
1000
0000
0010
,
0000
0100
0000
0100
,
0100
0020
0000
0000
,
0030
0000
0000
0000
;

//--------------- dance-single - ----------------
#NOTES:
     dance-single:
     :
     Easy:
     7:
     0,0,0,0,0:
0000
0000
0000
0000
,
0000
0000
0000
0000
,
0000
0000
0000
0000
,
0000
0000
0000
0000
,
0000
0000
0000
0000
,
1000
1000
1000
0010
,
0100
0100
0001
1000
,
0001
0001
0010
0100
,
0010
0001
1000
0000
,
1000
0010
0100
0001
,
0001
0010
0100
1000
,
1000
0100
0001
0100
,
1000
0001
1000
1000
,
0001
0100
0010
1000
,
1000
0100
0010
0001
,
1000
0010
0001
0100
,
1000
1000
0001
0001
,
1000
0100
0000
0100
0000
0010
0000
0010
,
0000
0001
0000
1000
0000
0010
0000
0100
,
0000
0001
0000
1000
0000
0100
0000
0010
,
0000
0100
0000
0100
0000
1000
0000
0001
,
0001
1000
0000
1000
0100
1000
0000
1000
,
0001
1000
0000
0001
0100
0001
0000
0001
,
1000
1000
0010
0010
0100
0100
0001
0001
,
2000
0000
0000
0000
0000
0000
0000
3100
,
0000
1000
0100
0010
,
0001
0100
0010
1000
,
0001
0010
1000
0010
,
0001
1000
0001
0001
,
0100
0010
1000
0001
,
1000
0100
0010
0001
,
1000
0100
0001
0100
,
1000
0100
0010
0001
,
1000
0010
1000
0001
,
0001
0010
0001
1000
,
1000
0100
1000
1000
,
0001
0100
0010
0010
,
1000
0001
0000
0001
,
1000
0100
0000
0100
,
0010
0000
0001
0000
0000
0001
0000
0000
,
1000
0000
0000
1000
0000
0000
0010
0000
,
0010
0100
0001
0100
,
0010
1000
0001
0001
,
0010
0100
1000
0001
,
0100
0010
1000
1000
,
0010
0001
0010
0100
,
0001
0010
1000
0010
,
0100
0001
0100
1000
,
0001
0100
0100
0010
,
1000
0001
0100
0100
,
0001
1000
0010
0010
,
1000
0100
0010
0010
,
0001
1000
0010
0100
,
0001
0100
0000
1001
,
0000
0100
0010
0100
,
0000
0000
1001
0000
0000
0001
0000
0000
,
1000
0000
0010
0000
0000
0010
0000
0000
,
0200
0000
0000
0000
,
0300
0000
0000
0000
;

//--------------- dance-single - ----------------
#NOTES:
     dance-single:
     :
     Medium:
     9:
     0,0,0,0,0:
0000
0000
0000
0000
,
0000
0000
0000
0000
,
0000
0000
0000
0000
,
0000
0000
0000
0000
,
0000
0000
0000
0000
,
0000
0000
0000
0000
0000
0000
0000
0000
1000
0000
1000
0010
0000
0000
0010
0100
,
0000
0000
0000
0000
0000
0000
0000
0000
0001
0000
0001
0010
0000
0000
0000
0000
,
0000
0000
0000
0000
0000
0000
0000
0000
0001
0000
0000
2000
0000
0000
3002
0000
,
0010
0100
1003
0000
,
1000
0010
0001
0000
0001
0010
0100
0000
,
0001
0010
1000
0000
1000
0010
0100
0000
,
2000
0000
0100
3100
0020
0000
0031
1000
,
1000
0000
0010
0100
0000
0100
0001
0000
,
0010
0001
0100
0000
0100
0010
1000
0000
,
0010
1000
0100
0000
0100
0010
0001
0000
,
1000
0000
0000
1000
0010
0000
0000
0010
0001
0000
0000
0001
0010
0000
0000
0010
,
1000
0000
0001
0100
0000
0100
0110
0000
,
1000
0100
0000
0100
0000
0100
0010
0001
,
0000
0001
0000
1000
0000
1000
0010
0100
,
0001
0000
0010
0100
1000
1000
0001
0200
,
0010
0000
0010
0000
0310
0000
1000
0001
,
0010
0010
0100
0100
1000
0001
1000
1000
,
0010
0010
0100
0100
0001
1000
0001
0001
,
0200
0010
0010
0310
0200
0010
0010
0310
,
2000
0001
0001
0001
3001
0000
0000
0100
,
1001
0000
0001
0000
0000
0100
0001
0000
,
1000
0000
0001
0000
0000
0001
0100
0000
,
0001
0000
1000
0000
0000
0100
1000
0000
,
0000
0001
1000
0000
0000
0100
1000
0001
,
0001
0000
0100
0000
0000
0001
1000
0000
,
0100
0000
1000
0000
0000
0001
1000
0000
,
0010
0000
0100
0000
0000
0100
0010
0000
,
0000
1000
0001
0000
0000
0010
0100
0100
,
1000
0000
0001
0000
0000
0100
0010
0000
,
1000
0000
0001
0000
0000
0010
0100
0000
,
1000
0000
0010
0000
0000
0010
0100
0000
,
0000
0100
0001
0000
0000
0001
1000
0001
,
0001
0000
0010
0000
0000
0100
0010
0000
,
0001
0000
0100
0000
0000
0010
1000
0000
,
0001
0000
0001
0100
0000
0100
0010
0000
,
0010
1000
0000
1000
0001
0010
0100
1000
,
0001
0000
0011
0000
0000
1000
0001
0000
,
1000
0000
1010
0000
0000
0001
1000
0000
,
0100
0000
1100
0000
0000
0001
1000
0000
,
0000
1000
0010
0000
0000
0010
0100
0001
,
0001
0000
1010
0000
0000
0001
1000
0000
,
0100
0000
1010
0000
0000
1000
0001
0000
,
0100
0000
1001
0000
0000
0001
0010
0000
,
0000
1000
0010
0000
0000
0001
0010
0001
,
0001
0000
1001
0000
0000
1000
0010
0000
,
0100
0000
0110
0000
0000
0001
1000
0000
,
0100
0000
0110
0000
0000
0001
1000
0000
,
0000
1000
0001
0000
0000
0001
1000
0100
,
0100
0000
0110
0000
0000
0001
1000
0000
,
1000
0000
0110
0000
0000
1000
0001
0000
,
0002
0000
0010
0000
0000
0013
0000
0001
,
0002
0000
1000
0000
0000
1003
0000
0010
,
0200
0000
0000
0000
,
0300
0000
0000
0000
;

//--------------- dance-single - ----------------
#NOTES:
     dance-single:
     :
     Hard:
     12:
     0,0,0,0,0:
0000
0000
0000
0000
,
0000
0000
0000
0000
,
0000
0000
0000
0000
,
0000
0000
0000
0000
,
0000
0000
0000
0000
,
0000
0000
1000
0000
0000
0100
0000
0000
0010
0000
0000
0100
0000
0000
1000
0000
,
0000
0000
0001
0000
0000
0100
0000
0000
0010
0000
0000
1000
0000
0000
0100
0000
,
0000
0000
1000
0000
0000
0010
0000
0000
0100
0000
0000
0010
0000
0000
1000
0000
,
0000
0000
0001
0000
0000
0010
0000
0000
0100
0000
0000
0000
0020
0000
0000
0000
,
0031
0000
0000
0100
0010
0000
1000
0000
0000
0000
1000
0000
1100
0000
0100
0000
,
0010
0000
0000
0001
1000
0000
0001
0000
0000
0001
0100
0000
0110
0000
0000
0000
,
1000
0000
0000
1000
0100
0000
0010
0000
0000
0000
0010
0000
1001
0000
1000
0000
,
0001
0000
0000
0001
0100
0000
1000
0000
0000
0000
0100
0000
0110
0000
0000
0000
,
0001
0000
0100
0001
1000
0000
0010
0000
0000
0000
0010
1000
0100
0000
0010
0000
,
0100
0000
0000
0100
1000
0000
0010
0000
0000
0000
0010
0100
0001
0000
0000
0001
,
1000
0000
0000
1000
0100
0000
0000
0100
0001
0000
0000
0001
0100
0000
1000
0000
,
0001
0000
0000
0001
0100
0000
0010
0000
0000
0000
0010
0000
0110
0000
1000
0000
,
0002
0000
0010
0000
0000
0000
0010
0000
0000
0000
0010
0000
0003
0000
0001
2000
,
0000
0000
0010
0000
0000
0000
0010
0000
3000
0000
0010
0100
0000
0000
0100
0010
,
0000
0000
0010
1000
0000
0000
1000
0001
0000
0000
1000
0000
0000
1000
0001
0200
,
0000
0010
0000
1000
0000
0001
0300
0010
,
1000
1000
0100
0100
0001
0001
0100
0100
,
0010
0010
1000
1000
0010
0010
0001
0001
,
0100
0001
0100
0001
0100
0010
0100
0010
1000
0010
1000
0010
1000
0001
1000
0001
,
0010
0100
0010
0100
0010
0100
0010
0100
0020
0000
0000
0000
0000
0000
0031
0000
,
1000
0000
0001
0100
0010
1000
0001
0000
,
1000
0100
0001
0100
0000
1000
0001
0000
,
1000
0010
0001
0010
0000
1000
0001
0100
,
0010
1000
0001
0010
0100
1000
0001
1000
,
1000
0000
0001
0100
0010
1000
0001
0000
,
1000
0100
0001
0100
0000
1000
0001
0000
,
1000
0000
0001
0010
0100
1000
0001
0010
,
0100
0000
1000
0000
0001
0000
0000
1000
0000
0000
1000
0000
0001
0000
1000
0100
,
1000
0000
0010
1000
0001
0100
0010
1000
,
0100
0000
0010
0001
1000
0100
0010
0001
,
0100
0000
0010
1000
0001
0100
0010
1000
,
0001
0100
0010
1000
0001
0100
0010
0100
,
0100
0000
0001
1000
0100
0010
0001
0000
,
1000
0010
0001
0010
0100
0001
1000
0000
,
0001
0001
0100
0010
0010
1000
0100
0100
,
0010
0000
0001
0000
0001
0000
1000
0000
0100
0010
0100
0000
1000
0000
0010
0100
,
0001
0000
0001
0010
0100
1000
0000
0000
,
1000
0100
0010
0001
0000
0001
0100
0000
,
0001
0000
1000
0010
0100
0001
0000
0000
,
0001
0100
0010
1000
0000
0001
1000
0100
,
0100
0000
0010
0001
1000
0010
0100
0000
,
0010
1000
0001
0010
1000
0010
0001
0000
,
1000
0010
0100
0001
1000
0100
0010
0100
,
1000
0000
0001
0000
0010
0000
0000
0100
0000
0000
0100
0000
0010
0000
0001
1000
,
0100
0100
1000
0010
0100
0001
1000
0001
,
1000
0100
0010
0001
0100
0010
1000
0010
,
0100
0001
1000
0100
0010
0001
0010
0100
,
1000
0010
0100
0001
0100
1000
0100
0010
,
1000
0000
0001
0100
1000
0100
0001
1000
,
0001
0010
1000
0010
0001
1000
0010
0100
,
0001
0000
1000
0100
0001
0100
0000
0100
,
0010
0000
0000
0000
0001
0000
1000
0000
0000
0010
0100
0000
0000
0000
0100
0001
,
2000
0000
0000
0000
,
0000
0000
0000
0000
,
3000
0000
0000
0000
;
