#TITLE:Warum? (fur Melanie);
#SUBTITLE:;
#ARTIST:Tic-Tac-Toe;
#TITLETRANSLIT:;
#SUBTITLETRANSLIT:;
#ARTISTTRANSLIT:;
#GENRE:;
#CREDIT:;
#MUSIC:Warum (fur Melanie).ogg;
#BANNER:;
#BACKGROUND:;
#CDTITLE:;
#SAMPLESTART:70.033;
#SAMPLELENGTH:14.997;
#SELECTABLE:YES;
#OFFSET:-0.442;
#BPMS:0.000=89.020;
#STOPS:;
#BGCHANGES:;
#FGCHANGES:;

//--------------- dance-single - iss einen ninja ----------------
#NOTES:
     dance-single:
     iss einen ninja:
     Beginner:
     2:
     0,0,0,0,0:
0000
0000
0000
0000
,
0000
0000
0000
0000
,
0001
0000
0000
0000
,
0000
0000
0010
0000
,
0100
0000
0000
0000
,
0000
0000
1000
0000
,
0010
0000
0100
0000
,
0000
0000
0001
0000
,
0010
0000
0000
0000
,
0000
0000
0000
0000
,
0100
0000
1000
0000
,
0001
0000
0001
0000
,
0100
0000
0010
0000
,
0100
0000
0100
0000
,
0001
0000
0010
0000
,
0100
0000
1000
0000
,
0001
0000
1000
0000
,
0010
0000
0000
0000
,
0100
0000
0100
0000
,
0001
0000
1000
0000
,
0100
0000
0010
0000
,
0001
0000
0001
0000
,
1000
0000
0010
0000
,
0100
0000
0100
0000
,
0001
0000
0010
0000
,
0200
0000
0300
0000
,
1001
0000
0000
0000
,
0100
0000
0010
0000
,
0110
0000
0000
0000
,
0001
0000
1000
0000
,
1001
0000
0000
0000
,
0010
0000
0100
0000
,
0110
0000
0000
0000
,
1000
0000
0001
0000
,
0010
0000
0000
0000
,
0100
0000
0010
0000
,
0001
0000
0000
0000
,
1000
0000
0010
0000
,
0100
0000
0000
0000
,
0001
0000
1000
0000
,
0100
0000
0010
0000
,
0001
0000
0000
0000
,
1000
0000
1000
0000
,
0010
0000
0100
0000
,
0001
0000
1000
0000
,
0200
0000
0000
0300
,
0100
0000
0000
0000
,
1001
0000
0000
0000
;

//--------------- dance-single - iss einen ninja ----------------
#NOTES:
     dance-single:
     iss einen ninja:
     Easy:
     5:
     0,0,0,0,0:
0000
0000
0000
0000
,
0000
0000
0000
0000
,
1000
1000
0001
0001
,
0010
0010
0200
0302
,
0103
0100
1000
1000
,
0001
0001
0200
2300
,
3100
0010
1000
0001
,
0010
0010
0200
0302
,
0103
0100
1000
1000
,
0001
0000
0001
0000
1000
0000
0010
0010
,
0100
1001
0010
1001
,
1000
0000
0100
0000
0010
0001
0100
0000
,
0010
0110
1000
1001
,
0010
0000
0100
0000
1000
1000
0001
0000
,
1000
0010
0001
0010
,
0100
0001
0010
0100
,
1100
0000
0101
0000
1000
0010
0100
0000
,
0001
0000
0010
0000
0100
0010
0001
0000
,
1000
1001
0001
0100
,
0010
0010
0010
0000
1000
0000
0001
0000
,
0010
1000
0010
0100
,
1000
0001
1000
0000
0010
0000
0100
0000
,
1001
0000
0000
0000
0001
0010
0100
0000
,
1000
0001
0101
1100
,
1000
0010
0100
0100
,
0020
0000
0000
0030
,
2001
0010
0001
3100
,
1000
0000
0010
0000
0100
0100
0000
0000
,
1002
0010
1000
0103
,
0001
0000
0010
0000
1000
0010
0001
0000
,
2001
0100
0001
3010
,
1000
0000
0100
0000
0010
0010
0000
0000
,
1002
0100
1000
0013
,
0001
0000
1000
0000
0010
0100
0001
0000
,
0011
0011
1010
1010
,
0001
0000
0100
0000
1000
0100
0001
0000
,
0010
0100
1000
1000
,
0010
0000
0100
0000
0001
1000
1000
0000
,
0100
0001
0100
1000
,
0010
0000
0100
0000
0001
1000
1000
0000
,
0100
0001
0010
1000
,
0200
0010
0010
1300
,
0001
0001
0001
0000
1000
0000
1010
0000
,
0001
0010
0100
1000
,
0010
0001
0010
1000
,
0002
0000
0000
0010
,
0013
0000
0000
0000
0000
0000
0000
0000
0000
0000
0000
0000
0000
0001
0000
1000
;

//--------------- dance-single - iss einen ninja ----------------
#NOTES:
     dance-single:
     iss einen ninja:
     Medium:
     9:
     0,0,0,0,0:
0000
0000
0000
0000
,
0000
0000
0000
0000
,
1000
1000
1010
0000
0001
0001
0011
0000
,
1000
0000
1000
0000
1010
0000
0000
0000
0001
0000
0000
0010
0000
0000
0100
0000
,
1000
1000
1100
0000
0001
0001
0101
0000
,
1000
0000
1000
0000
1100
0000
0000
0000
0001
0000
0000
1000
0000
0000
0010
0000
,
0100
0100
0110
0000
0001
0001
1001
0000
,
0100
0000
0100
0000
0110
0000
0000
0000
0001
0000
0000
1000
0000
0000
0100
0000
,
0010
0010
0110
0000
1000
1000
1001
0000
,
0010
0000
0010
0000
0110
0000
0000
0000
0001
1000
0000
0000
1100
0000
1100
0000
,
0001
1000
0010
0100
1000
0100
0001
0100
,
0010
1000
0100
0010
0001
0100
1001
0000
,
1000
0100
0001
0100
0000
0010
0001
0100
,
0000
0010
1000
0100
0001
0100
1000
0010
,
0100
0100
0001
1000
0100
0010
1000
0010
,
0100
0010
0001
1000
0010
0100
1000
0100
,
0001
0010
0100
0000
1000
0010
0101
0000
,
0001
0010
0100
1000
0010
0100
1001
0000
,
1000
1000
0001
0010
1000
0010
0001
0100
,
0010
0010
0100
0100
0001
1000
0100
0000
,
1001
0010
0100
0000
0010
1000
1001
0000
,
0001
0010
0100
0100
1000
0010
1000
0001
,
0110
0000
1000
0001
0010
0010
0100
1000
,
0010
0100
0001
0010
1000
0010
0001
0010
,
0100
1000
0001
1000
0010
0010
0100
0000
,
2002
0000
0000
3003
,
1000
0001
0110
0000
0001
1000
0110
0000
,
1000
0001
0010
0100
0110
1001
0000
0001
,
1000
0010
0101
0000
0001
0010
1100
0000
,
1000
0000
0010
0000
0001
0000
1000
0000
0100
0000
0000
0010
0000
0000
1000
0000
,
0001
0010
1100
0000
1000
0010
0101
0000
,
0001
1000
0100
0010
0110
1001
0000
1000
,
0001
0010
1001
0000
1000
0010
1001
0000
,
0001
0100
1000
0001
0010
1000
0100
0010
,
0001
0000
0000
0001
0010
0000
0000
0010
0100
0000
0000
0100
1000
0000
0000
1000
,
0001
0100
0010
0100
1000
0100
0001
0010
,
0100
0000
0100
0000
1000
0001
0000
0000
0100
0000
0100
0000
0001
1000
0000
0000
,
0100
0010
0010
0001
0001
1000
1000
0010
,
0010
0000
0100
0000
0001
1000
0000
0000
0100
0000
0010
0000
0001
1000
0000
0000
,
0010
0100
0100
0001
0001
0010
0010
1000
,
1000
0000
0010
0100
1000
0010
0100
0001
,
0010
0000
0100
0000
1000
0010
0001
0010
,
0100
0100
0100
0001
1000
0100
0001
0100
,
0010
0001
1000
0010
0110
0100
1001
0001
,
0010
1000
0010
0001
1000
0010
0100
0000
,
0020
1000
0000
0100
,
0130
0000
0000
0000
0000
0000
0000
0000
0000
0000
0000
0000
0000
0001
1000
0001
;

//--------------- dance-single - iss einen ninja ----------------
#NOTES:
     dance-single:
     iss einen ninja:
     Hard:
     13:
     0,0,0,0,0:
0000
0000
0000
0000
,
0000
0000
0000
0000
,
1000
0000
1000
0000
0010
0100
0000
0010
1000
0000
1000
0000
0001
0010
0000
0001
,
1000
0000
1000
0000
0010
0100
0000
0010
2000
0000
3100
0002
0000
0103
0020
0000
,
0031
0000
0001
0000
0100
0010
0000
0100
0001
0000
0001
0000
1000
0100
0000
1000
,
0001
0000
0001
0000
0100
0010
0000
0100
0002
0000
0013
2000
0000
3001
0200
0000
,
0310
0000
0010
0000
0001
1000
0000
0010
0100
0000
0100
0000
0010
1000
0000
0010
,
0100
0000
0100
0000
0001
1000
0000
0100
2000
0000
3010
0002
0000
1003
0200
0000
,
0310
0000
0010
0000
1000
0001
0000
1000
0100
0000
0100
0000
0010
0001
0000
0010
,
0100
0000
0100
0000
1000
0001
0000
1000
0010
0100
0010
0000
1002
0000
0010
0013
,
0100
1000
0001
1000
0010
0000
0100
0010
1000
0000
0100
0001
0100
0000
0010
0001
,
1000
0100
M100
0001
1000
0001
0100
010M
1000
0010
0100
0001
0010
0000
0100
1000
,
0001
1000
0010
0100
1000
0100
0001
1000
0000
0001
0010
0100
0001
0100
1000
0001
,
0000
1000
0010
0100
0001
0001
1000
0100
1000
1000
0001
0100
0010
1000
0001
0010
,
0000
0100
1000
0001
0000
0101
0000
2010
0000
3001
0010
0100
0000
0010
1000
0001
,
0100
0010
0001
0100
0000
1000
0001
0010
0000
1000
0001
0010
0000
0100
1000
0010
,
0000
M010
0001
0100
0000
0010
0100
0001
1000
0100
0001
0100
1000
0000
0010
0100
,
0001
1000
0010
0001
0000
1000
0100
0001
0000
0010
0000
0100
2001
0000
3010
M010
,
0001
0000
0000
1000
0000
0000
0010
0000
0000
0100
0000
0000
1000
0000
0000
0000
0000
0000
0100
0000
0000
0001
0000
0000
0010
0000
0000
0000
0010
0000
0200
0000
0000
0000
0000
0000
1300
0000
0000
0010
0000
0000
0002
0000
0000
0000
0000
0000
,
1003
0100
0001
0000
1000
0000
1000
0100
0010
0001
1000
0010
0000
0100
0001
0010
,
0000
001M
0100
0001
0000
0010
0100
1000
0010
0000
0001
1000
0000
0100
0010
1000
,
0001
0010
0001
0010
0100
0001
0000
0100
1000
0010
0100
0001
0000
1000
0100
M100
,
0001
0000
1000
0000
0010
1000
0100
M100
0001
0010
0100
1000
0010
0000
1000
0001
,
0010
1000
0010
0100
1000
0000
0001
0100
2000
0000
3001
0010
0200
0000
0301
1000
,
0100
0001
0000
0100
0010
0000
0001
1000
0010
M010
0001
1000
0010
0000
0100
0010
,
2000
0000
0000
0000
0000
0000
0000
0000
0000
0000
0000
0000
3000
0001
0010
1000
,
0000
0001
0100
1000
0000
0010
0001
1000
0000
0100
0001
1000
0000
0100
0010
0001
,
1000
0010
0100
01M0
1000
0000
0001
0010
0110
0000
1001
0000
0000
0001
0100
1000
,
0000
0001
0010
0100
0000
0001
0010
1000
0000
0001
0100
0010
0000
0001
1000
0010
,
0100
0001
0010
0000
0110
0000
1000
0001
0101
0000
1000
1100
0000
1000
0010
0001
,
0000
1000
0100
0001
0000
0010
1000
0001
0000
0100
1000
0001
0000
1000
0100
0010
,
0001
0100
0010
0M10
0001
0000
1000
0010
0110
0000
1001
0000
0000
1000
0100
0001
,
0000
1000
0010
0100
0000
1000
0010
0001
0000
1000
0100
0010
0000
1000
0001
0010
,
0100
0001
0100
1000
0000
0010
0000
M010
0001
0100
0000
010M
1000
0010
0000
M010
,
0001
0100
0000
0100
1000
0100
0000
0100
0001
0010
0000
0010
1000
0010
0000
0010
,
0100
1000
0010
0001
0010
0100
0001
0020
0000
2030
0000
3002
0000
0203
0000
1300
,
0001
0000
0100
0000
0010
1000
0000
1000
0001
0000
0010
0000
0100
0010
0000
0010
,
0001
1000
0010
0010
0000
0110
0000
0110
0000
1001
0000
1001
0000
1100
0000
2100
,
0000
3001
1000
0000
0010
0100
0000
0100
0001
0000
0001
0000
0010
0100
0000
0100
,
1000
0001
0100
0100
0000
0110
0000
0110
0000
1001
0000
1001
0000
0011
0000
0011
,
0000
1000
0010
0100
0000
1000
0100
0000
0001
0010
0000
1000
0001
0000
0100
0010
,
0001
0000
1000
0000
0010
0100
0000
0010
1000
0000
0100
0000
0001
0000
0100
0010
,
0001
0000
0001
0000
0001
0000
1000
0010
0001
0000
0010
0100
0001
0100
0010
0000
,
1000
0001
0010
001M
1000
0000
0001
0010
2000
0000
3001
0100
2000
0000
3010
0100
,
0001
0000
0000
0000
1000
0000
0000
0000
0010
0000
0000
0000
1000
0000
0000
0000
0100
0000
0000
0000
0010
0000
0000
0000
0001
0000
0000
1000
0000
0000
0000
0000
0000
0010
0000
0000
0100
0000
0000
0000
0000
0000
0001
0000
0000
1000
0000
0000
,
0100
0001
0100
0000
0010
0001
0000
0000
0000
0000
1000
0010
0001
0010
0100
0010
,
1000
0000
0000
0000
0000
0000
0000
0000
0000
0000
0000
0000
0000
0001
0010
1000
;
