#TITLE:Wacky Dance Ethnic;
#SUBTITLE:;
#ARTIST:Sampling Masters MEGA;
#TITLETRANSLIT:;
#SUBTITLETRANSLIT:;
#ARTISTTRANSLIT:;
#GENRE:ROTTEL-DE-ETHNIC;
#CREDIT:;
#BANNER:;
#BACKGROUND:;
#LYRICSPATH:;
#CDTITLE:;
#MUSIC:Wacky Dance Ethnic.ogg;
#OFFSET:-0.715012;
#SAMPLESTART:71.452003;
#SAMPLELENGTH:10.105000;
#SELECTABLE:YES;
#BPMS:0.000000=190.000000
;
#STOPS:206.000000=0.316000
;
#BGCHANGES:;
#KEYSOUNDS:;
#ATTACKS:;

//---------------dance-single - ----------------
#NOTES:
     dance-single:
     :
     Hard:
     14:
     0.663886,0.902104,0.357477,0.410047,0.131425,442.000000,408.000000,34.000000,39.000000,14.000000,0.000000,0.663886,0.902104,0.357477,0.410047,0.131425,442.000000,408.000000,34.000000,39.000000,14.000000,0.000000:
0000
0000
0000
0000
,
0000
0000
0000
0000
,
2001
0000
0100
3100
2000
0000
0001
3001
,
1000
0001
0100
0010
0000
0000
1000
1000
,
1002
0000
0100
0103
0002
0000
1000
1003
,
0001
1000
0100
0010
0000
0000
0001
0001
,
2002
0000
0000
3003
,
0000
0000
0000
0000
0000
0000
0000
0000
0000
0000
0000
0000
1001
0000
1000
0001
,
1000
0001
0010
0001
1000
0100
1000
0010
,
0100
0001
0010
0001
2000
0000
3000
1000
,
0001
1000
0010
1000
0001
0100
0001
0010
,
0100
1000
0010
1000
0002
0000
0003
0000
,
1000
0100
0010
0100
1000
0010
1000
0100
,
0010
0001
0100
0001
0020
0000
0030
0010
,
0001
1000
0010
1000
0010
0001
0010
0001
,
0020
0000
0030
1001
,
1000
0100
0010
0000
0002
1000
0000
1003
,
0002
0010
0000
0013
0001
1000
0000
0000
,
0001
0100
0010
0000
2000
0001
0000
3001
,
2000
0000
0010
0000
0000
0000
3010
0000
0100
0000
0001
1000
0001
0000
1000
0001
,
1000
0010
1000
0000
0200
0001
0000
0301
,
0200
1000
0000
1300
0100
0010
0000
0000
,
0001
0100
1000
0000
0100
0220
0000
0000
,
0000
0000
0330
1001
,
1000
1000
0010
M000
0010
0001
0000
0001
,
1000
0000
1000
0010
0000
0010
0100
0001
,
1000
1000
0001
0000
0100
1000
0000
1000
,
0100
0000
0100
0001
0000
1001
0000
0000
,
0001
0001
0010
000M
0010
1000
0000
1000
,
0001
0000
0001
0010
0000
0010
0100
1000
,
0001
0001
1000
0000
0100
0001
0000
0001
,
0100
0000
1000
0000
0100
0000
1000
0000
0001
1000
0001
1000
0001
1000
0001
1000
,
0001
0000
1000
0100
1000
0000
0100
0010
0100
0000
1000
0000
0100
0000
0010
0000
,
0001
0000
1000
0001
0100
0000
1000
0000
0100
0000
0010
0000
1000
0000
0000
0000
,
0001
0000
0100
0010
0100
0000
0010
0100
0010
0000
1000
0000
0001
0000
0010
0000
,
0100
0000
1000
0010
1000
0000
0001
0010
0001
0000
1000
0100
1000
0000
0100
0010
,
0001
0000
0001
0100
0001
0000
0100
0010
0100
0000
0001
0000
0100
0000
0010
0000
,
1000
0000
0001
1000
0100
0000
0001
0000
0100
0000
0010
0000
0001
0000
0000
0000
,
1000
0000
0100
0010
0100
0000
0010
0100
0010
0000
0001
0000
1000
0000
0010
0000
,
0101
0000
0000
0000
0000
0000
1100
0000
0000
0000
0000
0000
1001
0000
1000
0001
,
0010
0020
0000
0000
0000
0001
0030
0020
,
0000
1000
0030
0010
0001
1000
0000
1000
,
0010
0020
0000
0000
0000
1000
0030
0020
,
0000
0001
0030
0010
1000
0001
0000
0001
,
0100
0200
0000
0000
0000
0001
0300
0200
,
0000
1000
0300
0100
0001
1000
0000
1000
,
0100
0200
0000
0000
0000
0001
0300
0100
,
1000
1000
0000
0000
0001
0001
0000
0000
,
1010
0000
0100
0001
0010
0000
1100
0000
,
MMMM
1010
1001
0000
,
0011
0000
0100
1000
0010
0000
0101
0000
,
MMMM
0000
0011
0000
2002
3003
1010
0000
,
0010
1000
0001
0000
0011
0000
MMMM
0000
,
1100
1001
0000
1010
,
0010
1000
0001
0000
0011
0000
0001
0001
,
0000
0000
0000
0000
1000
0000
0001
1000
0001
1000
0001
1000
0001
0000
1000
0000
,
0010
1000
0001
0100
0001
0010
0100
1000
,
0010
1000
0002
0000
0003
0001
1000
0001
,
0010
0001
1000
0100
1000
0010
0100
0001
,
0010
0001
2000
0000
3000
0000
0001
0100
,
0010
0100
0001
0010
0001
0100
0010
1000
,
0100
1000
0020
0000
0030
0010
1000
0001
,
0010
0001
0010
1000
0010
1000
0020
0000
,
0000
0000
0030
0000
1001
0000
0001
0100
,
1000
0100
0001
1000
0100
0010
1000
0010
,
0001
1000
0020
0000
0030
0010
1000
0100
,
0001
0100
1000
0001
0100
0010
0001
0010
,
1000
0001
0020
0000
0030
0000
2002
0000
,
3003
0000
0011
0000
1010
0000
0001
1000
,
0010
1000
0001
0000
0000
0000
2002
0000
,
3003
1100
0101
0220
,
0000
0330
1001
0000
;

//---------------dance-single - ----------------
#NOTES:
     dance-single:
     :
     Medium:
     10:
     0.489653,0.638990,0.273365,0.147196,0.063084,326.000000,300.000000,26.000000,14.000000,0.000000,0.000000,0.489653,0.638990,0.273365,0.147196,0.063084,326.000000,300.000000,26.000000,14.000000,0.000000,0.000000:
// measure 0
0000
0000
0000
0000
,  // measure 1
0000
0000
0000
0000
,  // measure 2
1100
0001
1010
0001
,  // measure 3
1000
0100
0010
0001
0000
0000
0000
0000
,  // measure 4
0101
1000
0011
1000
,  // measure 5
0001
0100
0010
1000
0000
0000
0000
0000
,  // measure 6
2002
0000
0000
0000
,  // measure 7
3003
0000
0000
0000
,  // measure 8
1000
0010
1000
0000
0001
0100
0001
0000
,  // measure 9
1000
0001
0010
0001
1000
0000
0000
0000
,  // measure 10
0001
0010
0001
0000
1000
0100
1000
0000
,  // measure 11
0001
1000
0010
1000
0001
0000
0000
0000
,  // measure 12
0001
0100
0001
0000
0100
0010
0100
0000
,  // measure 13
0001
0100
0010
0100
0001
0000
0000
0000
,  // measure 14
1000
0100
1000
0000
0100
0010
0100
0000
,  // measure 15
0020
0000
0030
1001
,  // measure 16
0001
0000
1000
0000
0000
0001
0000
0100
,  // measure 17
0000
0001
0000
0010
0000
0001
0000
0000
,  // measure 18
1000
0000
0001
0000
0000
1000
0000
0100
,  // measure 19
0000
1000
0000
0010
0000
1000
0000
0000
,  // measure 20
0001
0000
0010
0000
0000
0100
0000
0001
,  // measure 21
0000
0100
0000
1000
0000
0001
0000
0000
,  // measure 22
1000
0000
0010
0000
0000
0220
0000
0000
,  // measure 23
0000
0000
0330
1001
,  // measure 24
0001
0000
1000
0000
0001
0001
0000
0010
,  // measure 25
0010
0000
0001
0001
0000
0000
0100
0010
,  // measure 26
1000
0000
0001
0000
1000
1000
0000
0100
,  // measure 27
0100
0000
1000
1000
0000
0001
0000
0000
,  // measure 28
1000
0000
0001
0000
1000
1000
0000
0010
,  // measure 29
0010
0000
1000
1000
0000
0000
0100
0010
,  // measure 30
0001
0000
1000
0000
0001
0001
0000
0000
,  // measure 31
1000
0001
1000
0002
2000
0000
3003
0000
,  // measure 32
1000
0000
0000
1000
0010
0000
0000
0010
1000
0000
0000
1000
0100
0000
0000
0100
,  // measure 33
1000
0000
0010
0000
0100
0001
0010
0000
,  // measure 34
0001
1000
0001
0010
,  // measure 35
0100
0000
0000
1000
0001
0000
0000
1000
0001
0000
0000
1000
0001
0000
0000
1000
,  // measure 36
0001
0000
0000
0001
0010
0000
0000
0010
0001
0000
0000
0001
0100
0000
0000
0100
,  // measure 37
0001
0000
0010
0000
0100
1000
0010
0000
,  // measure 38
1000
0001
1000
0010
,  // measure 39
0101
0000
0000
1100
0000
0000
1001
0000
,  // measure 40
0001
1000
0000
0000
0000
1000
0000
1000
,  // measure 41
0000
0010
0000
0010
0000
0001
0000
0001
,  // measure 42
0010
1000
0000
0000
0000
0001
0000
0001
,  // measure 43
0000
0010
0000
0010
0000
1000
0000
1000
,  // measure 44
0010
0001
0000
0000
0000
1000
0000
1000
,  // measure 45
0000
0100
0000
0100
0000
0001
0000
0001
,  // measure 46
0100
1000
0000
0000
0000
0001
0000
0001
,  // measure 47
1000
1000
0000
0000
0001
0001
0000
0000
,  // measure 48
1010
0100
0001
0010
,  // measure 49
0000
1100
1001
0000
,  // measure 50
0101
0010
1000
0001
,  // measure 51
0000
0110
1001
0011
,  // measure 52
0100
1000
0010
0000
,  // measure 53
0101
1001
0000
1100
,  // measure 54
0010
0000
0001
0000
1000
0000
0001
0001
,  // measure 55
0000
0000
1000
1000
0000
0000
0001
0010
,  // measure 56
0001
0000
1000
0100
1000
0000
0001
1000
,  // measure 57
0010
1000
0001
0000
0000
0000
1000
0010
,  // measure 58
1000
0000
0001
0100
0001
0000
1000
0001
,  // measure 59
0010
0001
1000
0000
0000
0000
1000
0100
,  // measure 60
1000
0000
0100
0010
0100
0000
1000
0100
,  // measure 61
0010
0100
1000
0000
0000
0000
0001
0100
,  // measure 62
0001
0000
0100
0010
0100
0000
0020
0000
,  // measure 63
0000
0000
0030
0000
1001
0000
1000
0100
,  // measure 64
0001
0000
0001
0100
1000
0000
1000
0100
,  // measure 65
0010
0001
1000
0000
0000
0000
0001
0100
,  // measure 66
1000
0000
1000
0100
0001
0000
0001
0100
,  // measure 67
0010
1000
0001
0000
0000
0000
2200
0000
,  // measure 68
3300
0000
0001
0000
1000
0000
0010
0100
,  // measure 69
0010
1000
0001
0000
0000
0000
0202
0000
,  // measure 70
0303
1000
0001
0220
,  // measure 71
0000
0330
1001
0000
;
