#VERSION:0.83;
#TITLE:WHEN MY BABY;
#SUBTITLE:(Almighty Mix);
#ARTIST:SCOOCH;
#TITLETRANSLIT:;
#SUBTITLETRANSLIT:;
#ARTISTTRANSLIT:;
#GENRE:;
#ORIGIN:;
#TAGS:;
#CREDIT:;
#BANNER:WHEN MY BABY (Almighty Mix).png;
#BACKGROUND:WHEN MY BABY (Almighty Mix)-bg.png;
#PREVIEWVID:;
#JACKET:WHEN MY BABY (Almighty Mix)-jacket.png;
#CDIMAGE:;
#DISCIMAGE:;
#LYRICSPATH:;
#CDTITLE:DANCE MANIA X5.PNG;
#MUSIC:WHEN MY BABY (Almighty Mix).ogg;
#OFFSET:-0.023000;
#SAMPLESTART:45.906521;
#SAMPLELENGTH:15.000000;
#SELECTABLE:YES;
#BPMS:0.000000=134.000000
;
#STOPS:;
#DELAYS:;
#WARPS:;
#TIMESIGNATURES:0.000000=4=4
;
#TICKCOUNTS:0.000000=4
;
#COMBOS:0.000000=1
;
#SPEEDS:0.000000=1.000000=0.000000=0
;
#SCROLLS:0.000000=1.000000
;
#LABELS:0.000000=Song Start
;
#BGCHANGES:24.000=film1.mp4=1.000=1=0=1===CrossFade==,
40.000=fireworks2.mp4=1.000=0=0=1=====,
48.000=feather1.mp4=1.000=0=0=1=====,
56.000=heart4.mp4=1.000=0=0=1=====,
64.000=heart9.mp4=1.000=0=0=1=====,
72.000=girl2a.mp4=1.000=0=0=1=====,
80.000=tunnel5.mp4=1.000=0=0=1=====,
88.000=tunnel9.mp4=1.000=0=0=1=====,
96.000=floor2.mp4=1.000=0=0=1=====,
102.000=heart5.mp4=1.000=0=0=1=====,
112.000=disco4.mp4=1.000=0=0=1=====,
118.000=heart5.mp4=1.000=0=0=1=====,
128.000=disco4.mp4=1.000=0=0=1=====,
135.500=heart7.mp4=1.000=0=0=1=====,
144.000=disco4.mp4=1.000=0=0=1=====,
151.500=heart14.mp4=1.000=0=0=1=====,
160.000=disco4.mp4=1.000=0=0=1=====,
168.000=heart6.mp4=1.000=0=0=1=====,
170.000=tunnel5.mp4=1.000=0=0=1=====,
172.000=tunnel9.mp4=1.000=0=0=1=====,
174.000=heart4.mp4=1.000=0=0=1=====,
176.000=girl2a.mp4=1.000=0=0=1=====,
192.000=heart9.mp4=1.000=0=0=1=====,
208.000=WHEN MY BABY (Almighty Mix)-bg.png=1.000=0=0=1=====,
99999=-nosongbg-=1.000=0=0=0 // don't automatically add -songbackground-
;
#KEYSOUNDS:;
#ATTACKS:
;

//---------------dance-single - ----------------
#NOTEDATA:;
#CHARTNAME:;
#CHARTHASH:1252712870;
#STEPSTYPE:dance-single;
#BANNER:;
#DESCRIPTION:;
#CHARTSTYLE:;
#DIFFICULTY:Beginner;
#METER:1;
#METERF:1.000000;
#LASTSECONDHINT:93.157333;
#RADARVALUES:0.000000,0.000000,0.000000,0.000000,0.000000,0.000000,0.000000,0.000000,0.000000,0.000000,0.000000,0.000000,0.000000,0.000000,0.000000,0.000000,0.000000,0.000000,0.000000,0.000000,0.000000,0.000000,0.000000,0.000000,0.000000,0.000000,0.000000,0.000000;
#CREDIT:;
#NOTES:
0000
0000
0000
0000
,
0000
0000
0000
0000
,
0000
0000
0000
0000
,
0000
0000
0000
0000
,
1000
0000
0000
0000
,
0000
0000
0000
0000
,
1000
0000
0000
0000
,
0000
0000
0000
0000
,
0001
0000
0000
0000
,
0000
0000
0000
0000
,
0001
0000
0001
0000
,
0001
0000
0000
0000
,
1000
0000
1000
0000
,
1000
0000
0000
0000
,
0001
0000
0001
0000
,
0001
0000
0000
0000
,
1000
0000
1000
0000
,
1000
0000
0000
0000
,
0010
0000
0010
0000
,
0010
0000
0000
0000
,
0100
0000
0100
0000
,
0100
0000
0000
0000
,
0010
0000
0010
0000
,
0010
0000
0000
0000
,
0100
0000
0100
0000
,
0100
0000
0000
0000
,
0010
0000
0000
0010
,
0010
0000
0100
0000
,
0010
0000
0000
1000
,
1000
0000
0001
0000
,
1000
0000
0000
0010
,
0010
0000
0100
0000
,
0010
0000
0000
0100
,
0100
0000
0001
0000
,
1000
0000
1000
0000
,
1000
0000
0000
0000
,
0001
0000
0001
0000
,
0001
0000
0000
0000
,
0100
0000
0100
0000
,
0100
0000
0000
0000
,
0010
0000
0010
0000
,
0010
0000
0000
0000
,
1000
0000
0000
1000
,
1000
0000
0000
0001
,
0001
0000
0001
0000
,
0001
0001
0001
0000
,
1000
0000
1000
0000
,
1000
1000
1000
0000
,
0010
0000
0010
0000
,
0010
0010
0010
0000
,
0100
0000
0100
0000
,
0100
0000
0000
0000
,
1001
0000
0000
0000
;

//---------------dance-single - ----------------
#NOTEDATA:;
#CHARTNAME:;
#CHARTHASH:839217396;
#STEPSTYPE:dance-single;
#BANNER:;
#DESCRIPTION:;
#CHARTSTYLE:;
#DIFFICULTY:Easy;
#METER:4;
#METERF:4.000000;
#LASTSECONDHINT:93.157333;
#RADARVALUES:0.000000,0.000000,0.000000,0.000000,0.000000,0.000000,0.000000,0.000000,0.000000,0.000000,0.000000,0.000000,0.000000,0.000000,0.000000,0.000000,0.000000,0.000000,0.000000,0.000000,0.000000,0.000000,0.000000,0.000000,0.000000,0.000000,0.000000,0.000000;
#CREDIT:;
#NOTES:
0000
0000
0000
0000
,
0000
0000
0000
0000
,
0000
0000
0000
0000
,
0000
0000
0000
0000
,
1000
0000
1000
0000
,
1000
0000
0000
0000
,
0001
0000
0001
0000
,
0001
0000
0000
0000
,
0100
0000
0100
0000
,
0100
0000
0000
0000
,
0010
0000
0010
0000
,
0010
0000
0000
0000
,
0100
0000
0100
0000
,
0100
0000
0000
0000
,
0010
0010
0010
0000
,
0010
0000
0000
0000
,
0100
0100
0100
0000
,
0100
0000
0000
0000
,
0001
0001
0001
0000
,
0001
0000
0000
0000
,
1000
1000
1000
0000
,
1000
0000
0000
0000
,
0010
0000
0010
0000
,
0100
0000
0100
0000
,
0001
0000
0001
0000
,
1000
1000
1000
0000
,
0001
0001
0100
0100
,
0010
0000
1000
0000
,
0010
0010
1000
1000
,
0100
0000
1000
0000
,
0001
0010
0100
1000
,
1001
0000
1000
0000
,
0100
0010
0001
0010
,
0110
0000
0100
0000
,
1000
1000
0001
0001
,
1000
0000
0010
0000
,
0100
0100
0001
0001
,
0010
0000
0001
0000
,
1000
1000
0100
0100
,
0010
0000
0001
0000
,
0010
0010
0001
0001
,
0100
0000
0010
0000
,
1000
0100
1000
0001
,
0100
0001
0100
0010
,
0100
0000
0100
0000
,
0010
0010
1000
1000
,
0100
0000
1000
0000
,
0100
0100
0010
0010
,
0001
0000
0010
0000
,
0001
0001
1000
1000
,
0001
0000
0100
0000
,
0010
0000
0000
0000
,
1001
0000
0000
0000
;

//---------------dance-single - ----------------
#NOTEDATA:;
#CHARTNAME:;
#CHARTHASH:161245082;
#STEPSTYPE:dance-single;
#BANNER:;
#DESCRIPTION:;
#CHARTSTYLE:;
#DIFFICULTY:Medium;
#METER:6;
#METERF:6.000000;
#LASTSECONDHINT:93.157333;
#RADARVALUES:0.000000,0.000000,0.000000,0.000000,0.000000,0.000000,0.000000,0.000000,0.000000,0.000000,0.000000,0.000000,0.000000,0.000000,0.000000,0.000000,0.000000,0.000000,0.000000,0.000000,0.000000,0.000000,0.000000,0.000000,0.000000,0.000000,0.000000,0.000000;
#CREDIT:;
#NOTES:
0000
0000
0000
0000
,
0000
0000
0000
0000
,
0000
0000
0000
0000
,
0000
0000
0000
0000
,
1000
0000
0000
0100
0000
0000
1000
0000
,
0000
0010
0000
0000
0100
0000
0001
0000
,
0011
0000
0000
0001
0000
0000
1000
0000
,
0000
0001
0000
0000
0100
0000
0010
0000
,
1010
0000
0000
0100
0000
0000
1000
0000
,
0000
0100
0000
0000
0010
0000
0001
0000
,
1001
0000
0001
0000
,
0001
0001
0100
0010
,
1010
0000
1000
0000
,
1000
1000
0100
0010
,
0001
0010
1000
0010
,
0001
0100
0010
0100
,
0001
1000
0100
0001
,
0100
1000
0100
0010
,
0110
0000
0100
0000
,
0100
0100
1000
1000
,
1001
0000
0001
0000
,
0001
0001
1000
1000
,
0010
0100
0010
0001
,
0010
1000
0100
0001
,
0100
1000
0010
0100
,
1001
1001
1001
0000
,
1000
0010
1000
0000
0010
1000
0010
0000
,
1000
1000
0001
0001
,
0100
0000
0100
0000
,
0010
0000
0010
0000
,
0100
0001
0100
0000
0001
0100
0001
0000
,
1000
1000
0010
0010
,
0100
0000
0100
0000
,
0001
0000
0001
0000
,
1000
0000
1000
0000
,
0100
0010
0001
0010
,
0100
0000
0100
0000
,
1000
0000
1000
0010
,
0001
0000
0010
0000
,
1000
0100
0001
0100
,
1000
0000
0001
0000
,
1000
0000
0010
0010
,
0110
0100
0101
0001
,
1001
0000
1000
0000
1010
0000
0010
0100
,
0010
0100
0001
0100
,
0010
0000
1000
0000
,
0010
1000
0100
0001
,
0100
0000
1000
0000
,
0001
0010
0100
1000
,
0001
0000
1000
0000
,
1000
0100
0010
0001
,
1000
0000
0000
0001
0000
0000
0000
1000
,
1001
0000
0000
0000
;

//---------------dance-single - ----------------
#NOTEDATA:;
#CHARTNAME:;
#CHARTHASH:3586512228;
#STEPSTYPE:dance-single;
#BANNER:;
#DESCRIPTION:;
#CHARTSTYLE:;
#DIFFICULTY:Hard;
#METER:9;
#METERF:9.000000;
#LASTSECONDHINT:93.157333;
#RADARVALUES:0.412524,0.440025,0.158663,0.602919,0.058176,273.000000,258.000000,15.000000,57.000000,0.000000,0.000000,0.000000,0.000000,0.000000,0.412524,0.440025,0.158663,0.602919,0.058176,273.000000,258.000000,15.000000,57.000000,0.000000,0.000000,0.000000,0.000000,0.000000;
#CREDIT:;
#NOTES:
// measure 0
0000
0000
0000
0000
,  // measure 1
0000
0000
0000
0000
,  // measure 2
0000
0000
0000
0000
,  // measure 3
0000
0000
0000
0000
,  // measure 4
2000
0010
0000
0001
0000
0000
3020
0000
,  // measure 5
0000
1000
0000
0130
0001
1000
0100
0000
,  // measure 6
0020
0001
0000
1000
0000
0000
0032
0000
,  // measure 7
0000
0103
0000
0001
1000
0010
0100
0000
,  // measure 8
0001
0010
0000
0010
0100
0000
0100
1000
,  // measure 9
0000
1000
0100
0010
0001
0000
1001
0000
,  // measure 10
0020
1000
0001
0230
,  // measure 11
0301
0000
1000
0100
1000
0001
0100
0000
,  // measure 12
0002
1000
0023
0100
,  // measure 13
0031
0000
1000
0100
0010
0001
1000
0100
,  // measure 14
0200
1300
2000
3010
,  // measure 15
1000
0020
0001
0000
0031
0010
1000
0000
,  // measure 16
1000
0200
0001
0000
0301
0100
1000
0000
,  // measure 17
0002
0000
0000
0000
0103
0000
0000
0000
0110
0000
0000
0010
1000
0000
0001
0000
,  // measure 18
0200
1000
0320
0100
,  // measure 19
0031
0000
0000
0000
0010
0000
1000
0000
0100
0000
0010
0000
0001
0000
0000
0001
,  // measure 20
2000
0010
3200
0001
,  // measure 21
1300
0000
1000
0010
0100
0001
0010
0001
,  // measure 22
0002
1003
0200
0310
,  // measure 23
1000
0020
0001
0000
0031
0010
1000
0200
,  // measure 24
0001
0000
0301
0100
1000
0000
0100
1000
,  // measure 25
1001
0000
1001
0000
0110
0010
1000
0100
,  // measure 26
1000
0200
0000
1300
0001
2000
0000
3001
,  // measure 27
0010
0000
0000
0001
1000
0000
0000
0000
0100
0000
0000
1000
0010
0000
0000
0000
,  // measure 28
0100
0001
0200
0000
0301
0010
0002
0000
,  // measure 29
2003
0000
0000
3020
0000
1030
0100
0010
,  // measure 30
0001
0200
0000
0301
0010
0002
0000
1003
,  // measure 31
0010
0000
0000
0100
0001
0000
0000
0000
0010
0000
0000
0001
1000
0000
0000
0000
,  // measure 32
0100
1000
0200
0000
1300
0010
2000
0000
,  // measure 33
3002
0000
0000
0023
0000
0031
0000
1001
,  // measure 34
1000
0002
0000
1003
0010
2000
0000
3010
,  // measure 35
0100
0000
0001
0100
0120
0000
2030
0000
,  // measure 36
3001
0010
0200
0000
1300
0100
0010
0000
,  // measure 37
0012
0000
0000
1000
0000
0100
0103
0001
,  // measure 38
1000
0020
0000
0130
0001
2000
0000
3100
,  // measure 39
1000
0001
0100
0010
2010
0000
3001
0100
,  // measure 40
0010
0100
0002
0000
1003
0001
0010
0000
,  // measure 41
0012
0000
0000
0000
0000
0000
1000
0000
1003
0000
0000
1000
0001
0000
0010
0000
,  // measure 42
0002
0000
0000
0103
0001
0000
0000
0000
0002
0000
0000
1003
0001
0000
0000
0000
,  // measure 43
2000
0000
0000
3010
1000
0000
0000
0000
2000
0000
0000
3001
1000
0000
0100
0000
,  // measure 44
0010
0002
0000
1000
0000
0010
0000
1000
,  // measure 45
2003
0000
0010
0000
0010
3020
0000
1030
,  // measure 46
0002
0100
0010
0103
,  // measure 47
0101
0000
0000
1001
0000
1000
0001
0020
,  // measure 48
0000
0100
0000
0001
0000
0100
0000
0001
,  // measure 49
0032
0000
1000
0000
0010
0023
0000
0031
,  // measure 50
2000
0100
0001
3100
,  // measure 51
1001
0000
0000
0120
0000
0000
0000
0130
,  // measure 52
0110
0000
0000
0000
;
