#VERSION:0.83;
#TITLE:WAKE UP NOW;
#SUBTITLE:;
#ARTIST:Maozon feat. Chica;
#TITLETRANSLIT:;
#SUBTITLETRANSLIT:;
#ARTISTTRANSLIT:;
#GENRE:;
#ORIGIN:;
#CREDIT:;
#BANNER:WAKE UP NOW.png;
#BACKGROUND:WAKE UP NOW-bg.png;
#PREVIEWVID:;
#JACKET:WAKE UP NOW-jacket.png;
#CDIMAGE:;
#DISCIMAGE:;
#LYRICSPATH:;
#CDTITLE:;
#MUSIC:WAKE UP NOW.ogg;
#OFFSET:-0.400000;
#SAMPLESTART:25.991297;
#SAMPLELENGTH:12.800001;
#SELECTABLE:YES;
#BPMS:0.000=150.000;
#STOPS:;
#DELAYS:;
#WARPS:;
#TIMESIGNATURES:0.000=4=4;
#TICKCOUNTS:0.000=4;
#COMBOS:0.000=1;
#SPEEDS:0.000=1.000=0.000=0;
#SCROLLS:0.000=1.000;
#FAKES:;
#LABELS:0.000=Song Start;
#BGCHANGES:;
#KEYSOUNDS:;
#ATTACKS:
;

//---------------dance-single - ----------------
#NOTEDATA:;
#CHARTNAME:;
#STEPSTYPE:dance-single;
#DESCRIPTION:;
#CHARTSTYLE:;
#DIFFICULTY:Challenge;
#METER:16;
#RADARVALUES:0.750849,0.863428,0.356335,0.212431,0.825738,767.000000,715.000000,52.000000,31.000000,0.000000,0.000000,0.000000,0.000000,0.000000,0.750849,0.863428,0.356335,0.212431,0.825738,767.000000,715.000000,52.000000,31.000000,0.000000,0.000000,0.000000,0.000000,0.000000;
#CREDIT:Daniel Van Eden;
#NOTES:
0000
0000
0000
0000
,
0000
0000
0000
0000
,
0000
0000
0000
0000
,
0000
0000
0000
0000
,
0000
0000
0000
0000
,
0000
0000
0000
0000
,
0000
0000
0000
0000
,
0000
0000
0000
0000
,
0000
0000
0000
0000
,
1020
0130
0201
0310
,
1000
0100
0100
0001
0100
0010
0010
0001
,
0021
0130
1200
0310
,
0001
0010
0010
1000
0010
0100
0100
1000
,
2010
3001
0012
1003
,
0010
1000
1000
0010
0001
0010
0100
0001
,
1000
1000
0100
0001
1000
1000
0010
0001
,
1000
0000
0001
1000
0001
0100
0000
0100
1000
0000
0100
0001
0000
1000
0001
1000
,
0010
0000
1000
0100
0000
0010
0000
0010
0001
0000
1000
0010
0000
0100
0000
0100
,
0001
0000
1000
0010
0000
0100
0000
0100
0001
0000
0010
0100
0010
0001
1000
0010
,
0100
0000
0001
0100
0000
0010
0000
0010
1000
0000
0001
0010
0000
0100
0000
0100
,
1000
0000
0001
0010
0000
0100
0000
0100
1000
0000
0010
0100
0010
1000
0001
0010
,
0100
0000
0010
0001
0000
1000
0000
1000
0010
0000
0100
0010
0000
1000
0000
1000
,
0001
0000
1000
0010
0000
0100
0000
0100
0001
0000
1000
0010
1000
0100
0010
0001
,
0100
0000
0010
1000
0000
0001
0000
0001
0010
0000
0100
0010
0000
0001
0000
0001
,
1000
0000
0000
0000
0000
0000
0001
0000
0000
0100
0000
0000
0000
0000
0000
0010
0000
0000
0000
0000
0000
0010
0000
0000
1000
0000
0000
0000
0001
0000
0000
0000
1000
0000
0000
0000
0001
0000
0000
0000
0000
0000
0010
0000
0000
0000
0000
0000
,
0100
0000
0000
0000
1001
0000
0001
0100
0001
0000
1000
0010
1000
0001
0000
0001
,
1000
0000
0100
0010
0100
1000
0000
1000
0001
0000
0100
0010
1000
0001
1000
0100
,
0010
0000
0100
0010
0100
1000
0000
1000
0010
0000
0100
0010
0100
0001
0000
0001
,
1000
0000
0010
0100
0010
1000
0000
1100
0000
0110
0000
0011
0000
0001
0010
0100
,
1000
0000
0001
0100
0001
1000
0000
1000
0100
0000
0010
0100
0010
0001
0000
0001
,
1000
0000
0010
0100
0010
1000
0000
1000
0001
0000
0100
0010
1000
0001
0010
0100
,
1000
0000
0000
1010
0000
0000
0011
0000
0000
0010
0100
0000
1000
0000
0001
0000
,
2002
0000
0000
3003
,
1200
0000
0000
1000
1300
0001
0010
0100
,
0020
0031
0002
1003
,
0102
0000
0000
0100
0103
0010
1000
0001
,
0020
0000
1030
0000
0020
0000
0031
1000
,
0020
0000
0130
0001
0001
1000
0010
0100
,
1000
0000
0100
0001
0010
0010
1000
0010
,
0001
0000
0002
1003
0000
0001
2000
3010
,
0000
0000
0010
0000
0100
0000
0010
0000
0100
0001
0000
0001
0010
0100
1000
0001
,
1000
0000
0000
1000
0010
0000
1000
0000
0001
0000
1000
0100
1000
0000
0001
0000
,
0100
0000
0000
0100
1000
0000
0100
0000
0010
0000
1000
0010
1000
0000
0001
0000
,
1000
0000
0000
1000
0100
0000
0001
0000
0100
0000
0010
0001
0010
0000
0100
0000
,
0010
0000
0000
0010
0001
0000
0100
0000
0001
0000
1000
0001
1000
0000
0010
0000
,
0110
0010
1000
1020
0000
1030
1001
0001
,
0000
0000
0010
0100
1000
0100
0001
0100
0000
0010
0001
0100
0010
0100
0001
0010
,
0100
0000
0000
1000
0000
0000
1010
0000
0000
0010
0000
0000
0102
0000
0000
0000
,
0010
0100
0000
0100
,
1003
0000
0000
0000
0000
0000
0000
0000
0000
0000
1000
0010
1000
0001
0010
0100
,
1000
0100
0101
0000
0001
0100
1100
0000
,
1000
0000
0010
1000
0010
0000
0100
0000
0001
0100
0001
1000
0001
1000
0100
0010
,
0001
0100
1100
0000
1000
0100
0101
0000
,
0001
0000
0010
0001
0010
0000
0100
0000
0100
0010
0001
1000
0001
0100
0010
1000
,
0001
0010
1010
0000
1000
0010
0011
0000
,
0001
0000
0100
0001
0100
0000
0010
0000
1000
0010
1000
0001
1000
0001
1000
0100
,
0010
0000
0100
0000
2100
0000
0000
3001
0000
0000
0102
0000
1003
0000
0010
0000
,
1010
0000
0000
0011
0000
0000
0001
1000
0001
1001
0000
0000
,
0001
0000
0100
0000
1000
0100
0000
0100
0010
0000
1000
0000
0100
0010
0000
0010
,
0001
0000
1000
0000
0010
0100
0000
0100
0010
0000
1000
0001
1000
0010
0100
0001
,
1000
0000
0100
0000
0001
0100
0000
0100
0010
0000
0001
0000
0100
0010
0000
0010
,
1000
0000
0001
0000
0010
0100
0000
0100
0010
0000
0001
1000
0001
0010
0100
1000
,
0001
0101
1000
1010
,
1000
0001
0010
0100
0001
0100
1000
0010
,
0100
0100
0010
0010
1000
1000
0001
0001
,
1000
0000
0001
0100
0001
1000
0000
1000
0010
0000
1000
0000
1000
0100
0010
0001
,
2000
3010
0102
0013
,
0100
0000
0010
0001
0000
0001
0000
0001
1000
0000
0010
0000
0100
0010
0100
0001
,
1000
0000
0000
1000
0010
0000
0001
0000
0010
0100
0001
0010
0100
0010
0100
1000
,
0001
0000
0000
0001
0010
0000
1000
0000
0010
0000
0100
0000
1000
0000
0010
0000
,
2010
0000
0000
0000
3100
0000
0000
0000
0012
0000
0000
0000
0103
0000
0000
0100
,
0010
0000
1000
0000
0001
0000
0010
0100
0010
0000
1000
0000
0010
0000
0001
0000
,
0201
0000
0000
0000
0310
0000
0000
1010
0000
0000
1000
0001
1000
0000
0100
0000
,
1100
0000
0000
0101
0000
0000
1000
0001
1000
1001
0000
0000
,
0012
0000
0000
0000
1003
0010
0000
0010
2000
0000
0000
0000
3001
0010
0000
0010
,
0001
0000
0010
0100
0000
0100
0000
0100
1000
0000
0010
0000
0100
0010
1000
0001
,
1000
0000
0000
1000
0100
0000
0001
0000
0100
0010
0001
1000
0010
0100
0001
0010
,
0001
0000
0000
0001
0100
0000
1000
0000
0100
0000
0010
0000
1000
0000
0001
0000
,
0012
1003
2010
3001
,
0201
0000
0000
0000
0310
0000
1000
0010
0000
0100
0000
0001
1000
0001
0010
0100
,
1000
1000
0010
0001
1000
1000
0100
0001
,
0010
0000
0100
0010
0001
1000
0000
1000
0010
0000
0001
0010
0000
1000
0100
0010
,
0001
0000
0000
0000
1001
0000
1000
0010
1000
0000
0001
0010
0100
0001
0000
0001
,
0100
0000
1000
0010
0100
1000
0000
1000
0100
0000
0001
1000
0010
0100
0001
1000
,
0100
0000
0001
0100
0010
0001
0000
0001
0100
0000
1000
0100
0010
1000
0000
1000
,
0001
0000
0100
0010
0100
0001
0000
0101
0000
0110
0000
1010
0000
1000
0100
0010
,
0001
0000
1000
0100
0010
1000
0000
1000
0010
0000
0001
0100
0010
0001
0000
0001
,
0010
0000
0100
0001
1000
0100
0000
0100
0010
0000
0100
0001
0100
1000
0001
1000
,
0010
0000
0000
1010
0000
0000
0101
0000
0000
0001
1000
0000
0100
0000
0010
0000
,
0110
0000
0100
0010
0000
0001
0000
0001
1000
0000
0001
0010
0100
0010
0001
1000
,
0001
0000
0000
0000
;

//---------------dance-single - ----------------
#NOTEDATA:;
#CHARTNAME:;
#STEPSTYPE:dance-single;
#DESCRIPTION:;
#CHARTSTYLE:;
#DIFFICULTY:Hard;
#METER:14;
#RADARVALUES:0.601071,0.678407,0.274104,0.322072,0.445419,614.000000,574.000000,40.000000,47.000000,0.000000,0.000000,0.000000,0.000000,0.000000,0.601071,0.678407,0.274104,0.322072,0.445419,614.000000,574.000000,40.000000,47.000000,0.000000,0.000000,0.000000,0.000000,0.000000;
#CREDIT:Daniel Van Eden;
#NOTES:
0000
0000
0000
0000
,
0000
0000
0000
0000
,
0000
0000
0000
0000
,
0000
0000
0000
0000
,
0000
0000
0000
0000
,
0000
0000
0000
0000
,
0000
0000
0000
0000
,
0000
0000
0000
0000
,
0000
0000
0000
0000
,
2000
3010
0002
0013
,
0000
0001
0010
0100
0100
0010
0100
1000
,
0002
0103
2000
3100
,
0000
1000
0010
0100
0100
1000
0100
0010
,
0002
0013
0020
0130
,
1000
0010
0010
0001
1000
0100
0001
1000
,
0100
0010
0100
0100
0010
0001
1000
1000
,
0001
0000
1000
0000
0010
1000
0000
1000
0001
0000
0010
0100
0000
0100
1000
0000
,
1100
0000
0000
0100
0010
0000
0001
0000
1000
0010
0000
0000
0010
0000
1000
0000
,
2020
0000
3030
0000
0202
0000
0303
0000
0100
0010
0000
0010
1000
0000
0001
0000
,
0011
0000
0000
0010
0100
0000
1000
0000
0001
0100
0000
0000
0100
0000
0001
0000
,
0202
0000
0303
0000
2200
0000
3300
0000
0100
0000
0010
0001
0010
0001
0000
0001
,
1000
0000
0000
1000
0010
0000
0001
0000
0010
0100
0000
0000
0100
0000
0001
0000
,
0022
0000
0033
0000
2200
0000
3300
0000
0100
0010
0000
0010
0100
0000
1000
0000
,
1001
0000
0000
0001
0010
0000
1000
0000
0010
0100
0000
0000
0100
0000
1000
0000
,
2200
0000
0000
3300
0000
0000
0022
0000
0000
0033
0000
0000
0001
0000
0010
0000
0100
0000
1000
0000
0000
0001
0000
0000
,
1000
0000
0000
0000
1001
0000
1000
0000
0001
0000
0010
0000
0001
0100
0000
0100
,
0001
0000
1000
0000
0010
0100
0000
0100
0010
0000
1000
0000
0100
0000
0010
0001
,
0010
0000
0001
0000
0010
0100
0000
0100
0010
0000
0001
0000
1000
0100
0000
0100
,
1000
0000
0010
0000
1000
0100
0000
1000
0000
0001
0000
1000
0000
0000
0100
0000
,
0110
0000
0000
0000
0001
0010
0000
0010
0001
0000
1000
0000
0010
0100
0000
0100
,
0010
0000
1000
0000
0001
0100
0000
0100
0001
0000
1000
0000
0100
0000
0010
0100
,
0010
0000
0000
0011
0000
0000
1001
0000
0000
0001
1000
0000
0010
0000
0100
0000
,
0210
0000
0000
0000
,
0301
0000
0000
1000
1000
0010
1000
0001
,
0200
0310
0200
0301
,
1000
0000
0000
0001
0001
0100
0010
1000
,
0002
0000
0023
0000
0230
0000
1300
0001
,
1000
0000
0000
0010
0100
0010
1000
0100
,
0010
0000
0100
0010
0100
0100
1000
0001
,
0011
0000
0000
0110
0000
0000
1100
0000
,
0000
0000
1000
0000
0001
0000
1000
0000
0010
0100
0000
0100
0001
0000
0010
0000
,
0100
0000
0000
0100
0010
0000
0100
0000
1000
0000
0001
0100
0000
0000
0001
0000
,
0100
0000
0000
0100
0010
0000
0100
0000
0001
0000
1000
0100
0000
0000
1000
0000
,
0010
0000
0000
0010
0100
0000
0010
0000
1000
0000
0001
0010
0000
0000
0001
0000
,
0010
0000
0000
0010
0100
0000
0010
0000
0001
0000
1000
0010
0000
0000
1000
0000
,
1001
0000
0000
0101
0000
0000
0220
0000
,
0000
0000
0000
0000
0330
0000
0100
0001
,
0011
0000
0000
1100
0000
0000
2002
0000
,
0000
0000
0000
3003
,
1001
0000
0000
0000
0000
0000
0000
0000
0000
0000
0001
0010
0100
0010
0100
1000
,
0002
0103
2000
3100
,
0010
0000
0001
0000
0001
0000
0010
0000
1000
0000
0010
0000
0001
0010
0100
1000
,
0002
0013
2000
3010
,
0001
0000
0100
0000
0100
0000
0010
0000
0001
0000
0010
0000
1000
0010
0100
0001
,
2000
3100
0002
0103
,
1000
0000
0001
0000
1000
0000
0100
0000
0001
0000
0100
0000
1000
0100
0010
0001
,
1000
0000
0000
0000
1010
0000
0000
0010
0000
0000
0100
0000
0001
0000
0010
0000
,
0011
0000
0000
1100
0000
0000
1000
0100
0010
0001
0000
0000
,
1001
0000
0000
0001
0010
0000
0001
0000
1000
0000
0000
1000
0010
0000
0001
0000
,
0010
0000
1000
0000
1000
0000
0001
0000
0010
0000
0100
0000
1000
0100
0010
0001
,
1000
0000
0000
1000
0010
0000
0001
0000
0010
0000
0000
0010
0100
0000
0001
0000
,
0010
0000
1000
0000
0010
0000
0100
0000
0100
0000
1000
0000
0001
0100
0010
1000
,
0002
0013
0020
0130
,
0100
1000
1000
0010
0001
0010
1000
0100
,
0010
0001
1000
1000
0010
0100
0001
0001
,
1001
0000
1000
0000
0100
1000
0000
1000
0001
0000
0100
0000
0010
0100
0010
1000
,
0200
0001
1000
0001
,
0310
0000
0001
0010
0000
0010
0000
0001
1000
0000
0100
0000
0001
0000
0100
0000
,
1000
0000
0000
0010
0000
0000
0100
0000
0000
0100
0010
0000
1000
0000
0001
0000
,
1000
0000
0000
0100
0000
0000
0010
0000
0000
0000
1000
0000
0010
0000
0001
0000
,
0201
1000
0001
1000
,
0310
0000
0000
0000
1000
0000
0001
0010
0001
0000
0100
0000
0010
0000
1000
0000
,
0002
0000
0000
0000
0013
0000
0000
2010
0000
0000
3001
0100
0001
0000
0000
0010
,
0100
0000
0000
1000
0000
0000
0100
0000
0000
0001
0000
0000
0100
0000
1000
0000
0001
0000
1000
0000
0000
0000
0000
0000
,
1020
0001
1000
0001
,
0130
0000
0001
0100
0000
0100
0000
0001
1000
0000
0010
0000
0001
0000
0010
0000
,
1000
0000
0000
0100
0000
0000
0010
0000
0000
0010
0100
0000
1000
0000
0001
0000
,
1000
0000
0000
0010
0000
0000
0100
0000
0000
0000
0001
0000
0100
0000
0010
0000
,
0120
0001
0100
1030
,
1200
0000
0000
0000
0310
0000
0010
0001
0000
1000
0000
0010
1000
0000
0001
0000
,
0100
1000
0100
0100
0010
1000
0001
0001
,
0010
0000
0001
0000
1000
0001
0000
0001
0100
0000
0010
1000
0000
1000
0001
0000
,
0010
0000
0000
0000
0110
0000
0100
0000
1000
0000
0001
0000
0100
0001
0000
0001
,
0010
0000
0100
0000
0010
0001
0000
0001
0100
0000
0010
0000
1000
0000
0001
1000
,
0010
0000
1000
0000
0100
1000
0000
1000
0001
0000
1000
0000
0010
1000
0000
1000
,
0100
0000
0010
0000
0100
1000
0000
1000
0000
0100
0000
0010
0000
0000
0001
0000
,
1001
0000
1000
0000
0001
1000
0000
1000
0010
0000
1000
0000
0100
1000
0000
1000
,
0010
0000
0100
0000
0010
1000
0000
1000
0001
0000
0010
0000
0100
0000
0010
0100
,
1000
0000
0000
1010
0000
0000
0110
0000
0000
0010
0100
0000
0001
0000
0010
0000
,
0100
0000
0010
0100
0000
0010
0000
0010
0001
0000
1000
0010
0100
0001
1000
0001
,
1000
0000
0000
0000
;

//---------------dance-single - ----------------
#NOTEDATA:;
#CHARTNAME:;
#STEPSTYPE:dance-single;
#DESCRIPTION:;
#CHARTSTYLE:;
#DIFFICULTY:Beginner;
#METER:4;
#RADARVALUES:0.182083,0.277530,0.116494,0.000000,0.000000,186.000000,169.000000,17.000000,0.000000,0.000000,0.000000,0.000000,0.000000,0.000000,0.182083,0.277530,0.116494,0.000000,0.000000,186.000000,169.000000,17.000000,0.000000,0.000000,0.000000,0.000000,0.000000,0.000000;
#CREDIT:Daniel Van Eden;
#NOTES:
0000
0000
0000
0000
,
0000
0000
0000
0000
,
0000
0000
0000
0000
,
0000
0000
0000
0000
,
0000
0000
0000
0000
,
0000
0000
0000
0000
,
0000
0000
0000
0000
,
0000
0000
0000
0000
,
0000
0000
0000
0000
,
1000
0000
1000
0000
,
0000
0000
0100
0000
,
0001
0000
0001
0000
,
0000
0000
0100
0000
,
1000
0000
0010
0000
,
0100
0000
0001
0000
,
0010
0010
0100
0100
,
0010
0000
1001
0000
,
1000
0000
0010
0000
,
0100
0000
0010
0010
,
0010
0000
1000
0000
,
0001
0000
0010
0010
,
0010
0000
0100
0000
,
1000
0000
0001
1000
,
0001
0000
0100
0000
,
0010
0000
1000
0001
,
0000
1001
0000
0001
,
0000
0010
0000
0100
,
0100
1000
0000
0010
,
0000
1000
0000
0000
,
1001
1000
0000
0010
,
0000
0100
0000
0010
,
0010
0000
1000
0000
,
0001
0000
0000
0000
,
1001
0000
0000
0000
,
0010
0000
0000
0000
,
1000
0000
0000
0000
,
0100
0000
0100
0000
,
0100
0000
0000
0000
,
0010
0000
0000
0000
,
0001
0000
0010
0000
,
0100
0000
1000
1000
,
1001
0000
0001
0000
,
0010
0010
0010
0000
,
0001
0000
1000
0000
,
0100
0100
0100
0000
,
1000
0000
0000
0001
0000
0000
1000
0000
,
0000
0000
0000
0000
,
0010
0000
0000
0100
0000
0000
0010
0000
,
0000
0000
0000
0000
,
1000
0000
0000
0000
,
1001
0000
0001
0000
,
0000
0000
0010
0000
,
0100
0000
0100
0000
,
0000
0000
1000
0000
,
0010
0000
0010
0000
,
0000
0000
1000
0000
,
0001
0000
0001
0000
,
1000
0001
1001
1001
,
0001
0000
0010
0000
,
0100
0000
0010
0010
,
0010
0000
0001
0000
,
0100
0000
0010
0010
,
0010
0000
0100
0000
,
0010
0000
1000
0000
,
0001
0000
0010
0000
,
0100
0000
0110
0000
,
1001
0000
1000
0000
,
0001
0000
0010
0010
,
0010
0000
0100
0100
,
0100
0000
1000
0000
,
0001
0000
0100
0000
,
0010
0000
1000
0000
,
0001
0000
0010
0000
,
0100
0010
0110
0110
,
0010
0000
1000
0000
,
0001
0000
0100
0100
,
0100
0000
0001
0001
,
0001
0000
0010
0010
,
0010
0000
0000
0000
,
0100
0000
0100
0000
,
1000
0000
0001
0000
,
0100
0000
1001
0000
,
0000
1001
0000
1000
,
0000
0010
0000
0010
,
0010
0100
0000
0001
,
0000
1000
0000
0000
,
1001
0001
0000
1000
,
0000
0100
0000
0010
,
0010
0000
0001
0000
,
1001
0000
0000
0000
,
1001
0000
0000
0000
;

//---------------dance-single - ----------------
#NOTEDATA:;
#CHARTNAME:;
#STEPSTYPE:dance-single;
#DESCRIPTION:;
#CHARTSTYLE:;
#DIFFICULTY:Easy;
#METER:7;
#RADARVALUES:0.264315,0.339204,0.123347,0.130199,0.000000,270.000000,252.000000,18.000000,19.000000,0.000000,0.000000,0.000000,0.000000,0.000000,0.264315,0.339204,0.123347,0.130199,0.000000,270.000000,252.000000,18.000000,19.000000,0.000000,0.000000,0.000000,0.000000,0.000000;
#CREDIT:Daniel Van Eden;
#NOTES:
0000
0000
0000
0000
,
0000
0000
0000
0000
,
0000
0000
0000
0000
,
0000
0000
0000
0000
,
0000
0000
0000
0000
,
0000
0000
0000
0000
,
0000
0000
0000
0000
,
0000
0000
0000
0000
,
0000
0000
0000
0000
,
1000
0100
1000
0100
,
0000
0000
0010
0000
,
0001
0100
0001
0100
,
0000
0000
0010
0000
,
1000
0000
0001
0000
,
1000
0000
0010
0000
,
1000
1000
0100
0010
,
0001
0000
1001
0000
,
0001
0100
0001
0100
,
0010
0000
0010
1000
,
0001
0000
1000
0000
,
0100
0000
1000
0010
,
1000
0100
1000
0100
,
0010
0000
0001
0000
,
1000
0000
0010
0000
,
0100
0000
0001
1001
,
1000
0010
1000
0001
,
2000
0100
3002
0100
,
1003
0100
0010
0001
,
0002
0103
0010
0000
,
1001
0010
0001
0100
,
0020
0100
2030
0100
,
3001
0000
0000
1000
0000
0000
0001
0000
,
1001
0000
0000
0000
,
0010
0000
0001
0100
,
0001
0000
1000
0010
,
1000
0000
0001
0000
,
1000
0001
0010
0100
,
1000
0000
0010
1000
,
0010
0000
0100
0000
,
0001
0000
0000
0010
0000
0000
0100
0000
,
0000
1000
0000
0000
0001
0000
0100
0000
,
0010
0010
0010
0000
,
1000
1000
0001
1000
,
0100
0100
0100
0000
,
0010
0010
0001
1000
,
1001
0000
0000
0001
0000
0000
0110
0000
,
0000
0100
0000
0100
,
1000
0000
0000
0010
0000
0000
0220
0000
,
0000
0000
0000
0000
,
0330
0000
0000
0000
,
0001
0010
0001
0010
,
0000
0100
0100
1000
,
0010
1000
0010
1000
,
0000
1000
1000
0001
,
0100
0010
0100
0010
,
0000
0010
1000
0001
,
0010
0100
0010
0100
,
1000
0001
0110
1001
,
1000
0100
1000
0100
,
0000
0010
0010
0001
,
0100
0001
0100
0001
,
0000
1000
0100
0010
,
0002
1003
2000
3001
,
0001
0010
0100
1000
,
0020
0130
0200
0310
,
0110
0000
1001
0000
,
0002
0013
0020
0130
,
1000
0000
0010
1000
,
0010
0000
0000
0010
0000
0000
1000
0000
,
0100
0000
0000
0100
0000
0000
0100
0000
,
2000
3010
0020
0130
,
0001
0000
0010
0001
,
0010
0000
0100
0000
,
1000
0001
0110
1001
,
0002
0100
2003
0100
,
3001
0000
1000
0001
,
0100
0000
0000
0100
0000
0000
0001
0000
,
0010
0000
0000
0010
0000
0000
0100
0000
,
2000
0010
3002
0010
,
1003
0000
0010
1000
,
0001
0001
1000
1000
,
0100
0000
0110
0000
,
0001
1001
1000
0010
,
1000
0100
0010
0010
,
0001
1000
0001
0100
,
0001
0010
0100
0000
,
1001
1000
0100
1000
,
0001
0100
0010
0010
,
1000
0000
0000
0001
0000
0000
1000
0000
,
1001
0000
0000
0000
,
1001
0000
0000
0000
;

//---------------dance-single - ----------------
#NOTEDATA:;
#CHARTNAME:;
#STEPSTYPE:dance-single;
#DESCRIPTION:;
#CHARTSTYLE:;
#DIFFICULTY:Medium;
#METER:11;
#RADARVALUES:0.433672,0.493387,0.171315,0.219283,0.130199,443.000000,418.000000,25.000000,32.000000,0.000000,0.000000,0.000000,0.000000,0.000000,0.433672,0.493387,0.171315,0.219283,0.130199,443.000000,418.000000,25.000000,32.000000,0.000000,0.000000,0.000000,0.000000,0.000000;
#CREDIT:Daniel Van Eden;
#NOTES:
// measure 0
0000
0000
0000
0000
,  // measure 1
0000
0000
0000
0000
,  // measure 2
0000
0000
0000
0000
,  // measure 3
0000
0000
0000
0000
,  // measure 4
0000
0000
0000
0000
,  // measure 5
0000
0000
0000
0000
,  // measure 6
0000
0000
0000
0000
,  // measure 7
0000
0000
0000
0000
,  // measure 8
0000
0000
0000
0000
,  // measure 9
1000
0100
0001
0100
,  // measure 10
0000
1000
0010
0000
1000
0001
0100
0000
,  // measure 11
0001
0010
1000
0010
,  // measure 12
0000
0001
0010
0000
0100
0010
0100
1000
,  // measure 13
0002
0100
1000
1003
,  // measure 14
2000
0010
0100
3100
,  // measure 15
0010
0001
0010
0001
1000
0001
1000
0010
,  // measure 16
0100
0000
0000
0010
0000
0000
1000
0000
0001
0000
0000
0100
0000
0000
0001
0000
,  // measure 17
1000
0000
0000
1000
0000
0000
0100
0000
0000
0100
0000
0000
0010
0000
0001
0000
,  // measure 18
2000
3000
0002
0003
1000
0010
1000
1000
,  // measure 19
0001
0000
0000
0001
0000
0000
0010
0000
0000
0010
0000
0000
0100
0000
1000
0000
,  // measure 20
0002
0003
2000
3000
0001
0100
0001
0001
,  // measure 21
0010
0000
0000
0010
0000
0000
0100
0000
0000
0100
0000
0000
1000
0000
0010
0000
,  // measure 22
2000
3000
0002
0003
1000
0010
1000
1000
,  // measure 23
0001
0000
0000
0010
0000
0000
0100
0000
0000
1000
0000
0000
0010
0000
1000
0000
,  // measure 24
0002
0000
0000
0003
0000
0000
2000
0000
0000
3000
0000
0000
0010
0000
0100
0000
0010
0000
0100
0000
0000
0100
0000
0000
,  // measure 25
0000
0000
0001
1000
0010
0000
1000
0010
,  // measure 26
0100
0000
0010
0100
0100
0010
1000
0001
,  // measure 27
1000
0000
1000
0001
0010
0000
0001
0010
,  // measure 28
0100
0000
0000
0000
0010
0000
0000
0100
0000
0100
0000
0100
0000
0000
1000
0000
,  // measure 29
1001
0000
0001
1000
0100
0000
0010
0100
,  // measure 30
1000
0000
0010
1000
0010
0100
0100
0001
,  // measure 31
1000
0000
0000
1000
0000
0000
0001
0000
0000
0001
0000
0000
0010
0000
0100
0000
,  // measure 32
0020
0000
0000
0000
,  // measure 33
0130
0000
0000
0000
1000
0100
1000
0000
,  // measure 34
0002
0203
2300
3200
,  // measure 35
0301
0000
0000
0000
0010
0001
0010
0000
,  // measure 36
0200
0000
2300
0000
3200
0000
0310
0001
,  // measure 37
1000
0000
0000
0000
0010
1000
0010
0000
,  // measure 38
0200
0000
0302
0000
1003
1000
0001
1000
,  // measure 39
0100
0000
0000
0010
0000
0000
0001
0000
,  // measure 40
0000
0001
1000
0001
0100
0000
0100
0010
,  // measure 41
1000
0000
0000
0000
1010
0000
0000
0000
0010
0000
0000
0010
0000
0000
1000
0000
,  // measure 42
0001
0000
0000
0000
0011
0000
0000
0000
0010
0000
0000
0100
0000
0000
0100
0000
,  // measure 43
1000
0000
0000
0000
1100
0000
0000
0000
0100
0000
0000
0100
0000
0000
0010
0000
,  // measure 44
0001
0000
0000
0000
0101
0000
0000
0000
0100
0000
0000
0010
0000
0000
0010
0000
,  // measure 45
1000
0000
0000
0110
0000
0000
2002
0000
,  // measure 46
0000
0000
0000
3003
,  // measure 47
0011
0000
0000
1100
0000
0000
0120
0000
,  // measure 48
0000
0100
0000
0100
,  // measure 49
0031
0000
0000
0000
1000
0010
0010
1000
,  // measure 50
0001
1001
1000
1001
,  // measure 51
0001
0000
0010
0000
0100
0010
0100
0000
,  // measure 52
1000
1001
0001
1001
,  // measure 53
1000
0000
0010
0000
0100
0010
0100
0000
,  // measure 54
0001
0101
0100
0110
,  // measure 55
0010
0000
1000
0000
0001
0010
0100
0000
,  // measure 56
1000
1100
0100
0110
,  // measure 57
0010
0000
0000
0001
0000
0000
1000
0001
1000
0001
0000
0000
,  // measure 58
1000
1010
0010
0110
,  // measure 59
0100
0000
0001
0000
1000
0100
0010
0000
,  // measure 60
0001
0011
0010
0110
,  // measure 61
0100
0000
1000
0000
0001
0100
0010
0000
,  // measure 62
2000
3100
0200
0310
,  // measure 63
0020
0000
0031
0000
0001
0010
0100
1000
,  // measure 64
0010
1000
0010
1000
0001
1000
0001
0100
,  // measure 65
0001
0000
0000
1000
0000
0000
0001
0000
0010
0000
0000
0000
0100
0000
0010
0000
,  // measure 66
0002
0010
0000
0013
,  // measure 67
0100
0000
1000
0000
1000
0100
0010
0001
,  // measure 68
1000
0000
0000
1000
0000
0000
1000
0000
0000
0000
1000
0000
0010
0000
0000
0000
,  // measure 69
0100
0000
0000
0100
0000
0000
0100
0000
0000
0000
0010
0000
1000
0000
0001
0000
,  // measure 70
2000
0010
0000
3010
,  // measure 71
0100
0000
0001
0000
0001
0010
0001
0000
,  // measure 72
2000
0000
3010
0000
0100
0010
0100
0000
,  // measure 73
0110
0000
0000
1001
0000
0000
1000
0001
1000
0001
0000
0000
,  // measure 74
1000
0010
1000
0000
0001
0010
0001
0000
,  // measure 75
1000
0000
0100
0000
0010
0100
0010
0000
,  // measure 76
0001
0000
0000
0001
0000
0000
0001
0000
0000
0000
0100
0000
0010
0000
0000
0000
,  // measure 77
0100
0000
0000
0100
0000
0000
0100
0000
0000
0000
0100
0000
0001
0000
1000
0000
,  // measure 78
0200
0310
0020
0031
,  // measure 79
0002
0000
1003
0000
1000
0100
0010
0001
,  // measure 80
0100
0001
0100
0001
1000
0001
1000
0010
,  // measure 81
1000
0000
0000
0100
0000
0000
0010
0000
0001
0000
0000
0010
0000
0000
0100
0000
,  // measure 82
1000
0000
1001
0000
0001
0000
0010
0100
,  // measure 83
0010
0000
0001
0100
0001
1000
0010
0010
,  // measure 84
1000
0000
0100
0010
0001
0000
0100
0010
,  // measure 85
1000
0000
0000
0000
0100
0000
0000
0010
0000
0010
0000
0010
0000
0000
0100
0000
,  // measure 86
1000
0000
0010
1000
0001
0000
0100
0001
,  // measure 87
1000
0000
0100
0010
0001
1000
0001
0001
,  // measure 88
0100
0000
0000
0100
0000
0000
0010
0000
0000
0010
0000
0000
1000
0000
0001
0000
,  // measure 89
1000
0000
0000
1000
0000
0000
0100
0000
0010
0000
0001
0000
1000
0000
0001
0000
,  // measure 90
0100
0000
0000
0000
;
