#TITLE:VOODOO GOOROO;
#SUBTITLE:;
#ARTIST:Sampling Masters MEGA;
#TITLETRANSLIT:;
#SUBTITLETRANSLIT:;
#ARTISTTRANSLIT:;
#GENRE:;
#CREDIT:;
#BANNER:VOODOO GOOROO.png;
#BACKGROUND:VOODOO GOOROO-bg.png;
#LYRICSPATH:;
#CDTITLE:;
#MUSIC:VOODOO GOOROO.ogg;
#OFFSET:-0.020000;
#SAMPLESTART:55.231300;
#SAMPLELENGTH:18.920004;
#SELECTABLE:YES;
#BPMS:0.000000=200.000000
,284.000000=133.332993
,308.000000=200.000000
;
#STOPS:
;
#BGCHANGES:0.000=VOODOO GOOROO.avi=1.000=0=0=0=StretchNoLoop====,
99999=-nosongbg-=1.000=0=0=0 // don't automatically add -songbackground-
;
#KEYSOUNDS:;
#ATTACKS:;

//---------------dance-single - ----------------
#NOTES:
     dance-single:
     :
     Hard:
     14:
     0.729067,0.762336,0.551956,0.832180,0.140112,601.000000,536.000000,65.000000,98.000000,0.000000,0.000000,0.729067,0.762336,0.551956,0.832180,0.140112,601.000000,536.000000,65.000000,98.000000,0.000000,0.000000:
0000
0000
0000
0000
,
0000
0000
0000
0000
,
0000
0000
0000
0000
,
0000
0000
0000
0000
,
0202
0000
0303
1000
0020
0000
0032
0000
,
0013
0000
1000
0000
0001
0000
0020
0000
0000
0130
0000
0000
,
2200
0000
3330
0001
0200
0000
2300
0000
,
3100
0000
0001
0000
0010
0000
0100
0000
0100
0000
1000
0000
,
2002
0000
3003
0202
,
0303
0000
2020
0000
3030
0001
1000
1000
,
0001
0010
0011
0000
1000
0100
1100
0000
,
0001
0100
2000
0000
3100
0010
1000
1000
,
0001
0010
0100
1000
0010
0100
0001
1000
,
0100
0010
0100
0000
1000
1000
0001
1000
,
0010
0100
0110
0000
0001
1000
1001
0000
,
1000
0100
0002
0000
0103
0010
0001
0001
,
1000
0010
0100
0001
0010
0100
1000
0001
,
2000
0000
3010
0010
0030
0000
1001
0000
,
1000
0100
1100
0000
0010
0001
0011
0000
,
1000
0010
0001
0010
0100
0010
0100
0100
,
0302
0000
0013
0100
2003
0000
3010
0100
,
3001
0001
0010
0100
1000
0001
1000
1000
,
0001
0010
0110
0000
1000
0010
0110
0000
,
0001
0100
1000
0100
0010
0100
0010
0010
,
2030
0000
3100
0010
3002
0000
0103
0010
,
1013
1000
0000
1001
0001
0000
0101
0000
,
2000
3100
0100
0100
,
3200
0010
0310
0000
3022
0000
0033
0000
,
0002
0000
0100
0003
0100
0000
0010
0000
1000
0000
0001
0000
,
2000
0000
0000
3000
0100
0000
0020
0000
0000
0030
0000
0000
,
0001
0100
0010
0000
1020
0000
0031
0010
,
1000
0001
2000
0000
3100
0010
0001
0000
,
1000
0001
0100
1000
0100
0001
0010
0200
,
0000
1300
0010
0100
0002
0000
1003
0000
,
1000
0010
0100
0000
0201
0000
1300
0100
,
0001
1000
0002
0000
0013
0100
1000
0000
,
0001
1000
0020
0000
0031
0032
0000
1003
,
2000
0000
3100
0001
1000
0000
0000
0000
,
1001
0000
1100
0000
0102
0000
1003
0010
,
1000
0001
0010
0100
0010
0100
1000
0001
,
0100
0000
0101
0000
2010
0000
3001
0010
,
1000
0010
0100
0010
0001
1000
0010
0000
,
1001
0000
0011
0000
2010
0000
3001
0100
,
0001
1000
0100
0010
0100
0010
0001
0000
,
1000
0001
0200
0000
1300
2300
0000
3001
,
0002
0000
0013
1000
0001
0010
1000
0010
,
0001
0000
0011
0010
0100
0010
0001
1000
,
0010
0000
1010
1000
0010
0100
0001
1000
,
0002
0000
0203
0000
1300
0100
1000
0100
,
0002
0000
1003
0100
0001
0100
1000
0010
,
1000
0000
1100
0100
0010
0100
1000
0001
,
0100
0000
0101
0001
0100
0010
1000
0001
,
2000
0000
3020
0000
0031
0010
0001
0010
,
1000
0200
0000
0320
0000
0032
0000
1003
,
1020
0130
0210
0301
,
2001
3100
1002
0103
,
0001
0100
1000
0100
0001
0010
0100
1000
,
0020
0000
0130
0100
1000
0100
0001
1000
,
2100
3010
0102
0013
,
2001
3010
1002
0103
,
1000
0010
0001
0010
1000
0100
0010
0001
,
0201
0000
0310
0010
0001
0010
1000
0001
,
0021
0000
0130
0100
0001
0100
1000
0010
,
1020
0000
0130
0100
1000
0100
0001
0010
,
0011
0110
2100
3301
,
1000
0010
1000
0010
1000
0000
0001
0001
,
0010
0100
1000
0000
1000
0001
0100
0000
,
0101
0000
0110
0000
2010
0000
3001
0001
,
0100
1000
0001
1000
0100
0001
0010
0100
,
2002
0000
0000
0000
,
0000
0000
0000
3003
,
0101
0000
0100
1000
0000
1000
0001
0000
0001
1000
0000
1000
,
0200
0000
0301
0310
0000
0010
0200
0000
1300
0010
1000
0001
,
0010
0000
0010
1000
0000
1000
0001
0000
0001
1000
0000
1000
,
0020
0000
0031
0100
0000
0100
0020
0000
1030
0001
1000
0100
,
1200
0310
0012
0103
,
0101
0000
0001
1000
0000
0001
0010
0100
1000
0001
0000
0000
,
1001
0000
0110
0000
1001
0000
1000
0100
,
0010
0001
0000
0000
0102
0000
0013
1000
,
0010
0200
0000
1300
0010
0001
0020
0000
,
0230
0000
0301
1000
0020
0000
0032
0000
,
0013
1000
0002
0000
0023
0000
2030
0000
,
3010
0001
1000
0000
2010
0000
3100
0001
,
0100
0020
0000
0031
0100
1000
0200
0000
,
0320
0000
1030
0001
0200
0000
2300
0000
,
3100
0001
2000
0000
3200
0000
0302
0000
,
0203
0000
0310
0000
1001
0000
1100
0100
,
0010
0001
1000
0010
0100
0001
0020
0000
,
0230
0000
1300
0001
0200
0000
1000
0000
,
0301
1000
0200
0000
0320
0000
1000
0000
,
0031
1000
0010
0000
1001
0000
0011
0010
,
0100
1000
0001
0100
0010
1000
0100
0000
,
0110
0000
0011
0000
1000
0010
0100
0001
,
0010
0100
1000
0001
0100
0100
1000
1000
,
0001
0010
1000
0100
0001
0000
0000
0000
;

//---------------dance-single - ----------------
#NOTES:
     dance-single:
     :
     Medium:
     11:
     0.590775,0.682090,0.704805,0.653856,0.063687,487.000000,404.000000,83.000000,77.000000,0.000000,0.000000,0.590775,0.682090,0.704805,0.653856,0.063687,487.000000,404.000000,83.000000,77.000000,0.000000,0.000000:
0000
0000
0000
0000
,
0000
0000
0000
0000
,
0000
0000
0000
0000
,
0000
0000
0000
0000
,
2010
0000
0000
0010
0000
0000
0001
0000
,
0000
0001
0000
0000
0200
0000
3300
0000
,
0012
0000
0000
0010
0000
0000
1000
0000
,
0000
0000
0000
1000
0000
0000
0000
0000
0000
0000
0000
0000
0103
0000
0000
0000
0010
0000
0000
0000
1000
0000
0000
0000
,
0200
0000
0000
0010
,
0000
0010
0000
0310
,
0001
0011
1000
1100
,
0001
0100
0001
0000
2000
0000
3010
0000
,
1000
0100
1000
0000
0001
0100
0001
0000
,
1000
0000
0100
0000
0010
0000
0001
0100
,
0010
1010
0100
0101
,
1000
0100
1000
0000
0002
0000
0013
0000
,
0001
0100
0001
0000
1000
0010
1000
0000
,
0001
0000
1000
1000
0000
0000
0110
0000
,
0010
1001
0010
1001
,
1000
0100
0020
0000
0032
0000
1003
0000
,
0001
0100
0001
0000
1000
0010
1000
0000
,
0001
0000
0010
0000
0100
0000
1000
0010
,
0100
1001
0100
1001
,
0001
0010
0200
0000
2300
0000
3001
0000
,
1000
0010
1000
0000
0001
0100
0001
0000
,
0101
0000
0000
0110
0000
0000
1010
0000
,
0001
0001
1000
1000
,
0001
0010
0100
0000
2200
0000
3300
0000
,
0001
0000
0100
0000
0001
0000
1000
0000
0100
0000
1000
0000
,
0010
0000
0000
0000
1000
0000
0001
0000
0000
0000
0000
0000
,
2001
0000
3200
0000
0320
0000
0031
0103
,
0000
0100
2000
0000
3200
0000
0301
0000
,
1000
0100
0010
0000
0001
0100
0010
0000
,
1000
0001
0200
0000
0320
0000
1030
0000
,
0002
0000
0023
0000
0230
0000
1300
3010
,
0000
0010
0002
0000
0023
0000
1030
0000
,
1001
0000
0000
1000
0100
1000
0000
0001
,
0100
0001
0000
1000
0010
0000
0000
0000
,
1002
0000
0233
0000
0320
0000
1033
0100
,
1000
0100
0020
0000
0031
0000
1000
0000
,
0001
0100
0010
0000
1000
0100
0010
0000
,
0001
1000
0020
0000
0230
0000
0301
0000
,
2001
0000
3320
0000
0230
0000
3301
0010
,
0001
0010
0200
0000
1300
0000
0001
0000
,
1001
0000
0000
0001
0100
0001
0000
1000
,
0100
1000
0000
0001
0010
0100
0010
0100
,
1000
1100
0001
0101
,
1000
1010
0001
0011
,
1000
0001
0100
0000
0001
1000
0100
0000
,
2000
0000
3001
0010
0001
0010
0100
1000
,
0001
0011
1000
1010
,
0001
0101
1000
1100
,
0001
1000
0010
0000
1000
0001
0010
0000
,
0002
0000
1003
0100
1000
0100
1000
0100
,
0020
0030
2002
3003
,
0200
0300
2002
3003
,
0101
0000
0101
0000
1000
0100
1000
0100
,
0010
0000
0001
0100
0001
0100
0010
0000
,
2020
3030
0002
0003
,
0022
0033
2000
3000
,
1100
0000
1100
0000
0001
1000
0001
1000
,
0010
0000
1000
0100
1000
0100
0010
0000
,
0011
0000
0001
0100
0001
0100
0010
0000
,
1010
0000
1000
0100
1000
0100
0010
0000
,
0011
0110
2200
3300
,
1010
0110
0202
0303
,
1001
1001
0110
0110
,
1001
0110
2002
3003
,
1000
0001
1000
0001
1000
0001
1000
0001
,
0200
0000
0000
0000
,
0000
0000
0000
0300
,
1001
0000
0000
1000
0000
1000
0001
0000
0001
0100
0000
0100
,
0020
0000
0000
1030
0000
1000
0200
0000
0000
0310
0000
0000
,
0011
0000
0000
0001
0000
0001
1000
0000
1000
0010
0000
0010
,
0200
0000
0000
0301
0000
0001
0020
0000
0000
0130
0000
0000
,
2200
3300
0022
0033
,
0101
0110
2020
3030
,
1001
0000
1001
0000
1001
0000
0001
0010
,
0100
1000
0000
0000
0001
0000
1000
0100
,
1000
0100
0000
0000
1000
0010
0200
0000
,
0331
0000
1100
0101
,
1100
0000
0101
1100
,
0202
0000
0303
0000
1000
0000
0001
0010
,
0001
0010
0000
0000
0001
0100
0020
0000
,
1330
0000
0011
1010
,
0011
0000
1010
0011
,
2002
0000
3033
0000
1000
0000
0001
0100
,
0001
0100
0010
0000
1000
0100
0020
0000
,
0031
0000
1001
0110
,
2002
3003
1001
0110
,
2002
0000
3003
0000
0001
0000
1000
0010
,
1000
0010
0100
0000
0001
0010
0200
0000
,
1300
0000
1001
1001
,
1001
0000
1001
0000
0001
0100
0001
0100
,
0010
1000
0010
1000
0100
0000
0000
0000
;

//---------------dance-single - ----------------
#NOTES:
     dance-single:
     :
     Easy:
     8:
     0.372419,0.521598,0.348157,0.399107,0.000000,307.000000,266.000000,41.000000,47.000000,0.000000,0.000000,0.372419,0.521598,0.348157,0.399107,0.000000,307.000000,266.000000,41.000000,47.000000,0.000000,0.000000:
0000
0000
0000
0000
,
0000
0000
0000
0000
,
0000
0000
0000
0000
,
0000
0000
0000
0000
,
1000
0000
0000
0100
0000
0000
0010
0000
,
0000
0001
0000
0000
0200
0000
0300
0000
,
0001
0000
0000
0010
0000
0000
0100
0000
,
0000
1000
0000
0000
0020
0000
0000
0000
,
0200
0000
0000
0000
,
0000
0000
0000
0330
,
1000
0101
1000
0101
,
1000
0001
0010
0000
,
0001
0010
0100
0000
,
1000
0010
0100
0000
,
0001
1010
0001
1010
,
0001
0010
0100
0000
,
1000
0010
0100
0000
,
0010
0000
0000
0010
0000
0000
0000
0000
,
0100
1001
0100
1001
,
0001
0010
0100
0000
,
1000
0010
0100
0000
,
0001
0010
0100
0000
,
0100
1001
0100
1001
,
1000
0001
0010
0000
,
0001
0100
0010
1000
,
0001
0000
0000
1000
0000
0000
0100
0000
,
0200
0300
0000
0000
,
0020
0030
0002
0003
,
2000
3000
0000
0000
,
0020
0030
0200
0300
,
0001
0000
0100
0000
0010
0000
0000
0010
,
0000
1000
0100
0000
,
1000
0000
0100
0000
0010
0000
0000
0010
,
0000
0001
1000
0000
,
0001
0000
1000
0000
0100
0000
0000
0100
,
0000
1000
0001
0000
,
2000
0000
3020
0000
,
0230
0000
0301
0000
,
1000
0000
0010
0000
0100
0000
0000
0100
,
0000
0001
1000
0000
,
0001
0000
0010
0000
0100
0000
0000
0100
,
0000
1000
0001
0000
,
1000
0000
0001
0000
0010
0000
0000
0010
,
0000
0100
1000
0000
,
0002
0003
2000
3000
,
0020
0030
1000
0001
,
0100
0101
0001
0101
,
0100
0101
0001
0101
,
0100
0010
1000
0001
,
0010
0010
0100
0000
,
1000
1100
0100
1100
,
1000
1100
0100
1100
,
1000
0010
0100
0001
,
2002
0000
0000
3003
,
2000
3000
0020
0030
,
0200
0300
0002
0003
,
1000
0100
0010
0001
,
0100
0100
0010
1000
,
0002
0003
2000
3000
,
0020
0030
0200
0300
,
0001
0001
1000
0100
,
2200
3300
0000
0000
,
0202
0303
0000
0000
,
2020
3030
0000
0000
,
1001
0100
1001
0000
,
1001
0010
1001
0000
,
1100
0100
0110
0010
,
0011
0001
1001
0000
,
0001
0100
0010
1000
,
2002
0000
0000
0000
,
0000
0000
0000
3003
,
1000
0100
0010
0001
,
0200
0310
0200
0310
,
1000
0001
0010
0100
,
0020
0130
0020
0130
,
2200
3300
0202
0303
,
1010
0110
0202
0303
,
2000
3002
2003
3002
,
0103
0000
0001
0100
,
0010
1000
0100
0010
,
0001
0000
1000
1000
,
1100
0000
0001
0001
,
0101
0000
1000
0010
,
0100
0001
0010
0100
,
1000
0000
0001
0001
,
0011
0000
1000
1000
,
1010
0000
0001
0010
,
0100
1000
0010
0100
,
0001
1000
0010
0010
,
1001
0000
0010
0010
,
1001
0000
0001
0010
,
0100
1000
0010
0100
,
0001
1000
0100
0100
,
0100
0100
1000
0010
,
0100
1001
0310
0000
;

//---------------dance-single - ----------------
#NOTES:
     dance-single:
     :
     Beginner:
     4:
     0.190455,0.320984,0.033967,0.000000,0.000000,157.000000,153.000000,4.000000,0.000000,0.000000,0.000000,0.190455,0.320984,0.033967,0.000000,0.000000,157.000000,153.000000,4.000000,0.000000,0.000000,0.000000:
0000
0000
0000
0000
,
0000
0000
0000
0000
,
0000
0000
0000
0000
,
0000
0000
0000
0000
,
0001
0000
0000
0000
,
1000
0000
0000
0000
,
0010
0000
0010
0000
,
0100
0000
0100
0000
,
0001
0000
0000
0000
,
0000
0000
0000
0000
,
0000
1000
0000
1000
,
0000
1000
1000
0000
,
0100
0000
0100
0000
,
0010
0000
0000
0000
,
0000
0001
0000
0001
,
0000
0001
0001
0000
,
0100
0000
0100
0000
,
0010
0000
0000
0000
,
0000
1000
0000
1000
,
0000
1000
1000
0000
,
0010
0000
0010
0000
,
0100
0000
0000
0000
,
0000
0001
0000
0001
,
0000
0001
0001
0000
,
0010
0000
0010
0000
,
0100
0000
0000
0000
,
1000
0000
0000
0000
,
0001
0000
0001
0000
,
0001
0000
0000
0000
,
0100
0000
0100
0000
,
0100
0000
0000
0000
,
0010
0000
0000
0000
,
1000
0000
1000
0000
,
1000
0000
0000
0000
,
0100
0000
0000
0000
,
0010
0000
0000
0000
,
0001
0000
0000
0000
,
1000
0000
0000
0000
,
0001
0000
0001
0000
,
0001
0000
0000
0000
,
0100
0000
0100
0000
,
0100
0000
0000
0000
,
0010
0000
0010
0000
,
0010
0000
0000
0000
,
1000
0000
0000
0000
,
0001
0000
0000
0000
,
1000
1000
0000
1000
,
0000
1000
0000
1000
,
1000
0000
0000
0000
,
0010
0000
0000
0000
,
0100
0100
0000
0100
,
0000
0100
0000
0100
,
0100
0000
0000
0000
,
0001
0000
0000
0000
,
1001
0000
0000
0000
,
1001
0000
0000
0000
,
0001
0001
0000
0000
,
1000
1000
0000
0000
,
1001
0000
0000
0000
,
1001
0000
0000
0000
,
1000
1000
0000
0000
,
0010
0010
0000
0000
,
0010
0010
0000
0000
,
0010
0010
0000
0000
,
0010
0010
0010
0000
,
0100
0100
0100
0000
,
0001
0001
0001
0000
,
1000
1000
1000
0000
,
0001
0001
0001
0001
,
0001
0000
0000
0000
,
0000
0000
0000
0000
,
1000
0000
1000
0000
,
1000
0000
0000
0000
,
0100
0000
0100
0000
,
0100
0000
0000
0000
,
0010
0000
0010
0000
,
0010
0010
0010
0000
,
0001
0000
0000
0000
,
1000
0000
0010
0010
,
0000
0000
0010
0010
,
0000
0000
0100
0000
,
0100
0000
0100
0000
,
0000
0000
0001
0001
,
0000
0000
0001
0001
,
0000
0000
1000
0000
,
1000
0000
1000
0000
,
0000
0000
0001
0000
,
0001
0000
0001
0000
,
0000
0000
0010
0010
,
0010
0000
0010
0010
,
0010
0000
0010
0000
,
0000
0000
0100
0000
,
0000
0000
1000
1000
,
1000
0000
0001
0001
,
0001
0000
0100
0000
;

//---------------dance-double - ----------------
#NOTES:
     dance-double:
     :
     Hard:
     14:
     0.696314,0.722213,0.424582,0.883130,0.131620,574.000000,524.000000,50.000000,104.000000,0.000000,0.000000,0.696314,0.722213,0.424582,0.883130,0.131620,574.000000,524.000000,50.000000,104.000000,0.000000,0.000000:
// measure 0
00000000
00000000
00000000
00000000
,  // measure 1
00000000
00000000
00000000
00000000
,  // measure 2
00000000
00000000
00000000
00000000
,  // measure 3
00000000
00000000
00000000
00000000
,  // measure 4
00022000
00000000
00033000
00001000
02000000
00000000
03100000
00000000
,  // measure 5
10000000
00000000
01000000
00000000
00010000
00000000
00002000
00000000
00000000
00103000
00000000
00000000
,  // measure 6
00022000
00000000
00033000
00010000
00000020
00000000
00000130
00000000
,  // measure 7
00000001
00000000
00000010
00000000
00001000
00000000
00010000
00000000
01000000
00000000
10000000
00000000
,  // measure 8
00020000
00000000
00000000
00001000
,  // measure 9
00000000
00000000
01000000
00000000
00000000
10030000
01030000
01000000
,  // measure 10
10000000
00100000
10100000
00000000
00010000
01000000
01010000
00000000
,  // measure 11
01000000
00001000
00020000
00000000
00030200
00000000
00000310
00000001
,  // measure 12
00001000
00000010
00001000
00000001
00000010
00000100
00010000
00001000
,  // measure 13
00100000
00100000
00010000
01000000
00001000
00010000
00000010
00000010
,  // measure 14
00000100
00000001
00000101
00000000
00001000
00000010
00001010
00000000
,  // measure 15
00000100
00010000
00002000
00000000
00203000
00000000
01300000
10000000
,  // measure 16
00010000
01000000
00010000
10000000
01000000
00100000
00001000
00010000
,  // measure 17
00002000
00000000
00013000
00010000
00000000
00000000
00011000
00000000
,  // measure 18
00010000
00000100
00020100
00000000
00031000
00100000
00102000
00000000
,  // measure 19
00013000
00000010
00000100
00000010
00000001
00000010
00002000
00000000
,  // measure 20
00003001
00000010
00001000
00000000
00001000
00010000
00200000
00000000
,  // measure 21
01300000
01000000
00010000
10000000
01000000
00100000
00001000
00010000
,  // measure 22
00001000
00100000
00102000
00000000
00013000
00000100
00020100
00000000
,  // measure 23
00031000
01000000
00100000
01000000
10000000
01000000
00020000
00000000
,  // measure 24
10030000
01000000
00010000
00000000
00010000
00001000
00000200
00000000
,  // measure 25
00000310
00000010
00000000
00000110
00000100
00000000
00001001
00000000
,  // measure 26
00000002
00000103
00000100
00000100
,  // measure 27
00000200
00000010
00000310
00000000
00002000
00000000
00003000
00000000
,  // measure 28
00000200
00000000
00010000
00000300
00010000
00000000
00001000
00000000
00100000
00000000
00100000
00000000
,  // measure 29
00020000
00000000
00000000
00030000
10000000
00000000
00200000
00000000
00000000
00300000
00000000
00000000
,  // measure 30
10000000
00100000
02000000
00000000
23000000
00000000
31000000
00010000
,  // measure 31
00100000
00001000
00000020
00000000
00000032
00000000
00001003
00000000
,  // measure 32
00000001
00000100
00002000
00000000
00023000
00000000
00031000
00100000
,  // measure 33
01000000
00001000
00000100
00000010
00000002
00000000
00001003
00000000
,  // measure 34
00000001
00000100
00000020
00000000
00000032
00000000
00000013
00001000
,  // measure 35
00000100
00010000
02000000
00000000
23000000
00000000
30010000
00000000
,  // measure 36
10000000
00100000
00020000
00000000
00031000
00002000
00000300
00103000
,  // measure 37
00200000
00000000
00301000
00000010
00000001
00000000
00000000
00000000
,  // measure 38
00000011
00000000
00000110
00000000
00002100
00000000
00003001
00000100
,  // measure 39
00001000
00010000
00001000
00010000
00100000
01000000
00010000
10000000
,  // measure 40
02000000
00000000
03020000
00000000
00032000
00000000
01003000
00100000
,  // measure 41
10000000
00100000
00010000
00100000
01000000
00010000
10000000
00000000
,  // measure 42
11000000
00000000
01100000
00000000
00120000
00000000
10030000
00100000
,  // measure 43
00010000
00001000
00010000
00001000
00000100
00000010
00001000
00000001
,  // measure 44
00000010
00001000
00020000
00000000
00130000
00200000
00000000
20300000
,  // measure 45
00000000
00000000
30010000
00010000
00100000
00001000
00000010
00000001
,  // measure 46
00000100
00000000
00000101
00000001
00001000
00000100
00010000
00001000
,  // measure 47
02000000
00000000
03100000
00100000
10000000
00010000
00100000
01000000
,  // measure 48
12000000
00000000
03020000
00000000
00031000
01000000
00100000
01000000
,  // measure 49
00020000
00000000
00030100
00000100
00000010
00010000
00001000
00100000
,  // measure 50
01000000
00000000
11000000
10000000
00010000
01000000
00001000
00010000
,  // measure 51
00000020
00000000
00000130
00000100
00000001
00001000
00000100
00000010
,  // measure 52
00000021
00000000
00002030
00000000
00013000
00000010
00000100
00000010
,  // measure 53
00010000
00032000
00000000
00203000
00000000
00320000
00000000
01030000
,  // measure 54
01020000
10330000
20100000
30010000
,  // measure 55
00120000
00000000
10030000
00030000
21000000
00000000
30010000
00000000
,  // measure 56
10010000
00000000
00011000
00000000
00010000
00000010
00000100
00000010
,  // measure 57
00002000
00000000
00033100
00000001
00000100
00001000
00000010
00000100
,  // measure 58
00000201
00000310
00001200
00000310
,  // measure 59
00002001
00003010
00001002
00000013
,  // measure 60
00001001
00000000
00011000
00000000
00001000
00100000
00010000
01000000
,  // measure 61
00200000
00000000
10300000
01000000
00010000
01000000
00010000
00010000
,  // measure 62
00002000
00000000
00013000
00001000
00010000
00001000
00000100
00000100
,  // measure 63
00000002
00000000
00000013
00001000
00000010
00001000
00010000
00010000
,  // measure 64
00001000
00101000
00020020
00030030
,  // measure 65
00010000
00001000
00010000
00001000
00010000
00001000
00000000
00000000
,  // measure 66
00100000
00010000
01000000
00010000
00100000
00010000
01000000
00010000
,  // measure 67
20000000
00000000
32000000
00000000
03200000
00000000
00310000
00010000
,  // measure 68
10000000
00100000
00010000
10000000
00010000
00100000
10000000
01000000
,  // measure 69
20020000
00000000
00000000
00000000
,  // measure 70
00000000
00000000
00000000
30030000
,  // measure 71
11000000
00000000
01000000
00100000
00000000
00100000
00010000
00000000
00010000
01000000
00000000
00001000
,  // measure 72
00020000
00000000
00000000
00030100
00000000
00001000
00000002
00000000
00001003
00000100
00000010
00000001
,  // measure 73
00000100
00000000
00000100
00000010
00000000
00000010
00001000
00000000
00001000
00000100
00000000
00010000
,  // measure 74
00002000
00000000
00000000
00103000
00000000
00010000
20000000
00000000
30010000
00100000
01000000
10000000
,  // measure 75
00200000
01300000
01020000
00130000
,  // measure 76
00101000
00000000
00010000
00001000
00000000
00010000
00000010
00000100
00000001
00001030
00000000
00000000
,  // measure 77
00001001
00000000
00000110
00000000
00001001
00000000
00000001
00000010
,  // measure 78
00000100
00010000
00000000
00000000
00201000
00000000
00310000
01000000
,  // measure 79
10000000
02000000
00000000
03010000
00100000
01000000
00020000
00000000
,  // measure 80
00032000
00000000
00013000
00000010
00000200
00000000
00001000
00000000
,  // measure 81
00000301
00001000
00000002
00000000
00000023
00000000
00001000
00000000
,  // measure 82
00000031
00001000
00000010
00000000
00010200
00000000
00001300
00000010
,  // measure 83
00000001
00000020
00000000
00001030
00000100
00000010
00002000
00000000
,  // measure 84
00023000
00000000
00031000
01000000
00200000
00000000
00010000
00000000
,  // measure 85
10300000
00010000
20000000
00000000
32000000
00000000
00010000
00000000
,  // measure 86
13000000
00000000
30000000
00000000
00100000
00000000
10010000
00010000
,  // measure 87
01030000
10000000
01000000
00010000
00100000
00001000
00000020
00000000
,  // measure 88
00000130
00001300
00000020
00000000
00000130
00000000
00000102
00000000
,  // measure 89
00001003
00000100
00010300
00000000
00001000
00000000
00102000
00000000
,  // measure 90
00013000
00000010
00000100
00000000
00000010
00000000
00001001
00001000
,  // measure 91
00003010
00000001
00000010
00001000
00000100
00010000
02000000
00000000
,  // measure 92
03100000
00310000
02000000
00000000
03100000
00100000
10000000
01000000
,  // measure 93
00100000
00100000
00001000
00010000
00000010
00000100
00000001
00000010
,  // measure 94
00001000
00000010
00000100
00010000
00001000
00000000
00000000
00000000
;

//---------------dance-double - ----------------
#NOTES:
     dance-double:
     :
     Medium:
     11:
     0.587136,0.641967,0.568939,0.951063,0.055196,484.000000,417.000000,67.000000,112.000000,0.000000,0.000000,0.587136,0.641967,0.568939,0.951063,0.055196,484.000000,417.000000,67.000000,112.000000,0.000000,0.000000:
00000000
00000000
00000000
00000000
,
00000000
00000000
00000000
00000000
,
00000000
00000000
00000000
00000000
,
00000000
00000000
00000000
00000000
,
00010200
00000000
00000000
00001000
00000000
00000000
00000010
00000000
,
00000000
00001000
00000000
00000000
00010300
00000000
00000000
00000000
,
00201000
00000000
00000000
00010000
00000000
00000000
01000000
00000000
,
00000000
00000000
00000000
00010000
00000000
00000000
00000000
00000000
00000000
00000000
00000000
00000000
00301000
00000000
00000000
00000000
00010000
00000000
00000000
00000000
00001000
00000000
00000000
00000000
,
00020000
00000000
00000000
00001000
,
00000000
00001000
00000000
00031000
,
00010000
00020100
00031000
00102000
,
01003000
00010000
02000000
00000000
03200000
00000000
20300000
00000000
,
30010000
00100000
01000000
00000000
10000000
00100000
01000000
00000000
,
00010000
00100000
00010000
00000000
00100000
00000000
00001000
00010000
,
00001000
00102000
00013000
00020100
,
00030010
00001000
00000020
00000000
00000230
00000000
00000302
00000000
,
00001003
00000100
00000010
00000000
00000001
00000100
00000010
00000000
,
00001000
00000000
00000100
00000100
00000000
00000000
00001001
00000000
,
00000001
00000000
00000102
00000000
00001003
00000003
00002100
00000000
,
00003001
00000010
00000200
00000000
00020300
00000000
00032000
00000000
,
00103000
00010000
00100000
00000000
00010000
01000000
00010000
00000000
,
10000000
01000000
00100000
00000000
00010000
00000000
10000000
00010000
,
10000000
00000000
20100000
00000000
30010000
30000000
00120000
00000000
,
10030000
01000000
00200000
00000000
00302000
00000000
00023000
00000000
,
00030100
00001000
00000100
00000000
00001000
00000010
00001000
00000000
,
00000001
00000010
00000000
00000010
00000100
00000000
00001100
00000000
,
00020000
00031000
00001000
00001000
,
00100000
00010000
01000000
00000000
02020000
00000000
03030000
00000000
,
10000000
00000000
01000000
00000000
10000000
00000000
00010000
00000000
01000000
00000000
00010000
00000000
,
10000000
00000000
00000000
00000000
00100000
00000000
00100000
00000000
00000000
00000000
00000000
00000000
,
20010000
00000000
32000000
00000000
03200000
00000000
00310000
01000000
,
00000000
01000000
00002000
00000000
00023000
00000000
00030100
00000000
,
00001000
00000010
00001000
00000000
00000100
00010000
00000100
00020000
,
00300000
00031000
00000200
00000000
00003302
00000000
00001003
00000000
,
00000002
00000000
00000023
00000000
00000230
00000000
00001300
00000010
,
00000000
00000010
00020000
00000000
00032000
00000000
00103000
00000000
,
00101000
00000000
00000000
01000000
00010000
01000000
00000000
00001000
,
00010000
00001000
00000000
00010000
00000100
00000000
00000010
00000000
,
00001002
00000000
00000023
00000000
00000230
00000000
00001300
00000010
,
00000000
00000010
00020000
00000000
00032000
00000000
00103000
00000000
,
00010000
01000000
00010000
00000000
00100000
00001000
00100000
00002000
,
00000300
00013000
00200000
00000000
20330000
00000000
30010000
00000000
,
20000000
00000000
32000000
00000000
03200000
00000000
00310000
01000000
,
00000000
01000000
00002000
00000000
00023000
00000000
00030100
00000000
,
00010100
00000000
00000000
00000010
00001000
00000010
00000000
00010000
,
00001000
00010000
00000000
00001000
00100000
01000000
00100000
01000000
,
10000000
21000000
30010000
01020000
,
10030000
20100000
30010000
00110000
,
01001000
00000000
00021000
00000000
00030100
00000010
00000100
00000010
,
00000002
00000000
00001003
00000010
00001000
00000010
00000100
00000000
,
00000001
00000012
00001003
00002010
,
00003001
00000102
00001003
00001100
,
00010010
00000000
00012000
00000000
00103000
01000000
00100000
01000000
,
10000000
00200000
00000000
02300000
00000000
03020000
00000000
10030000
,
02000000
03000000
00220000
00330000
,
02000000
03000000
00022000
00033000
,
00010100
00000000
00000110
00000000
00000031
00001000
00000010
00001000
,
00000001
00000000
00001000
00000001
00000010
00000001
00001000
00000000
,
00000020
00000030
00002200
00003300
,
00000020
00000030
00022000
00033000
,
00101000
00000000
01100000
00000000
13000000
01000000
00100000
00000000
,
00101000
00000000
00001000
00010000
00001000
00010000
00000000
00000000
,
00010010
00000000
00010000
00001000
00010000
00001000
00000000
00000000
,
01001000
00000000
00001000
00010000
00001000
00010000
00000000
00000000
,
00010100
00011000
00202000
00303000
,
01001000
00011000
00020020
00033030
,
00000010
00010000
00002000
00000000
00103000
00001000
00020000
00300000
,
00031000
00101000
00010100
00000000
,
00010000
00001000
00010000
00001000
00000100
00000010
00000100
00000010
,
00002002
00000000
00000000
00000000
,
00000000
00000000
00000000
00003003
,
00000102
00000000
00000000
00002003
00000000
00000000
00003310
00000000
00001000
00000100
00000000
00010000
,
00002000
00000000
00000000
00103000
00000000
00010000
02000000
00000000
00000000
03100000
00000000
00000000
,
20100000
00000000
00000000
30020000
00000000
00000000
01330000
00000000
00010000
00100000
00000000
00001000
,
00020000
00000000
00000000
00030100
00000000
00001000
00000020
00000000
00000000
00000130
00000000
00000000
,
00000201
00001300
00002100
00013000
,
00011000
01010000
21000000
30010000
,
10010000
00000000
01100000
00000000
10010000
00000000
10000000
01000000
,
00100000
00010000
00000000
00000000
10000000
00000000
00010000
01000000
,
00010000
20000000
00000000
30010000
00100000
00010000
00200000
00000000
,
00302000
00013000
00000100
00000100
,
00000100
00000010
00000001
00000000
00000100
00000000
00000100
00000000
,
00000100
00000010
00001000
00000000
00000001
00000000
00001000
00000010
,
00001000
00000002
00000000
00001003
00000100
00001000
00000200
00000000
,
00020300
00031000
00100000
00100000
,
00100000
01000000
10000000
00000000
00100000
00000000
00100000
00000000
,
00200000
00000000
01300000
00000000
10020000
00000000
01030000
00001000
,
01000000
00001000
00000000
00010000
00000100
00010000
00000200
00000000
,
00000320
00000030
00001001
00000110
,
00002002
00003003
00001001
00000110
,
00002002
00000000
00003003
00000000
00002100
00000300
00003010
00010000
,
00000010
00010000
00000000
00001000
00100000
00001000
00200000
00000000
,
02300000
00000000
13000000
00000000
00010000
01000000
00010000
00000000
,
10000000
00100000
10000000
00000000
00010000
00100000
00010000
00100000
,
00001000
00010000
00001000
00010000
00000100
00000000
00000000
00000000
;

//---------------dance-double - ----------------
#NOTES:
     dance-double:
     :
     Easy:
     8:
     0.342091,0.521598,0.152849,0.348157,0.000000,282.000000,264.000000,18.000000,41.000000,0.000000,0.000000,0.342091,0.521598,0.152849,0.348157,0.000000,282.000000,264.000000,18.000000,41.000000,0.000000,0.000000:
00000000
00000000
00000000
00000000
,
00000000
00000000
00000000
00000000
,
00000000
00000000
00000000
00000000
,
00000000
00000000
00000000
00000000
,
00010000
00000000
00000000
00010000
00000000
00000000
00001000
00000000
,
00000000
00001000
00000000
00000000
00200000
00000000
00300000
00000000
,
00001000
00000000
00000000
00001000
00000000
00000000
00010000
00000000
,
00000000
00010000
00000000
00000000
00000020
00000000
00000000
00000000
,
00000200
00000000
00000000
00000000
,
00000000
00000000
00000000
00000330
,
00000001
00000100
00000001
00000100
,
00000010
00001000
00000200
00000300
,
00010000
00001000
00010000
00000000
,
00001000
00100000
00010000
00000000
,
10000000
00100000
10000000
00100000
,
01000000
00010000
00200000
00300000
,
00001000
00010000
00001000
00000000
,
00010000
00000000
00000000
00000100
00000000
00000000
00000010
00000000
,
00000001
00001000
00000001
00001000
,
00000010
00000000
00000010
00000000
00020000
00000000
00030000
00030000
,
00001000
00100000
00010000
00000000
,
10000000
00100000
01000000
00010000
,
10000000
00010000
10000000
00010000
,
01000000
00000000
01000000
00000000
00002000
00000000
00003000
00003000
,
00010000
00000100
00001000
00000000
,
00000001
00000000
00000000
00000100
00000000
00000000
00000010
00000000
,
00002000
00000000
00003000
00000000
,
00000200
00000300
00020000
00030000
,
00002000
00000000
00003000
00000000
,
00200000
00300000
00020000
00030000
,
10000000
00000000
00100000
00000000
01000000
00000000
00000000
01000000
,
00000000
00010000
00200000
00300000
,
00001000
00010000
00001000
00000000
,
00010000
00000100
00000010
00000000
,
00000001
00000000
00000100
00000000
00000010
00000000
00000000
00000010
,
00000000
00001000
00000200
00000300
,
00010000
00000000
00001000
00000000
,
00010000
00000000
00011000
00000000
,
00100000
00000000
00010000
00000000
10000000
00000000
00000000
00010000
,
00000000
01000000
00002000
00003000
,
00010000
00000100
00010000
00000000
,
00000100
00000010
00000001
00000000
,
00001000
00000000
00000001
00000000
00000100
00000000
00000000
00000100
,
00000000
00000010
00002000
00003000
,
00000100
00000000
00010000
00000000
,
00001000
00000000
00100000
00100000
,
00001000
00011000
00010000
00011000
,
00001000
00011000
00010000
00011000
,
00100000
00100000
01000000
10000000
,
00010000
00100000
00001000
00000000
,
00010000
00011000
00001000
00011000
,
00010000
00011000
00001000
00011000
,
00000100
00000100
00000010
00000001
,
00001000
00000000
00000000
00000000
,
00002002
00003003
00002000
00003000
,
00000200
00000300
00020000
00030000
,
00001000
00001000
00100000
00100000
,
00010000
01000000
00100000
00000000
,
20020000
30030000
00020000
00030000
,
00200000
00300000
00002000
00003000
,
00010000
00010000
00000100
00000100
,
00001000
00000010
00000100
00000000
,
00000001
00000010
00000100
00000000
,
00001000
00000010
00000100
00000000
,
00000010
00000010
00000010
00000000
,
00010000
00010000
00010000
00000000
,
00001000
00001000
00100000
00100000
,
01000000
10000000
00010000
00000000
,
10000000
00100000
01000000
00001000
,
00022000
00000000
00000000
00000000
,
00000000
00000000
00000000
00033000
,
00020000
00000100
00001000
00000100
,
00002000
00003000
00002000
00033000
,
00002000
01000000
00010000
01000000
,
00020000
00030000
00020000
00033000
,
00022000
00033000
00000220
00000330
,
00001001
00001001
00002002
00003003
,
00000001
00001000
00000001
00000100
,
00000100
00000000
00000001
00000010
,
00000100
00000000
00000010
00000100
,
00001000
00000000
00000100
00000100
,
00010000
00000000
00001000
00001000
,
00100000
00000000
00010000
01000000
,
00100000
00000000
01000000
00100000
,
10000000
00000000
00010000
00010000
,
00100000
00000000
00001000
00001000
,
00010000
00000000
00000100
00001000
,
00000100
00001000
00000001
00000100
,
00000010
00000000
00010000
00010000
,
00001000
00000000
00001000
00001000
,
00100000
00000000
00100000
00010000
,
10000000
00100000
01000000
01000000
,
00010000
00000000
00100000
00100000
,
00001000
00001000
00010000
00010000
,
00010000
00010000
00011000
00000000
;
