#TITLE:VALKYRIAS -英雄誕生-;
#SUBTITLE:;
#ARTIST:BEMANI Sound Team "HuΣeR" feat.Fernweh;
#TITLETRANSLIT:VALKYRIAS -eiyuu tanjou-;
#SUBTITLETRANSLIT:;
#ARTISTTRANSLIT:HuΣeR feat.Fernweh;
#GENRE:HEROIC VALHALLA ROCK;
#CREDIT:;
#MUSIC:VALKYRIAS -eiyuu tanjou-.ogg;
#BANNER:VALKYRIAS -eiyuu tanjou-.png;
#BACKGROUND:VALKYRIAS -eiyuu tanjou--bg.png;
#CDTITLE:./CDTitles/bm IIDX 27 HEROIC VERSE.png;
#SAMPLESTART:63.776;
#SAMPLELENGTH:15.000;
#SELECTABLE:YES;
#OFFSET:1.054;
#BPMS:0.000=184.000;
#STOPS:;
#BGCHANGES:4.000=VALKYRIAS -eiyuu tanjou-.mp4=1.000=0=0=0=StretchNoLoop====,
99999.000=-nosongbg-=1.000=0=0=0=StretchNoLoop====
;
#FGCHANGES:;

//--------------- dance-single - forcednature ----------------
#NOTES:
     dance-single:
     forcednature:
     Beginner:
     4:
     0,0,0,0,0:
0000
0000
0000
0000
,
0000
0000
0000
0000
,
0000
0000
0000
0000
,
0000
0000
0000
0000
,
0000
0000
0000
0000
,
0000
0000
0000
0000
0000
0000
0000
1000
,
0000
0000
0000
0000
0000
0000
0000
0001
,
0000
0000
0000
0000
0000
0000
0000
0100
,
0000
0000
0000
0000
0000
0000
0000
0010
,
0000
0000
0000
0000
0000
0000
0000
1000
,
0000
0000
0000
0000
0000
0000
0000
0001
,
0000
0000
0000
0000
0000
0000
0000
0010
,
0000
0000
0000
0000
0000
0000
0000
0100
,
0000
0000
0000
0000
,
1000
0000
0000
1000
,
0000
0000
0000
0000
,
0001
0000
0000
0001
,
0000
0000
0000
0000
0000
0000
0000
1001
,
0000
0000
0000
0000
,
0000
0000
0000
0000
,
0001
0000
0000
0000
,
0100
0000
0000
0000
,
0010
0000
0000
0000
,
0000
0000
0000
0000
,
1000
0000
0000
0000
,
0100
0000
0000
0000
,
1001
0000
0000
0000
,
0001
0000
0000
0000
,
0100
0000
0000
0000
,
0001
0000
0000
0000
,
1000
0000
0000
0000
,
0100
0000
0000
0000
,
0010
0000
0000
0000
,
0001
0000
0000
0000
,
1000
0000
0000
0000
,
0100
0000
1000
0000
,
0001
0000
0000
0000
,
0100
0000
0001
0000
,
1000
0000
0000
0000
,
0010
0000
1000
0000
,
0001
0000
0000
0000
,
0010
0000
0001
0000
,
0100
0000
0000
0000
,
0010
0000
1000
0000
,
0100
0000
0000
0000
,
0010
0000
0001
0000
,
0100
0000
0001
0000
,
0010
0000
0001
0000
,
0100
0000
0000
0010
,
0000
0000
1000
0000
0000
0000
0000
1001
,
0000
0000
0000
0001
,
0000
0000
0010
0000
0000
0000
0000
1001
,
0000
0000
0000
1000
,
0000
0000
0010
0000
0000
0000
0000
0110
,
0000
0000
0000
1000
,
0000
0000
0001
0000
0000
0000
0000
0010
,
0000
0000
0000
0000
0100
0000
0000
1000
,
0000
0000
0000
0001
0000
0000
0000
1001
,
0000
0000
0000
1000
,
0000
0000
0100
0000
0000
0000
0000
1001
,
0000
0000
0000
0001
,
0000
0000
0100
0000
0000
0000
0000
0110
,
0000
0000
0000
1000
,
0000
0000
0001
0000
0000
0000
0000
0010
,
0000
0000
0000
0000
0100
0000
0000
1000
,
0000
0000
0000
0001
0000
0000
0000
2002
,
0000
0000
0000
0000
,
0000
0000
0000
0000
0000
3003
0000
0000
,
1000
0000
0000
0000
,
0100
0000
1000
0000
,
0001
0000
0000
0000
,
0100
0000
0001
0000
,
0010
0000
0000
0100
,
0000
0000
0000
0000
1000
0000
0000
0020
,
0000
0000
0000
0000
,
0030
0000
0000
0000
,
0000
0000
0000
0000
,
0000
0000
0000
0000
0000
0000
0000
1001
,
0000
0000
0001
0000
,
0100
0000
0000
0000
0010
0000
0000
1001
,
0000
0000
0000
0010
0000
0000
0000
0100
,
0000
0000
0000
0010
0000
0000
0000
1001
,
0000
0000
0000
0010
,
0000
0000
0100
0000
0000
0000
0000
1001
,
0000
0000
0000
0100
,
0000
0000
0010
0000
0000
0000
0000
0110
,
0000
0000
0000
0001
,
0000
0000
1000
0000
0000
0000
0000
0110
,
0000
0000
1000
0000
,
0001
0000
0000
0000
0010
0000
0000
2002
,
0000
0000
0000
3003
,
1000
0000
0001
0000
,
0100
0000
0000
0100
0000
0000
0010
0000
,
0000
0010
0000
0000
0100
0000
0000
2002
,
0000
0000
0000
0000
,
0000
0000
0000
0000
,
0000
0000
0000
3003
;

//--------------- dance-single - forcednature ----------------
#NOTES:
     dance-single:
     forcednature:
     Easy:
     9:
     0,0,0,0,0:
0000
0000
0000
0000
,
0000
0000
0000
0000
,
0000
0000
0000
0000
,
0000
0000
0000
0000
,
0000
0000
0000
0000
,
0000
0000
0000
0000
0000
0000
0000
2002
,
0000
3003
1000
0000
0010
0000
1000
0001
,
0000
0000
0010
0000
0100
0000
1000
2000
,
0000
3000
0001
0000
0010
0000
0100
0010
,
0000
0000
0001
0000
1000
0000
0010
0020
,
0000
0000
0100
0000
0100
0030
0000
2000
,
0000
0000
0000
3002
0000
0003
0000
0220
,
0000
0330
0000
0000
1000
0000
0000
0000
0001
0000
0000
0000
0100
0000
0020
0000
,
0000
1030
0001
0010
,
0001
1000
0000
0001
1000
0000
0010
0100
,
0000
0010
0100
0000
0010
0000
0000
0000
,
1000
0001
0000
1000
0001
0000
0010
0100
,
0000
0010
0100
0000
0010
0000
0000
2002
,
0000
3003
1000
0000
,
0001
0100
0000
0001
,
2000
0000
3010
0100
,
0002
0000
0013
0100
,
2000
3000
0002
0003
,
0200
0300
0020
0000
,
1030
0000
0000
0100
0000
0000
0010
0000
,
0000
0001
0000
0000
0200
0000
0310
0000
,
1001
0000
1000
0000
0100
0000
1000
0001
,
1000
0010
0100
0001
,
0010
0000
0100
0000
1000
0000
0001
1000
,
0001
0010
0110
0110
,
0100
1000
0001
1000
,
0010
1000
0001
0100
,
0001
0000
0010
0100
0000
0010
0100
0000
,
1000
0000
0001
0100
0000
0010
0000
0110
,
0000
1000
0001
0010
,
0200
0000
0000
2300
0000
0000
3200
0000
,
0300
0010
0001
1000
,
0020
0230
0302
2003
,
3000
0001
0010
0001
,
0200
0000
0000
0320
0000
0000
0230
0000
,
0300
0001
1000
0010
,
1000
0100
0010
0001
,
1001
1000
0010
0100
,
0002
0000
0000
0023
0000
0000
0032
0000
,
0103
0010
1000
0001
,
0010
0100
0010
0000
0001
0000
1000
0010
,
0000
0010
1000
0000
1000
0000
0001
0010
,
0000
0010
0001
0000
0001
0000
1000
0000
,
0010
0100
0000
0010
0100
0000
0001
1000
,
0000
0001
1000
0000
0100
0000
0010
0200
,
0000
1300
0001
0000
0100
0000
0010
0000
,
1000
0000
0001
0000
0010
0000
0100
0020
,
0000
0031
1000
0000
0010
0000
0100
0000
,
0001
0000
0010
0000
0100
0000
1000
0002
,
0000
0000
0100
0000
0103
0000
0001
1000
,
0000
0000
0100
0000
0010
0000
0010
0001
,
0000
0001
0100
0000
0010
0000
1000
0001
,
0000
0010
0000
0100
0000
0010
0000
0002
,
0000
1003
0010
0000
0100
0000
0001
0000
,
0010
0000
0001
0000
0100
0000
0010
2000
,
0000
3001
0010
0000
0100
0000
0010
0000
,
0001
0000
1000
0000
0010
0000
0100
0002
,
0000
0000
1000
0000
1003
0000
0001
0010
,
0000
0000
0100
0000
1000
0000
0010
0100
,
0000
0001
0100
0000
0010
0000
1000
0100
,
0000
0010
0000
0001
0000
0100
0000
2002
,
0000
0000
0000
0000
,
0000
0000
0000
0000
0000
3003
0000
0000
,
1000
0100
1000
0001
,
0100
0000
0100
0000
0001
0000
0010
0002
,
0000
0103
0110
0010
,
0110
1000
1001
0001
,
0100
0010
0000
0100
0010
0000
1000
0001
,
0000
1000
0001
0000
0010
0100
0000
2002
,
0000
0000
0000
0000
,
3003
0000
0000
0000
,
0000
0000
0000
0000
,
0000
0000
0000
0000
0000
0000
0000
1001
,
0000
0001
0010
0100
,
1000
0100
1000
0000
0001
0000
0001
0100
,
0000
0010
1000
0000
0001
0000
0010
0100
,
0000
1000
0000
0001
0000
0100
0000
1002
,
0000
1003
0010
0000
0100
0000
0001
0000
,
0010
0000
0100
0000
0010
0000
0001
2000
,
0000
3010
0100
0000
0001
0000
0010
0000
,
0100
0000
0010
0000
0001
0000
1000
0020
,
0000
0000
0100
0000
0130
0000
0001
0010
,
0000
0000
0100
0000
0100
0000
0010
0001
,
0000
1000
0010
0000
0100
0000
0001
1000
,
0000
0100
0000
0010
0000
0001
0000
1001
,
0000
0100
0110
0010
,
1000
0100
1000
0000
0001
0000
0100
0000
,
0001
1000
0000
0001
1000
0000
0100
0010
,
0000
0100
0010
0000
0001
1000
0000
2002
,
0000
0000
0000
0000
,
0000
0000
0000
3003
;

//--------------- dance-single - forcednature ----------------
#NOTES:
     dance-single:
     forcednature:
     Medium:
     13:
     0,0,0,0,0:
0000
0000
0000
0000
,
0000
0000
0000
0000
,
0000
0000
0000
0000
,
0000
0000
0000
0000
,
0000
0000
0000
0000
,
0000
0000
0000
0000
0000
0000
0000
1002
,
0000
0000
1003
0000
0100
0000
0000
0000
0010
0000
0001
0010
0001
0000
1000
0000
,
0000
0010
0100
0000
0001
0010
0100
0020
,
0000
0000
0031
0000
1000
0000
0000
0000
0010
0000
1000
0010
1000
0000
0001
0000
,
0000
0010
0100
0000
0010
0001
0100
0020
,
0000
0000
0001
0000
0100
0000
1030
0002
,
0100
0000
1003
0020
0100
0000
1030
1001
,
0000
1000
0100
0000
0010
0001
0100
0110
,
0000
0000
0010
0000
1000
0000
0001
0000
1000
0000
0100
1000
0100
0000
0010
0001
,
0010
0010
0000
0001
0001
0000
1000
1000
,
0000
0010
0010
0000
0100
1000
0100
0001
,
0010
0011
0000
0100
1100
0000
1000
1010
,
0000
0001
0101
0000
0010
0100
0000
1001
,
0000
0000
1000
0000
0010
0000
0100
0002
,
0000
0103
0020
0000
0030
0000
2000
0000
,
3002
0000
0000
0000
0000
0003
0010
0200
,
0000
0000
0000
0000
0300
0000
1000
0001
,
0200
0000
0300
0010
2000
0000
3000
0001
,
0020
0000
0030
0100
2000
0000
3002
0000
,
0203
0000
0310
2000
0000
3002
0000
0023
,
0000
0100
0130
0000
0010
0001
1000
0000
,
1001
0000
0001
0100
0010
0100
0001
0010
,
0000
0100
1000
0001
0000
0100
0010
1000
,
0001
0000
0010
0100
0000
0010
0001
1000
,
0000
0010
0100
0001
0010
1000
0010
0000
,
0110
0000
0100
1000
0001
0000
0100
0010
,
1000
0001
0010
0100
0010
0000
0001
1000
,
0010
0000
0100
1000
0000
0100
0001
0010
,
0000
0100
1000
1010
0000
0011
0000
0100
,
1002
0000
0000
1003
0100
1000
0100
0000
0000
0010
0001
0010
,
0001
0000
0000
0001
0000
0001
0010
0000
0010
0100
0000
0100
,
2000
0000
0000
3001
0100
0001
0100
0000
0000
0010
1000
0010
,
1000
0000
0000
1000
0000
1000
0010
0000
0010
0100
0000
0100
,
0002
0000
0000
1003
0100
1000
0010
0000
0000
0100
0001
0010
,
0001
0000
0000
0001
0000
0001
0010
0000
0010
0100
0000
0100
,
2000
0000
0000
3001
0010
0001
0100
0000
0000
0010
1000
0100
,
1000
0000
1000
0100
0000
0100
0010
0000
0010
0001
0000
0001
,
0200
0000
0000
0301
0100
0010
1000
0000
0000
0001
0010
0100
,
1000
0000
0000
1000
0000
1000
0001
0000
0001
0010
0000
0010
,
0200
0000
0000
1300
0100
0010
0001
0000
0000
1000
0010
0100
,
0002
0000
0100
0000
1000
0000
0013
1001
,
0000
1000
0010
0100
0001
1000
0000
1001
,
0000
0001
0010
0100
1000
0001
1000
0010
,
1000
1100
0000
0001
0101
0000
0010
0110
,
0000
0000
1000
0000
0001
1000
0001
0000
0010
0000
0100
0010
0100
0000
2000
0000
,
0000
3001
0100
0010
0100
0001
0010
0001
,
1000
0010
1000
0100
0001
0100
0010
0002
,
0000
0103
0010
0100
0001
1000
0001
0010
,
0100
1000
0100
0010
0001
0100
0010
2010
,
0000
0100
0100
0000
3001
1000
0001
0010
,
0000
0100
1000
0000
1010
0000
0010
0110
,
0000
0100
0001
0010
0001
1000
0010
1010
,
0000
0000
0011
0000
0000
0000
1000
0000
0001
0000
0100
0001
0100
0000
0020
0000
,
0000
1030
0100
1000
0001
0100
0001
0010
,
1000
0010
0001
0100
0010
1000
0001
0020
,
0000
0130
0001
0100
1000
0010
1000
0001
,
0010
0001
0100
1000
0100
0010
1000
1002
,
0000
0100
0100
0000
0013
0001
1000
0010
,
0000
0100
1000
0100
0001
0010
0100
0110
,
0000
0010
0001
0100
0010
1000
0100
1100
,
0000
0000
0101
0000
0000
0000
0001
0000
1000
0000
0010
0100
0010
0000
2002
0000
,
0000
0000
0000
0000
,
0000
0000
0000
0000
0000
3003
0000
1000
,
0100
1000
0001
0100
0001
0010
0100
0010
,
0001
1000
0010
1000
0001
0001
0010
0200
,
0000
0001
0010
1300
,
0100
0010
0100
1000
0010
0100
0010
0001
,
0010
1010
0000
0100
0101
0000
0001
0011
,
0000
0000
1000
0000
1100
0000
0000
0000
0010
0100
0010
0100
0010
0000
2002
0000
,
0000
0000
0000
3003
,
1000
1000
0001
0010
,
0001
0001
1000
0010
,
0100
0000
0100
0000
0010
0001
0010
1000
,
0000
0100
1000
0001
0100
0001
1000
0010
,
0100
0000
0000
0100
0001
0000
0010
0000
0100
0000
1000
0100
1000
0000
0001
0000
,
0000
0000
0010
0000
0001
0010
0001
0000
1000
0000
0010
1000
0010
0000
0100
0000
,
0000
0101
0000
1100
0000
0110
0000
1002
,
0000
0013
0100
0010
0001
0100
1000
0100
,
0010
1000
0001
0010
0100
1000
0010
0210
,
0000
1300
0100
0001
0010
0001
1000
0010
,
1000
0100
0001
0100
0010
0001
0100
0201
,
0000
1000
1000
0000
0310
0100
0001
0010
,
0000
0100
0001
0100
1000
0010
1000
1100
,
0000
0100
0010
0001
0100
1000
0100
0101
,
0000
0000
1100
0000
0000
0000
0001
0000
0010
0000
0100
0010
0100
0000
2000
0000
,
0000
0000
3001
0100
0001
0000
1000
0100
1000
0000
0001
0010
0001
0000
1000
0010
,
1000
1000
0100
0100
0010
0001
1000
0001
,
0100
0110
0000
1000
1001
0000
0010
0110
,
0000
0000
0001
0000
1001
0000
0000
0000
0100
0010
0100
0010
0100
0000
2002
0000
,
0000
0000
0000
0000
,
0000
0000
0000
3003
;

//--------------- dance-single - forcednature ----------------
#NOTES:
     dance-single:
     forcednature:
     Hard:
     16:
     0,0,0,0,0:
0000
0000
0000
0000
,
0000
0000
0000
0000
,
0000
0000
0000
0000
,
0000
0000
0000
0000
,
0000
0000
0000
0000
,
0000
0000
0000
0000
0000
0000
0000
1001
,
0000
0000
1000
0000
0010
0000
0100
0000
0001
0000
0100
0010
1000
0000
0002
0000
,
0000
0013
0200
0000
1300
0001
0100
1001
,
0000
0000
0001
0000
1000
0000
0100
0000
0010
0000
0001
0010
0100
0000
2000
0000
,
0000
3010
0200
0000
0301
1000
0100
1002
,
0000
0000
0010
0000
0103
0001
1000
0200
,
0000
0310
0001
0020
0000
0130
1000
2001
,
0000
0010
0010
0000
3001
1000
0100
0110
,
0000
0000
0010
0000
0001
0000
1000
0010
0100
0000
0001
1000
0100
0000
0010
0001
,
1000
1010
0000
0001
0011
0000
1000
1100
,
0000
0000
0001
0000
0101
0000
0000
0000
1000
0100
1000
0000
0001
0000
0010
0000
,
0001
0000
0100
0001
0100
0000
0010
0000
1000
0010
1000
0000
0001
0000
0010
0001
,
0010
0000
0100
0000
1000
0100
1000
0000
0010
0100
0010
1000
0001
0000
1001
0000
,
0000
0000
1000
0000
0200
0000
0310
0002
,
0000
0103
0020
0000
0030
0000
2000
0000
,
3200
0000
0000
0000
0000
0300
1000
0002
,
0000
0000
0100
0000
0000
0003
0010
0001
,
2000
0000
3010
0100
0002
0000
1003
0100
,
0020
0000
0130
1000
0002
0000
0103
0010
,
0020
0000
1030
0002
0000
0023
0000
0230
,
0000
0000
1000
0000
1300
0000
0100
0000
0010
0001
0010
0001
2000
0000
0000
0000
,
3001
0100
0010
0100
0001
0010
0100
0010
,
0001
1000
0010
1000
0100
0001
0100
1000
,
0001
0100
0010
1000
0001
0010
1000
0010
,
0100
1000
0001
0100
0110
0010
1001
0000
,
1000
0010
0100
1000
0100
0001
0010
0001
,
1000
0010
0001
0010
0100
0001
1000
0000
,
1001
0000
0001
0011
0000
1000
1010
0010
,
0000
0000
0100
0001
1000
0000
0100
0000
0010
0001
0010
0001
1000
0000
0010
0100
,
0002
0000
0000
0103
0001
0100
0001
0000
0000
1000
0100
1000
,
0100
0000
0000
0010
0001
0010
0001
0100
0001
1000
0100
1000
,
0020
0000
0000
1030
0100
1000
0100
0000
0000
0010
0001
0010
,
0001
0000
0000
1000
0010
1000
0001
0010
0001
0100
0010
0100
,
0002
0000
0000
1003
0100
0010
0001
0000
0000
1000
0010
0100
,
0001
0000
0000
1000
0010
1000
0100
0010
0001
0100
0001
0010
,
0200
0000
0000
0310
0001
1000
0010
0000
0000
0100
0001
1000
,
0100
1000
0010
0100
0001
0010
0100
1000
0001
0100
0001
1000
,
0020
0000
0000
1030
0100
0001
0100
0000
0000
1000
0010
0001
,
0010
0000
0000
0100
0001
1000
0010
1000
0001
0010
0100
1000
,
0020
0000
0000
0130
1000
0100
0001
0000
0000
0010
1000
0010
,
0001
0000
1000
0001
0100
0000
0010
1000
0001
1000
0100
0000
0010
0000
0110
0000
,
0000
0100
0001
0100
1000
0001
0100
0110
,
0000
0100
1000
0100
0001
1000
0100
0010
,
0001
0000
0001
0100
0010
0000
1000
0000
1000
0100
0010
0000
0001
0000
0001
1000
,
0010
0000
0100
0001
0100
0001
1000
0000
0100
0010
0001
1000
0010
0000
0210
0000
,
0000
0000
0301
0000
0010
0000
0100
0000
0010
0000
0001
1000
0010
0000
0100
0000
,
0001
0010
1000
0010
0001
1000
0100
0210
,
0000
0000
1300
0000
0010
0000
0100
0000
0001
0000
0010
0100
1000
0000
0001
0000
,
0100
0010
1000
0100
1000
0001
0010
0021
,
0000
1030
0010
0001
1000
0001
0100
0020
,
0000
0031
0010
1000
0001
1000
0100
0110
,
0000
0000
0010
0001
1000
0000
0010
0000
0100
0001
0100
0000
0010
0000
1000
0100
,
0010
0000
0001
0100
0010
0000
1000
0001
0010
0100
1000
0001
0100
0000
2001
0000
,
0000
0000
3010
0000
0100
0000
1000
0000
0100
0000
0001
1000
0010
0000
0100
0000
,
0001
0010
1000
0010
0001
1000
0010
1002
,
0000
0000
0013
0000
0100
0000
0001
0000
0100
0000
1000
0001
0010
0000
0100
0000
,
1000
0010
0001
0010
1000
0001
0010
1200
,
0000
0301
0100
1000
0010
0100
1000
0200
,
0000
1300
0100
0001
0010
0100
1000
1010
,
0000
0000
0001
0100
0010
0000
1000
0000
0001
0010
0100
0000
1000
0000
0010
1000
,
0001
0000
0010
0001
1000
0000
0100
1000
0001
1000
0010
0100
0001
0000
2001
0000
,
0000
0100
0100
0000
0001
3001
1000
1010
,
0000
0010
0100
0001
0100
0010
1000
0001
,
0010
1000
0010
0001
0100
1000
0100
0001
,
0010
0100
0001
0100
1000
1000
0010
0210
,
0000
0000
0001
0000
0301
0000
0100
0001
1000
0000
0010
1000
0001
0000
0010
0100
,
1000
0100
1000
0000
0100
0010
0100
0000
0010
0001
0010
0000
0001
1000
0001
0000
,
0100
0000
0100
0001
1000
0000
0100
0000
0100
1000
0001
0000
0010
0000
0010
0001
,
1000
0000
0010
0000
0010
1000
0001
0000
1000
0100
0010
0001
0100
0000
1002
0000
,
0000
0000
0100
0000
0100
0000
0103
0001
,
0000
0010
0100
1000
0100
0000
1000
0020
,
0000
0130
0001
1000
0001
0000
0001
0020
,
0000
0130
1000
0001
0100
1000
0100
0110
,
0000
0000
0010
0000
1000
0000
0001
0000
0010
0000
0100
1000
0100
0000
0010
0000
,
0001
0100
0001
0100
0010
0000
1000
0100
1000
0100
0010
0000
0100
0000
1001
0000
,
0000
0000
1000
0000
1000
0001
0100
0000
0001
0000
0001
1000
0100
0000
0010
0001
,
0010
0000
0100
1000
0100
0000
1000
0001
0100
0010
1000
0001
0010
0000
2001
0000
,
0000
0000
3010
0000
0001
0000
0010
0000
0100
0000
0001
1000
0100
0000
0010
0000
,
0001
0000
0100
0001
0100
0000
0010
0000
1000
0000
0010
1000
0010
0000
1002
0000
,
0000
0000
0013
0000
1000
0000
0010
0000
0100
0000
1000
0001
0100
0000
0010
0000
,
1000
0000
0100
1000
0100
0000
0010
0000
0001
0000
0010
0001
0010
0000
0210
0000
,
0000
0301
0100
1000
0010
0001
0010
0200
,
0000
1300
0100
0001
0010
1000
0010
0110
,
0000
0000
0100
1000
0001
0000
0100
0000
0010
1000
0001
0000
0010
0000
0100
0010
,
0001
0000
0100
0010
1000
0000
0100
1000
0001
1000
0010
0100
0001
0000
1002
0000
,
0000
0000
0013
0001
0010
0000
0100
1000
0100
0000
0010
0001
0010
0000
0100
0000
,
1000
0010
1000
0010
0100
0000
0001
0010
0001
0010
0100
1000
0001
0000
0100
0010
,
1000
0000
1000
0001
0010
0000
0001
0000
0001
1000
0010
0000
0100
0000
0100
0001
,
0010
0000
0100
0000
0100
1000
0010
0000
0100
0001
1000
0100
0010
0000
2002
0000
,
0000
0000
0000
0000
,
0000
0000
0000
3003
;

//--------------- dance-double - forcednature ----------------
#NOTES:
     dance-double:
     forcednature:
     Easy:
     9:
     0,0,0,0,0:
00000000
00000000
00000000
00000000
,
00000000
00000000
00000000
00000000
,
00000000
00000000
00000000
00000000
,
00000000
00000000
00000000
00000000
,
00000000
00000000
00000000
00000000
,
00000000
00000000
00000000
00000000
00000000
00000000
00000000
00022000
,
00000000
00033000
00001000
00000000
01000000
00000000
00010000
01000000
,
00000000
00000000
00100000
00000000
10000000
00000000
01000000
02000000
,
00000000
03000000
00100000
00000000
00001000
00000000
00010000
00001000
,
00000000
00000000
00010000
00000000
00000010
00000000
00001000
00002000
,
00000000
00000000
00000100
00000000
00000100
00003000
00000000
00000002
,
00000000
00000000
00000000
00000023
00000000
00000030
00000000
00002002
,
00000000
00003003
00000000
00000000
00001000
00000000
00000000
00000000
00000100
00000000
00000000
00000000
00010000
00000000
00002000
00000000
,
00000000
01003000
00001000
00010000
,
00000010
00010000
00000000
00000010
00010000
00000000
00001000
00100000
,
00000000
00001000
00100000
00000000
00010000
00000000
00000000
00000000
,
01000000
00001000
00000000
01000000
00001000
00000000
00010000
00000100
,
00000000
00010000
00000100
00000000
00001000
00000000
00000000
00002002
,
00000000
00003003
00000001
00000000
,
00000010
00000100
00000000
00001000
,
00000020
00000000
00010030
00001000
,
00200000
00000000
01300000
10000000
,
00020000
00030000
02000000
03000000
,
00002000
00003000
00020000
00000000
,
00030100
00000000
00000000
00010000
00000000
00000000
00001000
00000000
,
00000000
01000000
00000000
00000000
00020000
00000000
00130000
00000000
,
01100000
01000000
10000000
00010000
,
00010000
01000000
00001000
00010000
,
00000100
00001000
00000010
00000100
,
00000100
00000001
00001001
00001001
,
00001000
00000100
00010000
00001000
,
01000000
00010000
00100000
01000000
,
00100000
00000000
00001000
00010000
00000000
00001000
00010000
00000000
,
00000010
00000000
00001000
00000100
00000000
00000010
00000000
00001001
,
00000000
00000001
00000100
00000010
,
00002000
00000000
00000000
00003200
00000000
00000000
00002300
00000000
,
00003000
00000010
00010000
00001000
,
00200000
00320000
02030000
03020000
,
00030000
10000000
00100000
10000000
,
00020000
00000000
00000000
00230000
00000000
00000000
00320000
00000000
,
00030000
01000000
00001000
00010000
,
00000100
00001000
00000001
00000010
,
00000110
00000100
00001000
00000010
,
00020000
00000000
00000000
00032000
00000000
00000000
00023000
00000000
,
00031000
01000000
00010000
01000000
,
00100000
00000000
00100000
00000000
10000000
00000000
00010000
00100000
,
00000000
00000000
01000000
00000000
00100000
00000000
00001000
00010000
,
00000000
00000010
00001000
00000010
,
00010000
00000100
00000000
00010000
00001000
00000000
01000000
00001000
,
00000000
00010000
00001000
00000000
00100000
00000000
00000000
02000000
,
00000000
03000000
10000000
00000000
00010000
00000000
01000000
00000000
,
00001000
00000000
00010000
00000000
00000100
00000000
00000000
00002000
,
00000000
00003000
00000001
00000000
00000100
00000000
00000001
00000000
,
00000010
00000000
00000100
00000000
00001000
00000000
00000000
00000020
,
00000000
00001000
00001030
00000010
,
00000000
00000000
00010000
00000000
00001000
00000000
00100000
00010000
,
00000000
00000000
00010000
00000000
01000000
00000000
00100000
10000000
,
00000000
10000000
00000000
10000000
00000000
01000000
00000000
00200000
,
00000000
00300000
00001000
00000000
00010000
00000000
00000100
00000000
,
00010000
00000000
00000010
00000000
00001000
00000000
00000010
00000200
,
00000000
00000300
00000001
00000000
00001000
00000000
00000001
00000000
,
00000010
00000000
00000100
00000000
00001000
00000000
00000100
00020000
,
00000000
00000010
00030010
00010000
,
00000000
00000000
00001000
00000000
01000000
00000000
00010000
00100000
,
00000000
00000000
01000000
00000000
00100000
00000000
00001000
00010000
,
00000000
00010000
00000000
00000010
00000000
00001000
00000000
00002002
,
00000000
00000000
00000000
00000000
,
00000000
00000000
00000000
00000000
00000000
00003003
00000000
00000000
,
00000001
00000010
00000100
00010000
,
00001000
00000000
00001000
00000000
01000000
00000000
00000000
00020000
,
00000000
00130000
00100000
00001000
,
00001000
00010000
00010000
00000010
,
00010000
00000100
00000000
00010000
00001000
00000000
01000000
00001000
,
00000000
00010000
00001000
00000000
00100000
00001000
00000000
00200000
,
00000000
00000000
00000000
00000000
,
00300000
00000000
00000000
00000000
,
00000000
00000000
00000000
00000000
,
00000000
00000000
00000000
00000000
00000000
00000000
00000000
00011000
,
00000000
00001000
00010000
00000100
,
00001000
00000000
00001000
00000000
00000001
00000000
00000001
00000100
,
00000000
00000000
00000010
00000000
00001000
00000000
00000010
00010000
,
00000000
00010000
00000000
00001000
00000000
00100000
00000000
00020000
,
00000000
00030000
10000000
00000000
00100000
00000000
10000000
00000000
,
00010000
00000000
00100000
00000000
00001000
00000000
00010000
00000020
,
00000000
00000030
00001000
00000000
00000001
00000000
00000010
00000000
,
00000001
00000000
00001000
00000000
00000100
00000000
00010000
00002000
,
00000000
01000000
01003000
00001000
,
00000000
00000000
00100000
00000000
00100000
00000000
01000000
10000000
,
00000000
00000000
00010000
00000000
01000000
00000000
00001000
00010000
,
00000000
00010000
00000000
00000100
00000000
00001000
00000000
00001001
,
00000000
00000001
00000100
00000001
,
00000010
00000010
00000100
00010000
,
00000010
00001000
00000000
00000010
00010000
00000000
00001000
00100000
,
00000000
00010000
00100000
00000000
01000000
00000000
00000000
20020000
,
00000000
00000000
00000000
00000000
,
00000000
00000000
00000000
30030000
;

//--------------- dance-double - forcednature ----------------
#NOTES:
     dance-double:
     forcednature:
     Medium:
     13:
     0,0,0,0,0:
00000000
00000000
00000000
00000000
,
00000000
00000000
00000000
00000000
,
00000000
00000000
00000000
00000000
,
00000000
00000000
00000000
00000000
,
00000000
00000000
00000000
00000000
,
00000000
00000000
00000000
00000000
00000000
00000000
00000000
00021000
,
00000000
00030100
00001000
00000010
00000100
00000001
00000010
00000100
,
00000000
00010000
00001000
00000000
01000000
00010000
00100000
02000000
,
00000000
03100000
00001000
00010000
00000010
00001000
00000100
00000010
,
00000000
00000001
00000100
00000000
00001000
00000100
00000010
00002000
,
00000000
00000000
00000100
00000000
00000001
00000000
00003010
00020000
,
00000100
00000000
00031000
00200000
00010000
00000000
01300000
01100000
,
00000000
00100000
00010000
00000000
01000000
00001000
00010000
00011000
,
00000000
00000100
00001000
00000001
00000100
00000010
00001000
00000010
,
00010000
00010000
00000000
00001000
00001000
00000000
00100000
00100000
,
00000000
00010000
00010000
00000000
01000000
10000000
01000000
00010000
,
00100000
00100000
00000000
00001000
00001000
00000000
00010000
00010000
,
00000000
00000010
00000010
00000000
00000100
00000001
00000000
00001001
,
00000000
00000000
00001000
00000000
00000100
00000000
00010000
00002000
,
00000000
01003000
00020000
00000000
00030000
00000000
00200000
00000000
,
02300000
00000000
00000000
00000000
00000000
03000000
10000000
00020000
,
00000000
00000000
00000000
00000000
00030000
00000000
01000000
00001000
,
00020000
00000000
00030000
00000100
00002000
00000000
00003000
00000001
,
00000200
00000000
00000300
00000010
00020000
00000000
00032000
00000000
,
00203000
00000000
00310000
02000000
00000000
03200000
00000000
20300000
,
00000000
01000000
31000000
00000000
00100000
00001000
00010000
00000000
,
00011000
00000000
00001000
00010000
00000100
00010000
00001000
00000010
,
00000000
00000100
00001000
00000001
00000000
00000100
00001000
00010000
,
00001000
00000000
01000000
00010000
00000000
00100000
01000000
00100000
,
00000000
00001000
00010000
00100000
10000000
00010000
10000000
00000000
,
11000000
00000000
01000000
00100000
00001000
00000000
00010000
00000100
,
00000010
00000100
00001000
00000001
00000100
00000000
00000010
00010000
,
00001000
00000000
01000000
10000000
00000000
01000000
00010000
00100000
,
00000000
01000000
00010000
00001000
00000000
00011000
00000000
00010000
,
00000200
00000000
00000000
00001300
00000010
00001000
00000010
00000000
00000000
00010000
00001000
00010000
,
00001000
00000000
00000000
00100000
00000000
00100000
00010000
00000000
00010000
10000000
00000000
10000000
,
00200000
00000000
00000000
01300000
00010000
01000000
00001000
00000000
00000000
00010000
00000100
00001000
,
00000100
00000000
00000000
00000010
00000000
00000010
00000001
00000000
00000001
00001000
00000000
00001000
,
00000020
00000000
00000000
00010030
00001000
00100000
00010000
00000000
00000000
10000000
00100000
10000000
,
01000000
00000000
00000000
00100000
00000000
00100000
00001000
00000000
00001000
00010000
00000000
00010000
,
00000020
00000000
00000000
00001030
00000100
00001000
00000001
00000000
00000000
00000100
00000001
00000100
,
00000010
00000000
00000010
00010000
00000000
00010000
00001000
00000000
00001000
00100000
00000000
00100000
,
00020000
00000000
00000000
01030000
00100000
10000000
00100000
00000000
00000000
10000000
01000000
00100000
,
01000000
00000000
00000000
00100000
00000000
00100000
00001000
00000000
00001000
00010000
00000000
00010000
,
00000020
00000000
00000000
00001030
00000100
00000010
00000001
00000000
00000000
00000001
00000100
00000010
,
00020000
00000000
00001000
00000000
00000100
00000000
00031000
00011000
,
00000000
00010000
00100000
01000000
00100000
10000000
00000000
10010000
,
00000000
00010000
00100000
01000000
00100000
00001000
00010000
00000010
,
00001000
00001000
00000000
00000100
00000100
00000000
00010000
00010000
,
00000000
00000000
00001000
00000000
00100000
00000000
00100000
00000000
00010000
00000000
01000000
00010000
01000000
00000000
00200000
00000000
,
00000000
10300000
01000000
00100000
01000000
10000000
00010000
00100000
,
00010000
00001000
00000010
00001000
00000100
00000001
00000100
00000020
,
00000000
00000031
00000100
00001000
00000100
00000010
00001000
00010000
,
01000000
00010000
00100000
01000000
00100000
00001000
00010000
00000020
,
00000000
00001000
00001000
00000000
00000130
00000010
00001000
00000001
,
00000000
00000010
00001000
00000000
00011000
00000000
00010000
00100000
,
00000000
01000000
00010000
10000000
01000000
00100000
00001000
00010000
,
00000000
00000000
00010010
00000000
00000000
00000000
00000010
00000000
00001000
00000000
00000010
00000100
00000010
00000000
00000200
00000000
,
00000000
00000301
00000010
00000100
00000010
00001000
00010000
00001000
,
01000000
00010000
01000000
00100000
00010000
00100000
10000000
02000000
,
00000000
03100000
00001000
00010000
00000100
00010000
00001000
00000100
,
00000001
00000010
00000001
00000100
00001000
00010000
00100000
20000000
,
00000000
01000000
01000000
00000000
30100000
10000000
00010000
00100000
,
00000000
01000000
00010000
00001000
00010000
00000100
00001000
00000001
,
00000000
00000100
00001000
00000100
00000001
00000010
00000100
00010000
,
00000000
00000000
00011000
00000000
00000000
00000000
00001000
00000000
01000000
00010000
01000000
00000000
00100000
00000000
20200000
00000000
,
00000000
00000000
00000000
00000000
,
00000000
00000000
00000000
00000000
00000000
30300000
00000000
10000000
,
01000000
00010000
00001000
00000100
00000001
00000010
00000100
00001000
,
00000010
00010000
00001000
00100000
01000000
01000000
00100000
00002000
,
00000000
01000000
00010000
00103000
,
00001000
00010000
00001000
00000010
00000100
00000010
00000001
00001000
,
00000001
00000001
00000000
00000100
00000100
00000000
00001000
00001000
,
00000000
00000000
00010000
00000000
00010000
00000000
00000000
00000000
01000000
00000000
01000000
00100000
01000000
00000000
20020000
00000000
,
00000000
00000000
00000000
30030000
,
10000000
01000000
00100000
00010000
,
00001000
00000100
00000010
00000001
,
00000001
00000000
00000100
00000000
00000010
00001000
00000010
00010000
,
00000000
00001000
00100000
01000000
00100000
00010000
01000000
00100000
,
10000000
00000000
00000000
10000000
01000000
00000000
00010000
00000000
00001000
00000000
00000010
00000000
00000010
00000000
00000100
00000000
,
00000000
00000000
00001000
00000000
00000100
00001000
00000100
00000000
00010000
00000000
00001000
00010000
00001000
00000000
01000000
00000000
,
00000000
01010000
00000000
01001000
00000000
00010100
00000000
00001200
,
00000000
00000310
00000100
00010000
00001000
00100000
01000000
00100000
,
00001000
00010000
00100000
10000000
00010000
10000000
01000000
00200000
,
00000000
00301000
00010000
00000100
00001000
00000010
00000001
00000010
,
00000100
00000001
00000010
00000001
00001000
00000010
00010000
00002000
,
00000000
00000010
00000010
00000000
00013000
00001000
01000000
00100000
,
00000000
10000000
01000000
00010000
00001000
00000100
00000001
00000010
,
00000000
00000100
00010000
00001000
00100000
00001000
00010000
00100000
,
00000000
00000000
01100000
00000000
00000000
00000000
01000000
00000000
00001000
00000000
00010000
00001000
00010000
00000000
00000200
00000000
,
00000000
00001300
00000010
00000001
00000010
00001000
00010000
01000000
,
00100000
00100000
10000000
10000000
01000000
00010000
00001000
00000010
,
00000100
00000100
00000000
00010000
00010000
00000000
00001000
00001000
,
00000000
00000000
01000000
00000000
01000000
00000000
00000000
00000000
00001000
00000000
00001000
00010000
00001000
00000000
00200000
00000000
,
00000000
00000000
00000000
00000000
,
00000000
00000000
00000000
00300000
;

//--------------- dance-double - forcednature ----------------
#NOTES:
     dance-double:
     forcednature:
     Hard:
     16:
     0,0,0,0,0:
00000000
00000000
00000000
00000000
,
00000000
00000000
00000000
00000000
,
00000000
00000000
00000000
00000000
,
00000000
00000000
00000000
00000000
,
00000000
00000000
00000000
00000000
,
00000000
00000000
00000000
00000000
00000000
00000000
00000000
00011000
,
00000000
00000000
00010000
00000000
00001000
00000000
01000000
00000000
00100000
00000000
01000000
00010000
10000000
00000000
02000000
00000000
,
00000000
03010000
00002000
00000000
00103000
00001000
00010000
00011000
,
00000000
00000000
00001000
00000000
00010000
00000000
00000100
00000000
00001000
00000000
00000010
00000100
00000001
00000000
00000020
00000000
,
00000000
00000130
00020000
00000000
00031000
00000100
00000001
00000021
,
00000000
00000000
00000100
00000000
00000031
00000010
00000100
00020000
,
00000000
00031000
00100000
02000000
00000000
13000000
00100000
02100000
,
00000000
00010000
00010000
00000000
03001000
00010000
00000100
00000110
,
00000000
00000000
00000010
00000000
00000001
00000000
00001000
00000001
00000100
00000000
00000010
00010000
00001000
00000000
00100000
00001000
,
01000000
01010000
00000000
00100000
00101000
00000000
00000010
00010010
,
00000000
00000000
00000100
00000000
00001100
00000000
00000000
00000000
00000001
00001000
00000001
00000000
00000100
00000000
00000010
00000000
,
00001000
00000000
00000010
00010000
00001000
00000000
01000000
00000000
00010000
01000000
00001000
00000000
00100000
00000000
00001000
00010000
,
00000100
00000000
00001000
00000000
00000100
00010000
00001000
00000000
01000000
00010000
01000000
00100000
10000000
00000000
10010000
00000000
,
00000000
00000000
10000000
00000000
02000000
00000000
03010000
00002000
,
00000000
00103000
00020000
00000000
00030000
00000000
02000000
00000000
,
03002000
00000000
00000000
00000000
00000000
00003000
00010000
00000200
,
00000000
00000000
00000010
00000000
00000000
00000300
00001000
00000001
,
00000200
00000000
00000310
00010000
00002000
00000000
00103000
00010000
,
02000000
00000000
03100000
10000000
00020000
00000000
00130000
00001000
,
00002000
00000000
00013000
00000020
00000000
00002030
00000000
00003200
,
00000000
00000000
00000010
00000000
00000310
00000000
00000100
00000000
00001000
00000001
00001000
00000001
00000200
00000000
00000000
00000000
,
00001300
01000000
00010000
01000000
00010000
00100000
01000000
00010000
,
00001000
01000000
00010000
01000000
00100000
00010000
00001000
00000100
,
00000010
00001000
00000010
00010000
00001000
00000010
00000100
00010000
,
00001000
00000100
00000001
00000010
00000100
00010000
00100000
00000000
,
00011000
00000000
00010000
00001000
01000000
00010000
00100000
00010000
,
10000000
00100000
00010000
00100000
01000000
00001000
00010000
00000000
,
00011000
00000000
00000100
00010100
00000000
01000000
01001000
00001000
,
00000000
00000000
00100000
00010000
01000000
00000000
00001000
00000000
00010000
00000100
00010000
00000100
00001000
00000000
00000001
00000100
,
00000020
00000000
00000000
00001030
00000010
00010000
00001000
00000000
00000000
00001000
01000000
00010000
,
01000000
00000000
00000000
00100000
01000000
00100000
00010000
00001000
00010000
01000000
10000000
01000000
,
00200000
00000000
00000000
00310000
00100000
00001000
00010000
00000000
00000000
00010000
00000100
00001000
,
00000100
00000000
00000000
00000010
00000100
00000010
00001000
00010000
00001000
00000100
00000001
00000100
,
00000020
00000000
00000000
00001030
00000100
00010000
00001000
00000000
00000000
00100000
00001000
00010000
,
01000000
00000000
00000000
01000000
10000000
00100000
01000000
00100000
00010000
00001000
00010000
01000000
,
00200000
00000000
00000000
00310000
01000000
00001000
00010000
00000000
00000000
00000010
00010000
00001000
,
00000100
00000001
00000010
00000001
00000100
00000010
00001000
00000100
00000010
00000100
00010000
00001000
,
00200000
00000000
00000000
01300000
00010000
01000000
10000000
00000000
00000000
10000000
00100000
00010000
,
00100000
00000000
00000000
01000000
00001000
00010000
00000010
00010000
00001000
00000010
00000100
00001000
,
00000020
00000000
00000000
00000130
00001000
00000100
00000001
00000000
00000000
00000001
00000010
00001000
,
00000010
00000000
00000100
00010000
00001000
00000000
01000000
00010000
01000000
00100000
10000000
00000000
01000000
00000000
01100000
00000000
,
00000000
00100000
00001000
00010000
00001000
00000010
00000100
00000110
,
00000000
00000010
00000001
00000100
00001000
00010000
00001000
00100000
,
00010000
00000000
00010000
01000000
00001000
00000000
00010000
00000000
00010000
00000100
00001000
00000000
00000010
00000000
00000010
00010000
,
00001000
00000000
00100000
00010000
00100000
00010000
01000000
00000000
00100000
10000000
00010000
10000000
01000000
00000000
01200000
00000000
,
00000000
00000000
00301000
00000000
00010000
00000000
00000010
00000000
00000100
00000000
00000001
00001000
00000100
00000000
00000010
00000000
,
00001000
00000010
00000001
00001000
00000001
00000100
00000010
00000120
,
00000000
00000000
00010030
00000000
00001000
00000000
00100000
00000000
01000000
00000000
10000000
00010000
01000000
00000000
00100000
00000000
,
00010000
00100000
10000000
00010000
10000000
01000000
00100000
00102000
,
00000000
00003100
00001000
01000000
00001000
00010000
00000010
00020010
,
00000000
01030000
00010000
00001000
00010000
00000100
00000010
00000110
,
00000000
00000000
00000100
00000000
00001000
00000000
00000001
00000000
00000100
00000000
00001000
00000000
00010000
00000000
00100000
01000000
,
00010000
00000000
00100000
01000000
10000000
00000000
00010000
01000000
00001000
00010000
00000010
00001000
00000100
00000000
00000210
00000000
,
00000000
00000000
00010300
00000000
00001000
00000000
01000000
00000000
00100000
00000000
10000000
00010000
00100000
00000000
01000000
00000000
,
00010000
01000000
10000000
00010000
10000000
00100000
01000000
02100000
,
00000000
00000000
03001000
00000000
00010000
00000000
00000100
00000000
00000010
00000000
00000001
00001000
00000010
00000000
00000100
00000000
,
00001000
00000100
00000001
00001000
00000001
00000010
00000100
00020100
,
00000000
00130000
00010000
00000010
00010000
00001000
01000000
01002000
,
00000000
00003010
00001000
00010000
00001000
00100000
01000000
01100000
,
00000000
00000000
00100000
00000000
00010000
00000000
10000000
00000000
00100000
00000000
00010000
00000000
00001000
00000000
00000100
00000010
,
00001000
00000000
00000100
00000010
00000001
00000000
00001000
00000010
00010000
00001000
01000000
00010000
00100000
00000000
02100000
00000000
,
00000000
00010000
00010000
00000000
10000000
13000000
01000000
01100000
,
00000000
00100000
00001000
00010000
00001000
00000100
00000001
00001000
,
00000001
00000010
00001000
00010000
00100000
10000000
01000000
00010000
,
00001000
00010000
00100000
01000000
00001000
00001000
00010000
00010200
,
00000000
00000000
00001000
00000000
00001300
00000000
00000100
00010000
00001000
00000000
01000000
00001000
00010000
00000000
00000010
00001000
,
00000010
00010000
00001000
00000000
00100000
00001000
00010000
00000000
00000100
00010000
00001000
00000000
01000000
00001000
00010000
00000000
,
00000010
00000000
00000010
00001000
00000100
00000000
00010000
00000000
00010000
00001000
01000000
00000000
00010000
00000000
00010000
00100000
,
01000000
00000000
10000000
00000000
10000000
00100000
01000000
00000000
00010000
00100000
00001000
00010000
00000010
00000000
00020010
00000000
,
00000000
00000000
01000000
00000000
01000000
00000000
01030000
00010000
,
00000000
00001000
00000100
00001000
00010000
00000000
00100000
20000000
,
00000000
31000000
00010000
00001000
00000010
00000000
00000010
00000002
,
00000000
00000103
00001000
00010000
01000000
10000000
01000000
01100000
,
00000000
00000000
00100000
00000000
00001000
00000000
00010000
00000000
00000010
00000000
00001000
00000010
00001000
00000000
00000100
00000000
,
00000010
00000100
00001000
00000100
00010000
00000000
00001000
01000000
00010000
01000000
00100000
00000000
10000000
00000000
10010000
00000000
,
00000000
00000000
00010000
00000000
00010000
01000000
00001000
00000000
00010000
00000000
00010000
00000100
00001000
00000000
00000010
00000100
,
00000010
00000000
00001000
00000010
00001000
00000000
00000100
00010000
00001000
01000000
00010000
01000000
00100000
00000000
10020000
00000000
,
00000000
00000000
00031000
00000000
00010000
00000000
01000000
00000000
00001000
00000000
00010000
00000100
00001000
00000000
00000010
00000000
,
00000001
00000010
00000100
00000001
00000010
00000100
00001000
00002001
,
00000000
00000000
00013000
00000000
00001000
00000000
00000100
00000000
00010000
00000000
00001000
01000000
00010000
00000000
00100000
00000000
,
10000000
00100000
01000000
10000000
00100000
01000000
00010000
00102000
,
00000000
00003100
00001000
00010000
00000010
00000100
00001000
00020010
,
00000000
01030000
00010000
00001000
00100000
01000000
00010000
00011000
,
00000000
00000000
00001000
00010000
00000100
00000000
00001000
00000000
00000010
00000100
00000001
00000000
00000010
00000000
00000100
00010000
,
00001000
00000000
01000000
00001000
00010000
00000000
00100000
01000000
00100000
10000000
00010000
10000000
01000000
00000000
01200000
00000000
,
00000000
00000000
00310000
00100000
00010000
00000000
00100000
00001000
00100000
00000000
00001000
00010000
00001000
00000000
00000100
00000000
,
00000001
00000010
00000100
00000010
00000100
00000000
00001000
00000100
00010000
00001000
00010000
00001000
01000000
00000000
00100000
10000000
,
00010000
00000000
00010000
00100000
01000000
00000000
00100000
00000000
00100000
00001000
00010000
00000000
00000010
00000000
00000010
00001000
,
00000100
00000000
00010000
00000000
00010000
00000010
00001000
00000000
00000100
00010000
00001000
01000000
00010000
00000000
20020000
00000000
,
00000000
00000000
00000000
00000000
,
00000000
00000000
00000000
30030000
;
