#TITLE:ウツシミウツシ;
#SUBTITLE:;
#ARTIST:BEMANI Sound Team "PHQUASE" feat.ぁゅ;
#TITLETRANSLIT:Utsushimi utsushi;
#SUBTITLETRANSLIT:;
#ARTISTTRANSLIT:PHQUASE feat. ayu;
#GENRE:ALTERNATIVE DANCE CORE;
#CREDIT:;
#MUSIC:Utsushimi utsushi.ogg;
#BANNER:Utsushimi utsushi.png;
#BACKGROUND:Utsushimi utsushi-bg.png;
#CDTITLE:./CDTitles/bm IIDX 29 CastHour.png;
#SAMPLESTART:59.039;
#SAMPLELENGTH:15.000;
#SELECTABLE:YES;
#OFFSET:0.418;
#BPMS:0.000=175.000;
#STOPS:172.000=1.029;
#BGCHANGES:;
#FGCHANGES:;

//--------------- dance-single - forcednature ----------------
#NOTES:
     dance-single:
     forcednature:
     Beginner:
     2:
     0,0,0,0,0:
0000
0000
0000
0000
,
0000
0000
0000
0000
,
0000
0000
0000
0000
,
0000
0000
0000
0000
,
0000
0000
0000
0000
,
0000
0000
0000
0000
,
0000
0010
0000
0000
,
0000
0000
0000
0000
,
0000
0000
0000
0000
,
0000
0000
0000
0000
,
1000
0000
0000
0000
,
0100
0000
0000
0000
,
1000
0000
0000
0000
,
0001
0000
0000
0000
,
0100
0000
0000
0000
,
0010
0000
0000
0000
,
1000
0000
0000
0000
,
0000
0000
0000
0000
,
1000
0000
0000
0000
,
0001
0000
0000
0000
,
0010
0000
0000
0000
,
0001
0000
0000
0000
,
0000
0100
0000
0000
,
0010
0000
0000
0000
,
1000
0000
0000
0000
,
0100
0000
0000
0000
,
1001
0000
0000
0000
,
1000
0000
0000
0000
,
0001
0000
0000
0000
,
0100
0000
0000
0000
,
0010
0000
0000
0000
,
1000
0000
0000
0000
,
0001
0000
0000
0000
,
0010
0000
0000
0000
,
0100
0000
0000
0000
,
1000
0000
0000
0000
,
0010
0000
0000
0000
,
1000
0000
0000
0000
,
0001
0000
0000
0000
,
0100
0000
0000
0000
,
0001
0000
0001
0000
,
0010
0000
0010
0000
,
0200
0000
0000
0000
,
0300
1000
0000
0001
,
0000
1000
0000
0000
,
0000
0001
0000
0100
,
0000
0001
0000
0000
,
0000
1000
0000
0100
,
0000
1000
0000
0000
,
0000
0001
0000
0010
,
0000
0001
0000
0000
,
0000
0100
0000
0100
,
0000
0100
0000
0000
,
0000
0001
0000
0001
,
0000
0001
0000
0000
,
0000
1000
0000
1000
,
0000
1000
0000
0000
,
0000
0100
0000
0100
,
0000
0100
0000
0000
,
0000
0010
0000
0010
,
0000
0001
0000
0001
,
0000
1000
0000
1000
,
0000
0010
0000
0010
,
0000
0100
0000
0000
,
0000
0001
0000
0000
,
0000
1000
0000
0000
,
0000
0100
0000
0000
,
0000
0010
0000
0000
,
0000
0001
0000
0000
,
0000
0100
0000
0000
,
0000
0010
0000
0000
,
0000
0000
1001
0000
,
0000
0000
0110
0000
,
0000
0000
0000
1000
,
0000
0000
0001
0000
,
0000
0100
0000
0000
,
0000
0010
0000
0000
,
0000
1000
0000
0000
,
0000
0001
0000
0000
,
0000
0010
0000
0010
,
0000
0100
0000
0100
,
0000
1000
0000
1000
,
0000
0001
0000
0001
,
0000
0100
0000
0000
,
0000
0010
0000
0000
,
0000
1000
0000
0000
,
0000
0001
0000
0000
,
0000
1001
0000
0000
;

//--------------- dance-single - forcednature ----------------
#NOTES:
     dance-single:
     forcednature:
     Easy:
     7:
     0,0,0,0,0:
0000
0000
0000
0000
,
0000
0000
0000
0000
,
0000
0000
0000
0000
,
0000
0000
0000
0000
,
0000
0000
0000
0000
,
0000
0000
0000
0000
,
0000
1001
0000
1000
,
0000
0001
0000
0001
,
0000
0100
0100
0001
,
0001
0010
0100
1000
,
0000
0001
0100
0001
,
1000
0010
1000
0001
,
0000
1000
0100
0010
,
0001
0010
0100
1000
,
0000
0010
0100
0001
,
0010
0001
0100
0010
,
1000
0000
0000
0000
0001
0000
0000
0020
,
0000
0000
0000
0030
0000
0100
0000
0000
,
1001
0000
0001
0100
,
0001
1000
0010
1000
,
0001
0000
0010
0100
,
1000
0100
1000
0010
,
0000
0110
0000
0100
,
0001
0010
0001
1000
,
0010
0000
0100
0000
,
0001
0010
0100
1000
,
0001
0000
0000
0000
,
0100
0000
0000
0000
,
0010
0000
0000
0000
,
2000
0000
3200
0000
,
0320
0000
0030
0000
,
0001
0000
0000
0000
,
0100
0000
0000
0000
,
0020
0000
0000
0000
,
1030
0000
0000
1000
0000
0000
1000
0000
,
0001
0000
0000
0001
0000
0000
0001
0000
,
0100
0000
0000
0100
0000
0000
0100
0000
,
0010
0000
0000
0010
0000
0000
0010
0000
,
1000
0000
0100
0000
,
0020
0000
0030
0000
,
0001
0000
0100
0000
,
0010
1000
0010
1000
,
0002
0000
0000
0000
,
0013
0100
1000
0100
,
0000
0010
0001
0010
,
0000
0001
0100
0001
,
1000
0100
1000
0001
,
0000
0100
0010
0100
,
0000
0001
1000
0001
,
0000
0010
0100
1000
,
0100
0010
0001
1000
,
0000
0010
0100
0001
,
0000
0010
0100
1000
,
0000
0001
0100
0001
,
1000
0100
1000
0010
,
0000
1000
0100
0010
,
0000
0001
0010
0100
,
0000
1000
0001
0100
,
0001
0010
0010
0010
,
0000
0110
0000
1001
,
0000
1100
0000
0011
,
0000
0101
0000
1010
,
0000
1001
0000
1000
,
0100
0010
0000
0001
,
0100
0001
0000
1000
,
0100
1000
0000
0010
,
1000
0010
0000
0100
,
0001
0100
0000
0001
,
0010
0001
0000
1000
,
0100
1000
0000
0010
,
1000
0000
0010
0000
0000
0010
0000
0000
,
0010
0000
0220
0000
,
0000
0330
2002
0000
,
0000
3003
0000
1000
,
0000
0001
0000
0001
0000
0002
0000
0000
,
0003
0100
0000
0010
,
1000
0010
0000
0100
,
0001
1000
0100
0010
,
0001
2002
0000
0000
,
3003
1010
0000
0101
,
0000
0011
0000
1100
,
0000
0101
0000
1100
,
0000
1010
0000
0011
,
0000
1000
0100
1000
,
0000
0001
0100
0001
,
0000
0010
0100
1000
,
0001
0000
0100
0000
0000
0100
0000
0000
,
0010
1001
0000
0000
;

//--------------- dance-single - forcednature ----------------
#NOTES:
     dance-single:
     forcednature:
     Medium:
     12:
     0,0,0,0,0:
0000
0000
0000
0000
,
0000
0000
0000
0000
,
0000
0000
0000
0000
,
0000
0000
0000
0000
,
0000
0000
0000
0000
,
0000
0000
0000
0000
,
0000
1001
0000
2000
,
3002
0000
0003
0200
0000
0300
0020
0000
,
1030
0100
1000
0001
,
0100
0010
0100
0010
1000
0001
0010
0000
,
0100
1000
0100
0000
0010
0001
0010
0000
,
0001
0100
0010
1000
0010
0100
0001
0000
,
1000
0100
1000
0000
0001
0100
0001
0000
,
0010
0100
1000
0001
0100
0010
1000
1000
,
0001
0010
0001
0000
1000
0010
1000
0000
,
1100
0000
0101
0000
1000
0001
1000
0000
,
0020
0000
0130
0001
0020
0000
0130
2000
,
0000
0000
0000
0000
0000
0000
3000
0000
0000
0000
0010
0000
0000
0100
0000
0000
,
1001
0000
0001
0000
1000
0010
0100
0000
,
0001
0010
0001
0100
0010
1000
0100
1000
,
0010
0000
0101
0000
1000
0001
0010
0000
,
0100
1000
0001
0100
0010
1000
0001
0001
,
0000
0000
0110
0000
1000
0001
0100
0001
,
0010
0200
2300
3002
,
0103
0000
1000
0100
0000
0001
0020
0000
,
0130
0000
0000
1000
0000
0000
0100
0000
0000
1000
0000
0000
0010
0000
0000
0000
,
0110
0110
2000
3000
,
0002
0003
0020
0030
,
0110
0110
0002
0003
,
2000
0000
0000
0000
3020
0000
0000
0030
,
0101
0101
2000
3000
,
0002
0003
0020
0030
,
1100
1100
0002
0003
,
0200
0000
0310
1000
0010
1000
0010
1000
,
0001
0000
0000
0010
0000
0000
0100
0000
0000
0010
0000
0000
0001
0000
0001
0000
,
1000
0000
0000
0010
0000
0000
0100
0000
0000
0010
0000
0000
1000
0000
1000
0000
,
0100
0000
0000
0001
0000
0000
0100
0000
0000
1000
0000
0000
0010
0000
0010
0000
,
0100
0000
0000
1000
0000
0000
0100
0000
0000
0001
0000
0000
0010
0000
0010
0000
,
0100
0000
1000
0001
0100
0001
0010
0001
,
0200
0000
0010
0000
0301
0000
1000
0010
,
1000
0000
0001
0010
0001
0000
0100
0010
,
1000
1000
0001
0001
0010
0100
0100
0010
,
0002
0000
0000
2003
0000
0000
3020
0000
,
0130
0000
1001
0000
1000
0100
0010
0001
,
0010
0100
1000
0000
0001
0100
0010
1000
,
0010
0100
0002
0000
0023
0000
0230
0000
,
1300
0001
0100
0000
0010
1000
0001
1000
,
0100
0010
0001
0000
1000
0100
0010
0100
,
1000
0001
0010
0000
0001
0100
0010
0100
,
0001
1000
0010
0000
1000
0100
0001
0000
,
0001
0100
1000
0000
1010
0000
1100
0000
,
1001
0000
0110
0000
0001
0100
0010
0100
,
0001
1000
0010
0000
1000
0100
0010
0100
,
1000
0001
0020
0000
0032
0000
2003
0000
,
3010
0100
0001
0000
1000
0200
0010
0300
,
1000
0001
1000
0000
0010
0100
0001
0010
,
0100
1000
0001
0000
0100
0000
0010
0000
,
1000
0100
1000
0010
1000
0010
0100
0001
,
0100
0000
0001
0000
0010
0000
0000
0100
0000
0000
1000
0000
0000
0010
0000
0000
,
0100
0000
0001
0000
0202
0000
0000
0303
0000
0000
1000
0000
2200
0000
0000
3300
,
0000
0000
0001
0000
0022
0000
0000
0033
0000
0000
1000
0000
2020
0000
0000
3030
,
0000
0000
0100
0000
0220
0000
0000
0330
0000
0000
0001
0000
2002
0000
0000
3003
,
0000
0000
0010
0000
0220
0000
0000
0330
0000
0000
1000
0000
2002
0000
0000
3003
,
0000
0000
0000
0000
1000
0000
0000
0100
0000
0000
1000
0000
0000
0010
0000
0000
,
0100
0000
0001
0000
0010
0000
0000
0100
0000
0000
0010
0000
0000
0001
0000
0000
,
1000
0000
0010
0000
1000
0000
0000
0100
0000
0000
0001
0000
0000
0100
0000
0000
,
1000
0000
0001
0000
0010
0000
0000
1000
0000
0000
0010
0000
0000
0001
0000
0000
,
1000
0000
1000
0000
0010
0000
0000
0100
0000
0000
0001
0000
0000
0100
0000
0000
,
0010
0000
1000
0000
0001
0000
0000
0010
0000
0000
0100
0000
0000
1000
0000
0000
,
0100
0010
0001
0100
0001
0100
0010
1000
,
0010
0000
1000
0000
0100
0000
0000
0110
0000
0000
0010
0000
0000
0110
0000
0000
,
1000
0001
0000
0000
0202
0000
0000
0000
,
0000
0303
2200
0000
,
0000
3300
0000
0110
,
0001
1000
0000
0110
0000
2002
0000
0000
,
3003
0000
1100
0000
0001
0010
0100
0000
,
0010
0001
1000
0000
0010
0100
0001
0100
,
0010
1000
0002
0000
0010
0000
1000
0000
,
0103
0000
0000
0000
2020
0000
0000
0000
0000
0000
0000
0000
0000
0000
0000
3030
,
0000
0000
1000
0000
2200
0000
0000
3300
0000
0000
0001
0000
0022
0000
0000
0033
,
0000
0000
1000
0000
2020
0000
0000
3030
0000
0000
0001
0000
0202
0000
0000
0303
,
0000
0000
0010
0000
2002
0000
0000
3003
0000
0000
1000
0000
0220
0000
0000
0330
,
0000
0000
0100
0000
2002
0000
0000
3003
0000
0000
0001
0000
0010
0000
0100
0000
,
1000
0000
0010
0100
0001
0100
0010
1000
,
0001
0000
0010
0100
1000
0001
0100
0010
,
1000
0000
0100
0010
0100
0010
0001
1000
,
0001
0000
1000
0000
0010
0000
0000
0110
0000
0000
0100
0000
0000
0110
0000
0000
,
1000
0001
1001
0000
0000
0000
0000
0000
;

//--------------- dance-single - forcednature ----------------
#NOTES:
     dance-single:
     forcednature:
     Hard:
     15:
     0,0,0,0,0:
0000
0000
0000
0000
,
0000
0000
0000
0000
,
0000
0000
0000
0000
,
0000
0000
0000
0000
,
0000
0000
0000
0000
,
0000
0000
0000
0000
,
0000
0010
0110
0000
0000
0000
0002
0000
,
0203
0000
0300
0020
0000
0030
2000
0000
,
3100
1000
0010
1000
0001
0100
0001
0010
,
0100
1000
0100
0000
0010
0001
0010
0000
0001
0100
0010
1000
0001
0000
0000
0000
,
0010
0100
1000
0100
0010
0001
0100
0001
,
1000
0010
0100
0001
0100
0010
1000
0001
,
0000
0010
0100
1000
0100
0010
0001
1000
,
0010
0100
0001
1000
0100
1000
0001
0001
,
0100
0010
1000
0010
0100
0001
1000
0001
,
0010
0000
0101
0000
1000
0010
0001
0000
,
0011
0000
0010
0100
0001
0000
1000
0200
,
0000
0000
1000
0000
0000
0000
0010
0000
0310
0000
0100
0000
0000
0110
0000
0000
,
0001
1000
0010
1000
0001
0010
0100
0010
,
0001
0100
1000
0100
0010
1000
0001
0010
,
0100
0001
0100
1000
0001
0010
0001
0100
,
0010
1000
0001
0010
0100
1000
0010
0110
,
0000
0100
1001
0000
1000
0010
0001
0010
,
0100
0000
1010
0000
0100
0001
0010
0001
,
0200
0000
0310
0020
0000
1030
1001
0000
,
0001
0010
0000
0001
0010
0000
0100
1000
0000
0100
1000
0000
0010
0000
0000
0000
,
0102
0100
0020
0033
,
2200
0300
0002
3003
,
2010
0010
0200
3300
,
0022
0033
2020
3030
,
1002
1000
0020
0033
,
2200
0300
0020
3030
,
0012
0010
0200
0303
,
2002
0000
0000
3003
,
1000
0000
0001
0100
0010
0000
0100
0000
0001
0010
0100
0000
0010
0000
0001
1000
,
0001
0000
1000
0100
0010
0000
0100
0000
1000
0010
0100
0000
0010
0000
1000
0001
,
1000
0000
0001
0010
0100
0000
0010
0000
0001
0100
0010
0000
0100
0000
0001
1000
,
0001
0000
1000
0010
0100
0000
0010
0000
1000
0100
0010
0000
0100
0000
1000
0001
,
1000
0000
0010
0000
0100
0000
0001
0010
,
0020
0000
0100
0000
0031
0000
1000
0001
,
1000
0010
1000
0000
0100
0000
0010
0000
0001
0010
0001
0000
0100
0000
0010
0000
,
1000
0100
1000
0000
0001
0100
0001
0000
0010
0100
0010
0100
0010
0000
0001
0000
,
2000
0000
0000
3020
0000
0000
0230
0000
,
0301
0000
0000
0000
1000
0000
0100
0010
0001
0000
1000
0000
0010
0100
0000
0001
,
0100
0000
0010
0000
1000
0000
0001
0010
0100
0000
0010
0000
0001
1000
0000
0010
,
1000
0000
0001
0000
0010
0000
0100
1000
0100
0000
0010
0100
0010
0000
0001
0010
,
0001
1000
0010
0100
0001
0100
0010
1000
,
0001
0000
0001
0000
0010
0000
0100
1000
0001
0000
0100
0000
0010
1000
0000
0001
,
0010
0000
0100
0000
0010
0000
0001
1000
0010
0000
0100
0000
0001
1000
0000
0100
,
1000
0000
0010
0000
1000
0000
0100
0010
0100
0000
1000
0000
0001
0000
0100
0010
,
0100
0000
0001
0000
0010
0000
0100
1000
0001
0000
0100
0001
1000
0000
0010
1000
,
0001
0000
0010
0000
0110
0000
0100
1000
0001
0000
0100
0000
0010
1000
0000
0100
,
1000
0000
0010
0000
0110
0000
0100
0001
1000
0000
0100
0000
0010
0001
0000
0100
,
0001
0000
0010
0000
1001
0000
0001
0100
0001
0000
0100
0010
0100
0000
0010
1000
,
0010
0000
1000
0100
1000
0000
0010
0000
0100
0000
0001
0000
0010
0100
0000
1000
,
0100
0000
0100
0000
0010
0000
0001
1000
0010
0000
0100
0000
0001
0010
0000
0001
,
0100
0000
0010
0000
1000
0100
1000
0000
0001
0100
0001
0000
0010
0001
0010
0000
,
0100
0000
1000
0000
0010
1000
0010
0000
0100
0000
0001
0000
0010
0001
0010
0000
,
0100
0000
0100
0000
1100
0000
0000
0101
0000
0000
1010
0000
0000
0011
0000
0000
,
1000
0001
0101
0000
0001
1000
1100
0000
,
1000
0001
0011
0000
0001
1000
1010
0000
,
1000
0010
0101
0000
0001
0010
1100
0000
,
1000
0000
0001
0000
1010
0000
0000
0000
0001
0000
1000
0000
0011
0000
0000
0010
,
0100
0000
1000
0100
1000
0000
0000
1000
0010
0000
0100
0000
0001
0010
0000
0100
,
0010
0000
0001
1000
0001
0000
0000
0001
0100
0000
0010
0000
1000
0100
0000
0010
,
0100
0000
1000
0001
0100
0000
0000
0100
0010
0000
1000
0000
0001
0010
0000
0001
,
0100
0000
0010
1000
0001
0000
0000
0001
0010
0000
0100
0000
1000
0010
0000
1000
,
0100
1000
0100
0000
0010
0000
0000
0010
0001
0000
1000
0000
0010
0100
0000
0001
,
0100
0000
0010
0000
1000
0000
0000
1000
0100
0000
0010
0000
0001
1000
0000
0010
,
1000
0000
0001
0000
0010
0100
0010
0000
0100
1000
0100
0000
1000
0010
1000
0000
,
0001
0010
0001
0000
0101
0000
0000
1010
0000
0000
1100
0000
0000
0011
0000
0000
,
1000
0000
0001
0100
0000
0000
0000
0000
0220
0000
0000
0000
0000
0000
0000
0000
,
0000
0330
2002
0000
,
3003
0000
0000
0000
1000
0001
0000
0001
0100
0000
0010
1000
0001
0000
0000
0000
,
0011
1100
0000
0110
0000
2002
0000
0000
,
3003
0000
1010
0000
0010
0100
0001
0100
,
0010
1000
0001
0000
0010
0100
1000
0100
,
0010
0001
0100
1000
0100
0010
1000
0001
,
0010
0000
0001
0000
0220
0000
0000
0000
0000
0000
0000
0000
0000
0000
0000
0330
,
0000
1000
0101
0000
0010
0001
1100
0000
,
0100
0010
1001
0000
1000
0001
0110
0000
,
0001
0100
0010
0000
1010
0000
0000
0000
1000
0100
0010
0000
0011
0000
0000
0000
,
0001
1000
0010
0000
0110
0000
0000
0000
1000
0001
0010
0000
0100
1000
0100
1000
,
0001
0100
0000
0000
0010
0000
1000
0001
0010
0000
0100
0000
0010
0001
0000
0001
,
0100
0000
0010
1000
0001
0000
1000
0100
0010
0000
0001
0000
1000
0010
0000
0010
,
0100
0000
0001
1000
0100
0000
0100
0000
0010
0000
0010
0000
0001
0000
0001
0000
,
1000
0000
1000
0000
0001
0100
0000
0010
1000
0000
0001
0010
0000
0100
1000
0000
,
0010
0100
0001
1000
0100
0000
0000
0000
0000
0000
0000
0000
0000
0000
0000
0000
;

//--------------- dance-double - forcednature ----------------
#NOTES:
     dance-double:
     forcednature:
     Easy:
     7:
     0,0,0,0,0:
00000000
00000000
00000000
00000000
,
00000000
00000000
00000000
00000000
,
00000000
00000000
00000000
00000000
,
00000000
00000000
00000000
00000000
,
00000000
00000000
00000000
00000000
,
00000000
00000000
00000000
00000000
,
00000000
00011000
00000000
00010000
,
00000000
00001000
00000000
01000000
,
00000000
00010000
00010000
00100000
,
00100000
00001000
00010000
00000010
,
00000000
00001000
00000100
00001000
,
00000001
00000100
00000001
00000010
,
00000000
00000100
00010000
00001000
,
00100000
00001000
00010000
00000010
,
00000000
00010000
00001000
01000000
,
00010000
01000000
00100000
10000000
,
00010000
00000000
00000000
00000000
00100000
00000000
00000000
00002000
,
00000000
00000000
00000000
00003000
00000000
00010000
00000000
00000000
,
00011000
00000000
00000100
00001000
,
00000100
00000010
00000001
00000010
,
00000100
00000000
00010000
00001000
,
01000000
00010000
01000000
00100000
,
00000000
01100000
00000000
01000000
,
00010000
10000000
00010000
00100000
,
00001000
00000000
00010000
00000000
,
00000010
00000010
00000010
00001000
,
00000001
00000000
00000000
00000000
,
00000010
00000000
00000000
00000000
,
00000100
00000000
00000000
00000000
,
00020000
00000000
00032000
00000000
,
00203000
00000000
00300000
00000000
,
00010000
00000000
00000000
00000000
,
01000000
00000000
00000000
00000000
,
00200000
00000000
00000000
00000000
,
10300000
00000000
00000000
10000000
00000000
00000000
10000000
00000000
,
00010000
00000000
00000000
00010000
00000000
00000000
00010000
00000000
,
00100000
00000000
00000000
00100000
00000000
00000000
00100000
00000000
,
00001000
00000000
00000000
00001000
00000000
00000000
00001000
00000000
,
00010000
00000000
00000010
00000000
,
00002000
00000000
00003000
00000000
,
00000100
00000000
00000010
00000000
,
00000001
00000100
00000001
00000100
,
00002000
00000000
00000000
00000000
,
00013000
00001000
01000000
00001000
,
00000000
00010000
00000100
00010000
,
00000000
00001000
00100000
00010000
,
00100000
01000000
10000000
00010000
,
00000000
01000000
00001000
01000000
,
00000000
00001000
00010000
00001000
,
00000000
00010000
00000100
00001000
,
00000100
00000010
00000001
00001000
,
00000000
00000010
00001000
00000010
,
00000000
00010000
00001000
00010000
,
00000000
00100000
01000000
00100000
,
10000000
00010000
10000000
01000000
,
00000000
00100000
00001000
00010000
,
00000000
00000010
00010000
00001000
,
00000000
01000000
00001000
00010000
,
00001000
00100000
00100000
00100000
,
00000000
00001000
00000000
01001000
,
00000000
00010000
00000000
00010100
,
00000000
00001000
00000000
00101000
,
00000000
00010000
00000000
00000010
,
00001000
00000001
00000000
00000010
,
00000100
00001000
00000000
00000010
,
00010000
00001000
00000000
00100000
,
00010000
01000000
00000000
00100000
,
10000000
00010000
00000000
00100000
,
00001000
00010000
00000000
00000010
,
00001000
00000100
00000000
00000010
,
00000001
00000000
00000100
00000000
00000000
00000100
00000000
00000000
,
00000100
00000000
00000220
00000000
,
00000000
00000330
00022000
00000000
,
00000000
00033000
00000000
01000000
,
00000000
00010000
00000000
00010000
00000000
00020000
00000000
00000000
,
00030000
00100000
00000000
01000000
,
10000000
01000000
00000000
00100000
,
00001000
00010000
00000010
00001000
,
00000010
00000200
00000000
00000000
,
00000300
00000001
00000000
00001001
,
00000000
00010000
00000000
00011000
,
00000000
10000000
00000000
10010000
,
00000000
00001000
00000000
00011000
,
00000000
01000000
00001000
00010000
,
00000000
00000100
00010000
00001000
,
00000000
00100000
00001000
00010000
,
00000010
00000000
00001000
00000000
00000000
00001000
00000000
00000000
,
00000100
00001001
00000000
00000000
;

//--------------- dance-double - forcednature ----------------
#NOTES:
     dance-double:
     forcednature:
     Medium:
     12:
     0,0,0,0,0:
00000000
00000000
00000000
00000000
,
00000000
00000000
00000000
00000000
,
00000000
00000000
00000000
00000000
,
00000000
00000000
00000000
00000000
,
00000000
00000000
00000000
00000000
,
00000000
00000000
00000000
00000000
,
00000000
00011000
00000000
00002000
,
00023000
00000000
00030000
00000200
00000000
00000300
00002000
00000000
,
00003001
00000100
00001000
00010000
,
00100000
01000000
00100000
01000000
00010000
10000000
01000000
00000000
,
00100000
00001000
00100000
00000000
00010000
01000000
00010000
00000000
,
00100000
01000000
00100000
00001000
00010000
00000010
00010000
00000000
,
00001000
00000010
00001000
00000000
00010000
00000100
00010000
00000000
,
00000010
00001000
00000010
00000100
00001000
00000100
00000001
00000001
,
00000000
00000010
00000100
00000000
00010000
00001000
00010000
00000000
,
01001000
00000000
01010000
00000000
00010000
10000000
00010000
00000000
,
00200000
00000000
01300000
10000000
00200000
00000000
01300000
00002000
,
00000000
00000000
00000000
00000000
00000000
00000000
00003000
00000000
00000000
00000000
00000100
00000000
00000000
00000100
00000000
00000000
,
00000110
00000000
00000010
00000000
00001000
00000001
00000010
00000000
,
00000100
00001000
00000100
00010000
00001000
01000000
00010000
01000000
,
00100000
00000000
10010000
00000000
10000000
00010000
00100000
00000000
,
01000000
00010000
00001000
00010000
00000100
00001000
00000010
00000010
,
00000000
00000000
00001001
00000000
00001000
00000100
00010000
00001000
,
01000000
00020000
20030000
32000000
,
03100000
00000000
10000000
00100000
00000000
00010000
02000000
00000000
,
03100000
00000000
00000000
00010000
00000000
00000000
00001000
00000000
00000000
00000100
00000000
00000000
00000010
00000000
00000000
00000000
,
00000110
00000110
00002000
00003000
,
00000002
00000003
00000020
00000030
,
00011000
00011000
02000000
03000000
,
00020000
00000000
00000000
00000000
00230000
00000000
00000000
00300000
,
10010000
10010000
00002000
00003000
,
00020000
00030000
00000200
00000300
,
00001001
00001001
00020000
00030000
,
00002000
00000000
01003000
00010000
01000000
00010000
01000000
00010000
,
00100000
00000000
00000000
01000000
00000000
00000000
00100000
00000000
00000000
00001000
00000000
00000000
00010000
00000000
00010000
00000000
,
00000010
00000000
00000000
00000100
00000000
00000000
00000010
00000000
00000000
00010000
00000000
00000000
00001000
00000000
00001000
00000000
,
01000000
00000000
00000000
00100000
00000000
00000000
01000000
00000000
00000000
00001000
00000000
00000000
00010000
00000000
00010000
00000000
,
00000100
00000000
00000000
00000010
00000000
00000000
00000100
00000000
00000000
00010000
00000000
00000000
00001000
00000000
00001000
00000000
,
01000000
00000000
00010000
00100000
01000000
00100000
00001000
00010000
,
00001000
00000000
00000100
00000000
00000001
00000000
00000010
00000100
,
00010000
00000000
00001000
00100000
01000000
00000000
10000000
00010000
,
01000000
01000000
00001000
00001000
00010000
00000100
00001000
00000100
,
00000020
00000000
00000000
00000032
00000000
00000000
00000203
00000000
,
00000310
00000000
00001001
00000000
00001000
00000100
00010000
00001000
,
00100000
00010000
10000000
00000000
00010000
01000000
00001000
00010000
,
00000010
00001000
00000002
00000000
00000023
00000000
00002030
00000000
,
00013000
00000100
00001000
00000000
00000010
00010000
00001000
01000000
,
00010000
00100000
00010000
00000000
10000000
00100000
01000000
00100000
,
00010000
00001000
00010000
00000000
00000100
00001000
00000010
00001000
,
00000100
00000010
00000001
00000000
00000100
00001000
00010000
00000000
,
00001000
00010000
00100000
00000000
01100000
00000000
01010000
00000000
,
00110000
00000000
11000000
00000000
10000000
01000000
00010000
00001000
,
00000100
00000001
00000010
00000000
00000001
00000100
00001000
00010000
,
01000000
10000000
00200000
00000000
02300000
00000000
03002000
00000000
,
00013000
00000100
00001000
00000000
00000010
00020000
00001000
00030000
,
00100000
00001000
00010000
00000000
00000010
00010000
00001000
00000010
,
00000100
00001000
00000001
00000000
00000100
00000000
00001000
00000000
,
00010000
00100000
01000000
00010000
01000000
00010000
10000000
01000000
,
10000000
00000000
01000000
00000000
00100000
00000000
00000000
00100000
00000000
00000000
00001000
00000000
00000000
00001000
00000000
00000000
,
00010000
00000000
00000010
00000000
00020020
00000000
00000000
00030030
00000000
00000000
00100000
00000000
00202000
00000000
00000000
00303000
,
00000000
00000000
00000100
00000000
00020200
00000000
00000000
00030300
00000000
00000000
01000000
00000000
02002000
00000000
00000000
03003000
,
00000000
00000000
00010000
00000000
00202000
00000000
00000000
00303000
00000000
00000000
00001000
00000000
00020020
00000000
00000000
00030030
,
00000000
00000000
00010000
00000000
02002000
00000000
00000000
03003000
00000000
00000000
00001000
00000000
00020200
00000000
00000000
00030300
,
00000000
00000000
00000000
00000000
00000100
00000000
00000000
00001000
00000000
00000000
00000100
00000000
00000000
00000010
00000000
00000000
,
00000001
00000000
00001000
00000000
00000001
00000000
00000000
00000100
00000000
00000000
00000010
00000000
00000000
00000100
00000000
00000000
,
00001000
00000000
00010000
00000000
00001000
00000000
00000000
01000000
00000000
00000000
00010000
00000000
00000000
01000000
00000000
00000000
,
00100000
00000000
10000000
00000000
01000000
00000000
00000000
00100000
00000000
00000000
01000000
00000000
00000000
00010000
00000000
00000000
,
00001000
00000000
00001000
00000000
00100000
00000000
00000000
00010000
00000000
00000000
01000000
00000000
00000000
00001000
00000000
00000000
,
00010000
00000000
00000010
00000000
00001000
00000000
00000000
00000100
00000000
00000000
00000010
00000000
00000000
00000001
00000000
00000000
,
00000100
00001000
00010000
00100000
00010000
00100000
10000000
01000000
,
10000000
00000000
01000000
00000000
00010000
00000000
00000000
00001000
00000000
00000000
00000100
00000000
00000000
00001000
00000000
00000000
,
00010000
00000010
00000000
00000000
02002000
00000000
00000000
00000000
,
00000000
03003000
00020200
00000000
,
00000000
00030300
00000000
01100000
,
00010000
00001000
00000000
00000110
00000000
00002002
00000000
00000000
,
00003003
00000000
00010100
00000000
00010000
00001000
01000000
00000000
,
00100000
10000000
00010000
00000000
00100000
01000000
00010000
01000000
,
00100000
00001000
00020000
00000000
00000010
00000000
00001000
00000000
,
00030100
00000000
00000000
00000000
00002002
00000000
00000000
00000000
00000000
00000000
00000000
00000000
00000000
00000000
00000000
00003003
,
00000000
00000000
00000100
00000000
00000220
00000000
00000000
00000330
00000000
00000000
00001000
00000000
00022000
00000000
00000000
00033000
,
00000000
00000000
01000000
00000000
02200000
00000000
00000000
03300000
00000000
00000000
00010000
00000000
00022000
00000000
00000000
00033000
,
00000000
00000000
00000010
00000000
00000220
00000000
00000000
00000330
00000000
00000000
00001000
00000000
00022000
00000000
00000000
00033000
,
00000000
00000000
00100000
00000000
02200000
00000000
00000000
03300000
00000000
00000000
10000000
00000000
01000000
00000000
00010000
00000000
,
00001000
00000000
00100000
00010000
00100000
01000000
00100000
00001000
,
00010000
00000000
00000010
00000100
00001000
00000100
00000001
00000010
,
00000100
00000000
00010000
00001000
00010000
00001000
01000000
00100000
,
01000000
00000000
00100000
00000000
10000000
00000000
00000000
01000000
00000000
00000000
00010000
00000000
00000000
00001000
00000000
00000000
,
00000100
00000001
00000011
00000000
00000000
00000000
00000000
00000000
;

//--------------- dance-double - forcednature ----------------
#NOTES:
     dance-double:
     forcednature:
     Hard:
     15:
     0,0,0,0,0:
00000000
00000000
00000000
00000000
,
00000000
00000000
00000000
00000000
,
00000000
00000000
00000000
00000000
,
00000000
00000000
00000000
00000000
,
00000000
00000000
00000000
00000000
,
00000000
00000000
00000000
00000000
,
00000000
00001000
00010000
00000000
00000000
00000000
00200000
00000000
,
20300000
00000000
30000000
02000000
00000000
03000000
00020000
00000000
,
00031000
00000010
00000100
00000010
00000001
00000100
00000010
00000100
,
00001000
00010000
00001000
00000000
01000000
00010000
01000000
00000000
00100000
10000000
00010000
10000000
01000000
00000000
00000000
00000000
,
00100000
00010000
00100000
00001000
00000100
00000010
00000100
00000001
,
00000010
00000100
00001000
00000100
00010000
00100000
01000000
00100000
,
00000000
10000000
01000000
00010000
01000000
00100000
00010000
00001000
,
00000100
00001000
00000010
00000001
00000010
00000100
00000001
00000001
,
00000000
00000010
00000100
00010000
00001000
00100000
01000000
10000000
,
00100000
00000000
01100000
00000000
01000000
00001000
00010000
00000000
,
00011000
00000000
00001000
00000010
00000001
00000000
00000100
00000020
,
00000000
00000000
00000001
00000000
00000000
00000000
00000100
00000000
00000130
00000000
00000010
00000000
00000000
00000110
00000000
00000000
,
00000100
00001000
00010000
00001000
00100000
01000000
00100000
00001000
,
00010000
00100000
10000000
00100000
01000000
10000000
01000000
00010000
,
00100000
01000000
00100000
00001000
00010000
00000010
00010000
00001000
,
00000010
00000100
00001000
00000010
00000001
00000010
00000100
00000110
,
00000000
00000010
00001001
00000000
00000001
00000010
00001000
00010000
,
01000000
00000000
01100000
00000000
00100000
00001000
01000000
00001000
,
00020000
00000000
00130000
00200000
00000000
10300000
10010000
00000000
,
10000000
01000000
00000000
00100000
01000000
00000000
00100000
00001000
00000000
00010000
00001000
00000000
00000100
00000000
00000000
00000000
,
00000120
00000100
00020000
00030030
,
02002000
00003000
00200000
03300000
,
20010000
00010000
00200000
30300000
,
02002000
03003000
00020200
00030300
,
00001020
00001000
00000002
00000033
,
00020020
00000030
02000000
03030000
,
00201000
00001000
02000000
03300000
,
00022000
00000000
00000000
00033000
,
00010000
00000000
00100000
01000000
00100000
00000000
10000000
00000000
01000000
00100000
01000000
00000000
00010000
00000000
00001000
00010000
,
00001000
00000000
00000010
00000100
00000010
00000000
00000001
00000000
00000100
00000010
00000100
00000000
00001000
00000000
00010000
00001000
,
00010000
00000000
01000000
00100000
01000000
00000000
10000000
00000000
00100000
01000000
00100000
00000000
00010000
00000000
00001000
00010000
,
00001000
00000000
00000100
00000010
00000100
00000000
00000001
00000000
00000010
00000100
00000010
00000000
00001000
00000000
00010000
00001000
,
00010000
00000000
00100000
00000000
10000000
00000000
01000000
00010000
,
00002000
00000000
00000100
00000000
00013000
00000000
00001000
00000010
,
00000001
00001000
00000001
00000100
00001000
00010000
00100000
10000000
,
01000000
10000000
01000000
00000000
00100000
00010000
00100000
00000000
00001000
00010000
00001000
00010000
00001000
00000000
00000000
00000000
,
00000020
00000000
00000000
00000230
00000000
00000000
00002300
00000000
,
00003001
00000000
00000000
00000000
00001000
00000000
00000010
00010000
00001000
00000000
00100000
00000000
00010000
00100000
00000000
01000000
,
00100000
00000000
00001000
00000000
00010000
00000000
00100000
10000000
00010000
00000000
00100000
00000000
00001000
00010000
00000000
00000010
,
00010000
00000000
00001000
00000000
00000010
00000000
00000100
00001000
00000100
00000000
00010000
00001000
00010000
00000000
00000010
00001000
,
00000010
00000100
00001000
00010000
01000000
00100000
00010000
01000000
,
00100000
00000000
00100000
00000000
10000000
00000000
01000000
00100000
00010000
00000000
01000000
00000000
00001000
00010000
00000000
00000100
,
00010000
00000000
00001000
00000000
00000010
00000000
00000100
00001000
00000001
00000000
00000100
00000000
00000010
00001000
00000000
00000010
,
00010000
00000000
00001000
00000000
00100000
00000000
00010000
01000000
00010000
00000000
00100000
00000000
00001000
00000000
00010000
00000100
,
00010000
00000000
00001000
00000000
00000010
00000000
00000100
00001000
00000001
00000000
00000100
00000010
00001000
00000000
00000010
00010000
,
00001000
00000000
00100000
00000000
01100000
00000000
01000000
10000000
00010000
00000000
01000000
00000000
00001000
00010000
00000000
00000100
,
00010000
00000000
00001000
00000000
00000100
00000000
00000001
00001000
00000010
00000000
00010000
00000000
00001000
00100000
00000000
00010000
,
00100000
00000000
01000000
00000000
10000000
00000000
00010000
01000000
00010000
00000000
01000000
00001000
01000000
00000000
00001000
00010000
,
00001000
00000000
00010000
00000100
00010000
00000000
00001000
00000000
00000100
00000000
00000001
00000000
00000010
00000100
00000000
00001000
,
00000100
00000000
00000100
00000000
00010000
00000000
00001000
01000000
00010000
00000000
00100000
00000000
01000000
10000000
00000000
00100000
,
10000000
00000000
01000000
00000000
00100000
00010000
00100000
00000000
00001000
00010000
00001000
00000000
00010000
00000010
00010000
00000000
,
00001000
00000000
00000010
00000000
00000100
00001000
00000100
00000000
00000010
00000000
00000001
00000000
00000100
00000001
00000100
00000000
,
00000010
00000000
00000010
00000000
00001000
00000000
00000000
00100000
00000000
00000000
10000000
00000000
00000000
01000000
00000000
00000000
,
00010000
00001000
01001000
00000000
00001000
00010000
00010100
00000000
,
00010000
00001000
00101000
00000000
00001000
00010000
00010010
00000000
,
00010000
00001000
01010000
00000000
00001000
00010000
00001100
00000000
,
00010000
00000000
00001000
00000000
00110000
00000000
00000000
00000000
00001000
00000000
00010000
00000000
00001010
00000000
00000000
00000010
,
00000100
00000000
00000001
00000100
00000001
00000000
00000000
00000001
00000010
00000000
00000100
00000000
00001000
00000100
00000000
00010000
,
00001000
00000000
01000000
00010000
01000000
00000000
00000000
01000000
00100000
00000000
10000000
00000000
00010000
00100000
00000000
01000000
,
00100000
00000000
01000000
10000000
00010000
00000000
00000000
00010000
01000000
00000000
00001000
00000000
00010000
00000100
00000000
00001000
,
00000100
00000000
00000010
00000001
00001000
00000000
00000000
00001000
00000010
00000000
00010000
00000000
00001000
00100000
00000000
01000000
,
00100000
01000000
00100000
00000000
01000000
00000000
00000000
01000000
10000000
00000000
00010000
00000000
01000000
00001000
00000000
00010000
,
00001000
00000000
00000010
00000000
00000100
00000000
00000000
00000100
00001000
00000000
00000001
00000000
00000100
00000001
00000000
00000010
,
00000100
00000000
00001000
00000000
00000010
00001000
00000010
00000000
00010000
00001000
00010000
00000000
00001000
00100000
00001000
00000000
,
00100000
00010000
00100000
00000000
01000000
00000000
00000000
00010000
00000000
00000000
00000100
00000000
00000000
00010000
00000000
00000000
,
00001000
00000000
00000100
00000010
00000000
00000000
00000000
00000000
00002002
00000000
00000000
00000000
00000000
00000000
00000000
00000000
,
00000000
00003003
20020000
00000000
,
30030000
00000000
00000000
00000000
10000000
01000000
00000000
00010000
01000000
00000000
00100000
00001000
00010000
00000000
00000000
00000000
,
00010100
00001100
00000000
00000011
00000000
00002002
00000000
00000000
,
00003003
00000000
00001010
00000000
00000010
00000100
00001000
00010000
,
01000000
00100000
00001000
00000000
00010000
00100000
10000000
00100000
,
01000000
00001000
00010000
00000100
00000010
00000100
00001000
00000010
,
00000001
00000000
00000010
00000000
00000220
00000000
00000000
00000000
00000000
00000000
00000000
00000000
00000000
00000000
00000000
00000330
,
00000000
00010000
00001100
00000000
00010000
00001000
01010000
00000000
,
00001000
00010000
00001010
00000000
00010000
00001000
00110000
00000000
,
00001000
00010000
01100000
00000000
00010000
00001000
00000110
00000000
,
00001000
00000000
00010000
00000000
00101000
00000000
00000000
00000000
00010000
00000000
00001000
00000000
00000010
00000100
00000010
00000100
,
00001000
00000100
00000000
00000000
00000010
00000000
00000001
00001000
00000010
00000000
00010000
00000000
00001000
00100000
00000000
00100000
,
00010000
00000000
01000000
00010000
10000000
00000000
01000000
10000000
00100000
00000000
01000000
00000000
00001000
00010000
00000000
00010000
,
00000100
00000000
00001000
00000010
00010000
00000000
00010000
00000000
00001000
00000000
00001000
00000000
00000100
00000000
00000100
00000000
,
00000010
00000000
00000010
00000000
00001000
00000100
00000000
00010000
00001000
00000000
01000000
00010000
00000000
00100000
01000000
00000000
,
10000000
00100000
01000000
00100000
00010000
00000000
00000000
00000000
00000000
00000000
00000000
00000000
00000000
00000000
00000000
00000000
;
