#VERSION:0.83;
#TITLE:Uncle F--ka;
#SUBTITLE:;
#ARTIST:Terrance and Phillip;
#TITLETRANSLIT:;
#SUBTITLETRANSLIT:;
#ARTISTTRANSLIT:;
#GENRE:;
#ORIGIN:;
#CREDIT:;
#BANNER:Uncle F--ka.png;
#BACKGROUND:Uncle F--ka-bg.png;
#PREVIEWVID:;
#JACKET:Uncle F--ka-jacket.png;
#CDIMAGE:;
#DISCIMAGE:;
#LYRICSPATH:;
#CDTITLE:;
#MUSIC:Uncle F--ka.ogg;
#OFFSET:0.000000;
#SAMPLESTART:1.536000;
#SAMPLELENGTH:12.000000;
#SELECTABLE:YES;
#BPMS:0.000=1121.660,
3.000=1121.190,
4.000=162.122,
6.000=146.123,
6.500=193.619,
7.000=218.479,
8.000=155.018,
9.000=166.845,
10.000=166.835,
11.000=175.255,
14.000=160.015,
15.000=167.003,
18.000=175.000,
23.000=180.000,
24.000=160.005,
25.000=175.000,
26.000=164.001,
28.000=152.507,
29.000=173.953,
30.000=173.942,
31.000=175.000,
32.000=172.008,
33.000=171.997,
34.000=172.008,
36.000=175.000,
41.000=170.008,
42.000=169.997,
43.000=170.008,
45.000=163.485,
46.000=163.495,
47.000=163.485,
49.000=175.000,
50.000=165.004,
51.000=165.014,
52.000=175.000,
55.000=207.497,
56.000=138.621,
57.000=170.677,
58.000=170.008,
59.000=160.753,
60.000=170.008,
61.000=169.997,
62.000=170.008,
64.000=169.997,
65.000=170.008,
67.000=169.997,
68.000=170.008,
69.000=169.997,
70.000=170.008,
71.000=169.997,
73.000=170.008,
74.000=169.997,
77.000=170.008,
78.000=169.997,
80.000=170.008,
81.000=169.997,
84.000=170.008,
85.000=169.997,
87.000=170.008,
88.000=169.997,
90.000=170.008,
91.000=169.997,
94.000=170.008,
95.000=169.997,
97.000=170.008,
98.000=169.997,
101.000=170.008,
102.000=169.997,
104.000=170.008,
105.000=169.997,
107.000=170.008,
108.000=169.997,
111.000=170.008,
112.000=169.997,
114.000=170.008,
115.000=169.997,
118.000=170.008,
119.000=169.997,
121.000=170.008,
122.000=169.997,
125.000=170.008,
126.000=169.997,
128.000=170.008,
129.000=169.997,
131.000=170.008,
132.000=169.997,
135.000=175.791,
136.000=170.205,
137.000=170.215,
138.000=170.194,
139.000=170.205,
140.000=170.194,
141.000=170.205,
142.000=170.194,
143.000=170.205,
145.000=170.194,
146.000=170.205,
147.000=170.194,
148.000=170.205,
150.000=170.194,
151.000=170.205,
152.000=170.194,
153.000=170.205,
154.000=170.194,
155.000=170.205,
157.000=170.194,
158.000=170.205,
159.000=170.194,
160.000=170.205,
162.000=170.194,
163.000=170.205,
164.000=170.194,
165.000=170.205,
166.000=170.194,
167.000=170.205,
169.000=170.194,
170.000=170.205,
171.000=170.194,
172.000=170.205,
174.000=170.194,
175.000=170.205,
176.000=170.194,
177.000=170.205,
178.000=170.194,
179.000=170.205,
181.000=170.194,
182.000=170.205,
183.000=170.194,
184.000=170.205,
186.000=170.194,
187.000=170.205,
188.000=170.194,
189.000=170.205;
#STOPS:;
#DELAYS:;
#WARPS:;
#TIMESIGNATURES:0.000=4=4;
#TICKCOUNTS:0.000=4;
#COMBOS:0.000=1;
#SPEEDS:0.000=1.000=0.000=0;
#SCROLLS:0.000=1.000;
#FAKES:;
#LABELS:0.000=Song Start;
#BGCHANGES:0.000=uncle f--ka.mp4=1.000=0=0=1===CrossFade_Fastest==,
182.000=Uncle F--ka-bg.png=1.000=0=0=1===CrossFade_Fastest==,
99999=-nosongbg-=1.000=0=0=0 // don't automatically add -songbackground-
;
#KEYSOUNDS:;
#ATTACKS:
;

//---------------dance-single - ----------------
#NOTEDATA:;
#CHARTNAME:;
#STEPSTYPE:dance-single;
#DESCRIPTION:;
#CHARTSTYLE:;
#DIFFICULTY:Hard;
#METER:16;
#RADARVALUES:0.786620,0.889850,0.500576,0.409562,0.379225,363.000000,330.000000,33.000000,27.000000,0.000000,0.000000,0.000000,0.000000,0.000000,0.786620,0.889850,0.500576,0.409562,0.379225,363.000000,330.000000,33.000000,27.000000,0.000000,0.000000,0.000000,0.000000,0.000000;
#CREDIT:;
#NOTES:
// measure 0
0000
0000
0000
0000
,  // measure 1
0000
0000
0000
0000
,  // measure 2
1000
0100
0010
0100
0001
0000
0001
0100
,  // measure 3
1000
0000
1000
0000
0010
0000
0000
0010
0100
0000
0000
0000
0001
0000
0010
0000
,  // measure 4
0200
1000
1300
0020
0100
0130
0001
1000
,  // measure 5
0100
0000
0100
0000
0010
0000
0000
0010
0001
0000
0000
0000
1000
0000
0010
0000
,  // measure 6
1010
0000
0001
0000
0100
0000
0010
0000
0110
0000
1000
0000
0100
0000
0000
0010
,  // measure 7
0001
0010
0100
0000
1000
0000
0010
0000
0100
0000
0010
0000
1000
0000
0000
0000
,  // measure 8
0100
0010
1000
0010
0100
0000
0100
1000
,  // measure 9
0001
0000
1000
0000
0100
0010
0100
0001
0100
0010
0100
1000
0100
0000
0010
0000
,  // measure 10
0001
1000
0010
0100
0001
0010
0001
0100
,  // measure 11
0010
0000
1000
0000
0010
0100
0010
0001
0010
0100
0010
1000
0010
0000
0100
0000
,  // measure 12
0101
0000
1000
0000
0100
0000
0010
0000
0011
0000
0001
0000
0100
0010
1000
0000
,  // measure 13
1010
1000
1001
1000
1100
1000
0001
0000
,  // measure 14
0001
0100
0001
0000
0100
0010
0100
0000
0010
1000
0010
1000
0001
0000
0010
0000
,  // measure 15
0011
0000
0010
0000
0001
0100
0010
0100
0001
0000
0000
0000
1000
0000
0100
0000
,  // measure 16
0110
0000
0010
0000
0100
1000
0010
1000
0200
0000
0000
0000
0300
0000
0000
0000
,  // measure 17
0011
0000
0001
0000
0200
0000
0000
0300
0110
0000
0010
0000
2000
0000
0000
3000
,  // measure 18
1100
0000
0100
0000
0010
0001
0100
0001
0020
0000
0000
0000
0030
0000
0000
0000
,  // measure 19
0011
0000
0000
0010
2000
0000
0000
0000
3002
0000
0000
0000
2003
0000
0000
0000
,  // measure 20
3020
0000
0032
0100
2003
0000
3020
0000
,  // measure 21
0130
0000
0000
0100
0001
0000
0000
0001
1000
0000
0000
1000
0100
0000
0000
0100
,  // measure 22
0002
0003
1000
0010
0100
1000
0001
0000
,  // measure 23
0001
0000
0100
0000
0010
0100
1000
0100
0001
0000
0020
0000
1030
0010
0100
0010
,  // measure 24
0001
0000
1000
0000
0010
0100
1000
0100
0002
0000
0010
0000
1003
0000
0000
0000
,  // measure 25
1000
0000
0010
0000
0200
0000
0310
0000
1000
0000
0001
0000
0020
0130
0010
0001
,  // measure 26
1000
0000
0010
0000
0100
0001
1000
0100
0010
0000
0001
0000
1001
0000
0000
0000
,  // measure 27
0001
0000
0100
0000
1000
0100
0001
0100
0010
0000
1000
0000
0001
0010
0100
0010
,  // measure 28
0001
0000
1000
0000
0100
0001
0100
0010
0001
0000
1000
0000
1010
0000
0000
0000
,  // measure 29
2000
3000
0000
0010
0002
0000
1003
0000
0200
0000
0301
0000
2000
3100
0001
0100
,  // measure 30
0020
0031
0001
0000
0200
0010
0310
0000
,  // measure 31
1000
0010
0001
0010
1000
0010
0001
0010
,  // measure 32
1000
0100
1000
0000
0001
0010
0002
0003
,  // measure 33
1000
0010
0100
0001
0020
0030
0100
0000
,  // measure 34
1000
0010
0110
0010
1010
0000
0001
0010
,  // measure 35
0110
0100
1100
1000
0001
0100
0010
1000
,  // measure 36
1010
1000
1001
1000
1010
1000
0100
0010
,  // measure 37
0001
0100
0001
0000
1000
0000
0100
0010
,  // measure 38
0100
0000
0001
0000
0100
0000
1000
0000
0001
0000
0100
0000
0010
0000
1000
0100
,  // measure 39
0010
0001
0100
0001
0011
0010
1010
0000
,  // measure 40
1000
0000
0010
0000
0010
0000
0001
0000
0000
1000
0000
0000
0010
0000
0000
0100
0000
0000
0110
0000
0000
0000
0000
0000
,  // measure 41
0010
1000
1010
0000
1100
0000
0011
0000
,  // measure 42
0101
1100
1010
1001
,  // measure 43
0110
0000
0001
1000
0100
0020
0000
0000
,  // measure 44
0000
0000
0000
0000
,  // measure 45
0000
1030
0000
0000
0000
0000
0000
0000
;

//---------------dance-single - ----------------
#NOTEDATA:;
#CHARTNAME:;
#STEPSTYPE:dance-single;
#DESCRIPTION:;
#CHARTSTYLE:;
#DIFFICULTY:Medium;
#METER:12;
#RADARVALUES:0.593757,0.602398,0.333718,0.364056,0.053091,274.000000,252.000000,22.000000,24.000000,0.000000,0.000000,0.000000,0.000000,0.000000,0.593757,0.602398,0.333718,0.364056,0.053091,274.000000,252.000000,22.000000,24.000000,0.000000,0.000000,0.000000,0.000000,0.000000;
#CREDIT:;
#NOTES:
// measure 0
0000
0000
0000
0000
,  // measure 1
1000
0010
0100
0100
0001
0000
0001
1000
,  // measure 2
0100
0020
1000
0000
0100
0000
0031
0000
,  // measure 3
0200
0010
0310
2000
0100
3010
1000
0001
,  // measure 4
0100
0020
0001
0000
1000
0000
0130
0000
,  // measure 5
0001
1000
0100
0000
0010
0100
1000
0000
,  // measure 6
0001
0100
0010
0100
0001
1000
0100
0000
,  // measure 7
0010
0001
1000
1000
0010
0000
0100
0001
,  // measure 8
2000
0010
0001
3100
,  // measure 9
1000
0010
0100
0010
1000
0001
0010
0100
,  // measure 10
2000
0100
0001
3010
,  // measure 11
1010
1000
0100
0000
0010
0001
0100
0000
,  // measure 12
0110
1010
1100
0000
,  // measure 13
1000
0100
0010
0001
,  // measure 14
1000
0000
0001
0000
1000
0010
1000
0010
1000
0000
0000
0000
0001
0000
0010
0000
,  // measure 15
0100
0000
0010
0000
0001
1000
0001
1000
0020
0000
0000
0000
0130
0000
0000
0000
,  // measure 16
0001
0000
0000
0010
0000
0000
0200
0000
0300
0000
0000
0000
1000
0000
0000
0010
0000
0000
0100
0000
0000
0000
0000
0000
,  // measure 17
0001
0000
0010
0000
0100
0010
0100
0010
0002
0000
0000
0000
1003
0000
0000
0000
,  // measure 18
0010
0000
0000
0100
0002
0000
0000
0000
2003
0000
0000
0000
3200
0000
0000
0000
,  // measure 19
0320
0000
0031
0001
0200
0000
0320
0000
,  // measure 20
1030
0100
0001
0100
,  // measure 21
2000
3010
0100
0001
,  // measure 22
1000
0100
1000
0001
1000
0010
0100
0000
,  // measure 23
0001
0010
0100
0010
0001
0100
0010
0000
,  // measure 24
1000
0010
0100
0001
0010
0001
1000
0000
,  // measure 25
0010
0100
0001
1000
0100
0010
0100
0000
,  // measure 26
1000
0010
0020
0031
0002
1003
2000
3100
,  // measure 27
0010
1000
0001
0010
1000
0010
0100
0000
,  // measure 28
0100
1000
0002
0103
0200
0310
0020
0031
,  // measure 29
1000
0100
0010
0000
0010
1000
0100
0000
,  // measure 30
0010
0001
0100
0001
0010
0001
0100
0001
,  // measure 31
1000
0100
0010
0000
0001
0100
0010
0000
,  // measure 32
1000
0001
0100
0010
1000
0100
1100
0000
,  // measure 33
0010
0001
1001
0000
0010
1000
1001
0000
,  // measure 34
0001
0010
0100
1000
0010
0100
0010
1000
,  // measure 35
0100
0010
0011
0000
0100
0010
1010
0000
,  // measure 36
0001
0010
0100
0010
0001
1000
0010
0100
,  // measure 37
0101
0000
1001
0000
,  // measure 38
1100
1100
0110
0000
,  // measure 39
0010
0000
0001
0100
0110
0000
1010
0000
,  // measure 40
1000
0001
0011
0010
,  // measure 41
1010
1000
1100
0101
,  // measure 42
1001
0000
1000
0100
0010
2002
0000
0000
,  // measure 43
0000
0000
0000
0000
,  // measure 44
0000
3003
0000
0000
0000
0000
0000
0000
;

//---------------dance-single - ----------------
#NOTEDATA:;
#CHARTNAME:;
#STEPSTYPE:dance-single;
#DESCRIPTION:;
#CHARTSTYLE:;
#DIFFICULTY:Easy;
#METER:7;
#RADARVALUES:0.320716,0.401599,0.242704,0.227535,0.000000,148.000000,132.000000,16.000000,15.000000,0.000000,0.000000,0.000000,0.000000,0.000000,0.320716,0.401599,0.242704,0.227535,0.000000,148.000000,132.000000,16.000000,15.000000,0.000000,0.000000,0.000000,0.000000,0.000000;
#CREDIT:;
#NOTES:
0000
0000
0000
0000
,
1000
0100
0001
0100
,
0020
0000
0030
0000
,
0001
0100
1000
0100
,
0020
0000
0030
0000
,
1010
0000
1001
0000
,
0001
0001
0010
0000
,
0100
1000
0001
0100
,
0020
0000
0030
0000
,
1000
0001
0010
0100
,
2000
0000
3000
0000
,
0010
0000
0100
0000
,
0001
0001
1000
0000
,
0100
0000
0010
0000
0001
0000
1000
0001
,
1001
0000
0000
0000
0000
0000
0000
0100
,
0110
0000
0000
0000
,
1001
0000
0000
0000
0110
0000
0000
1000
,
0001
0000
0000
0000
,
0010
0100
2000
3100
,
0010
0001
2000
3000
,
0001
0100
1000
0100
,
1002
1003
0100
0010
,
0001
0100
0010
0100
,
0001
1000
0200
0310
,
0001
1000
0010
1000
,
0001
0100
0020
0030
,
1000
0100
0001
0100
,
0010
0001
1000
0010
,
0100
1000
0100
0001
,
2000
3000
0200
0300
,
0010
0001
0100
0001
,
0020
0030
0200
0300
,
1000
0001
0100
0010
,
1000
1010
0001
0011
,
0001
1000
0010
0100
,
0001
0101
1000
1100
,
1000
0001
0100
0010
,
1010
0000
1001
0000
,
0011
0011
1001
0000
,
1000
0010
0100
0001
,
0000
1000
0100
0001
,
0010
1000
0001
0010
,
0100
0000
1000
0000
0020
0200
0000
0000
,
0000
0000
0000
0000
,
0000
0330
0000
0000
0000
0000
0000
0000
,
0000
0000
0000
0000
,
0000
0000
0000
0000
,
0000
0000
0000
0000
;

//---------------dance-single - ----------------
#NOTEDATA:;
#CHARTNAME:;
#STEPSTYPE:dance-single;
#DESCRIPTION:;
#CHARTSTYLE:;
#DIFFICULTY:Beginner;
#METER:4;
#RADARVALUES:0.166859,0.267733,0.060676,0.075845,0.000000,77.000000,73.000000,4.000000,5.000000,0.000000,0.000000,0.000000,0.000000,0.000000,0.166859,0.267733,0.060676,0.075845,0.000000,77.000000,73.000000,4.000000,5.000000,0.000000,0.000000,0.000000,0.000000,0.000000;
#CREDIT:;
#NOTES:
0000
0000
0000
0000
,
1000
0000
0100
0000
,
0002
0000
0003
0000
,
0001
0000
0100
0000
,
2000
0000
3000
0000
,
0010
0000
0100
0000
,
0001
0001
0001
0000
,
1000
0000
0010
0000
,
0002
0000
0003
0000
,
0001
0000
0010
0000
,
2000
0000
3000
0000
,
0001
0000
0010
0000
,
0100
0100
0100
0000
,
1000
1000
1000
0000
,
1001
0000
0000
0000
,
1001
0000
0000
0000
,
1001
0000
0001
0000
,
1001
0000
0000
0000
,
1000
0000
0100
0000
,
0010
0000
0100
0000
,
1000
0000
0000
0000
,
0000
0000
0000
0000
,
0001
0000
0000
0000
,
0100
0000
0000
0000
,
0010
0000
0000
0000
,
1000
0000
0000
0000
,
1000
0000
0000
0000
,
0100
0000
0000
0000
,
0010
0000
0000
0000
,
0001
0000
0100
0000
,
0010
0010
0100
0100
,
0001
0000
1000
0000
,
0100
0100
0010
0010
,
0001
0000
0100
0000
,
0010
0000
0000
0000
,
1000
0000
0100
0000
,
0010
0000
0000
0000
,
0001
0000
1000
0000
,
0010
0010
0010
0000
,
0000
0000
0100
0000
,
0000
0000
0001
0000
,
0010
0000
0100
0100
,
0100
0100
0200
0000
,
0000
0000
0000
0000
,
0000
0300
0000
0000
0000
0000
0000
0000
,
0000
0000
0000
0000
,
0000
0000
0000
0000
,
0000
0000
0000
0000
;
