#TITLE:U.S.A.;
#SUBTITLE:;
#ARTIST:KIDZ BOP Kids;
#TITLETRANSLIT:;
#SUBTITLETRANSLIT:;
#ARTISTTRANSLIT:;
#GENRE:;
#CREDIT:;
#MUSIC:U.S.A..ogg;
#BANNER:U.S.A..png;
#BACKGROUND:U.S.A.-bg.png;
#CDTITLE:;
#SAMPLESTART:65.330;
#SAMPLELENGTH:14.998;
#SELECTABLE:YES;
#OFFSET:1.719;
#BPMS:0.000=139.600;
#STOPS:;
#DISPLAYBPM:140.000;
#BGCHANGES:;
#FGCHANGES:;

//--------------- dance-single - chrononical ----------------
#NOTES:
     dance-single:
     chrononical:
     Beginner:
     2:
     0,0,0,0,0:
0000
0000
0000
0000
,
0000
0000
0000
0000
,
0000
0000
0000
0000
,
0000
0000
0000
0000
,
0000
0000
0000
0000
,
0000
0000
0000
0000
,
0000
0000
0000
0000
,
1000
0000
0100
0000
,
0010
0000
0001
0000
,
1000
0000
1000
0000
,
0001
0000
0001
0000
,
1000
0000
0010
0000
,
0100
0000
0001
0000
,
1000
0000
1000
0000
,
0001
0000
0001
0000
,
1000
1000
1000
0000
,
0001
0000
0010
0000
,
0100
0000
0010
0000
,
0001
0000
1000
0000
,
0001
0001
0001
0000
,
1000
0000
0010
0000
,
0100
0000
0010
0000
,
1000
0000
0001
0000
,
1000
0001
1000
0000
,
0010
0000
0100
0000
,
0010
0000
1000
0000
,
0001
0000
1000
0000
,
0001
1000
0001
0000
,
0010
0000
0100
0000
,
0010
0000
0001
0000
,
1000
0000
0001
0000
,
1000
0000
0010
0000
,
0100
0100
0100
0000
,
0001
0000
0010
0000
,
0100
0100
0100
0000
,
1000
0001
1000
0000
,
0001
1000
0001
0000
,
0100
0000
0010
0000
,
1000
0000
0001
1000
,
0001
0000
0010
0000
,
0100
1000
1000
0000
,
0001
0000
0100
0000
,
0001
0000
1000
0000
,
1000
0000
0010
0000
,
0100
0001
0001
0000
,
1000
0000
0100
0000
,
0010
0000
0001
1000
,
0001
0000
0100
0000
,
0010
0100
0010
0000
,
1000
0000
0001
0000
,
1000
0000
0100
0000
,
1000
0000
0100
0000
,
0010
0100
0010
0000
,
0001
0000
1000
0000
,
0001
0000
1000
0001
,
1000
0000
0010
0000
,
0100
0000
0001
0000
,
1000
0000
1000
0000
,
0001
0001
0001
0000
,
1000
0000
0100
0000
,
0010
0000
0001
0000
,
1000
0000
1000
0000
,
0001
0001
0001
0000
,
1001
0000
0000
0000
;

//--------------- dance-single - chrononical ----------------
#NOTES:
     dance-single:
     chrononical:
     Easy:
     6:
     0,0,0,0,0:
0000
0000
0000
0000
,
0000
0000
0000
0000
,
0000
0000
0000
0000
,
0000
0000
0000
0000
,
0000
0000
0000
0000
,
0000
0000
0000
0000
,
0000
0000
0000
0000
,
0001
0010
0100
1000
,
0001
0100
0010
1000
,
0001
0001
1000
1000
,
1001
0100
1001
0010
,
2001
3100
0010
0001
,
1000
0010
0100
0001
,
1000
1000
0001
0001
,
1001
0010
1001
0100
,
2001
0010
3100
1000
,
0001
0100
0010
0000
,
0100
0001
0010
0000
,
0100
1000
0010
0000
,
1002
0100
0013
0001
,
1000
0010
0100
0000
,
0010
1000
0100
0000
,
0010
0001
0100
0000
,
2001
0100
3010
1000
,
0001
0010
0100
0000
,
0010
0001
0100
0000
,
0010
1000
0100
0000
,
1002
0010
0103
0001
,
1000
0100
0010
0000
,
0100
1000
0010
0000
,
0100
0001
0010
0100
,
1000
0100
0001
0100
,
1000
0001
1000
0000
,
0001
0100
0010
0000
,
0010
0100
0001
0000
,
1000
0010
0001
0010
,
1000
0001
1000
0000
,
0001
0010
0100
0000
,
0100
1000
0001
0000
,
1001
0100
1001
0010
,
2001
3100
1000
0000
,
0001
1000
0100
0000
,
0100
1000
0001
0000
,
1001
0010
1001
0100
,
1002
0013
0001
0000
,
1000
0001
0100
0000
,
0100
0001
1000
0000
,
1001
0100
1001
0010
,
1001
0110
1001
0000
,
1000
0010
0001
0000
,
1000
0100
0001
0000
,
1001
0010
1001
0100
,
1001
0110
1001
0000
,
0001
0010
1000
0000
,
0001
0100
1000
0000
,
1000
0010
0100
0001
,
1000
0100
0010
0001
,
1000
0010
0100
0010
,
0210
0301
0120
1030
,
0001
0010
0100
1000
,
0001
0100
0010
1000
,
0001
0010
0100
0010
,
0210
1300
0120
0031
,
1001
0000
0000
0000
;

//--------------- dance-single - chrononical ----------------
#NOTES:
     dance-single:
     chrononical:
     Medium:
     10:
     0,0,0,0,0:
0000
0000
0000
0000
,
0000
0000
0000
0000
,
0000
0000
0000
0000
,
0000
0000
0000
0000
,
0000
0000
0000
0000
,
0000
0000
0000
0000
,
0000
0000
0000
0000
,
1000
0000
0100
0000
0010
0000
0000
0010
0000
0000
0001
0000
1000
0000
0001
0000
,
1000
0000
0010
0000
0100
0000
0000
0100
0000
0000
0001
0000
1000
0000
0001
0000
,
1000
0000
0000
0100
0000
0000
0010
0000
0000
0001
0000
0000
1000
0000
0001
0000
,
2001
3100
1002
0103
,
0001
0000
0100
0000
0010
0000
0000
0010
0000
0000
1000
0000
0001
0000
1000
0000
,
0001
0000
0010
0000
0100
0000
0000
0100
0000
0000
1000
0000
0001
0000
1000
0000
,
0001
0000
0000
0100
0000
0000
0010
0000
0000
1000
0000
0000
0001
0000
1000
0000
,
1002
0013
2001
3010
,
1010
0000
1001
0000
0011
0000
0010
0200
,
0000
1300
0001
0000
0100
0000
0010
1000
,
0100
0000
0010
0001
0100
0000
0010
1000
,
0100
0000
0010
0001
0100
0000
0110
0000
,
0101
0000
1001
0000
1100
0000
0100
0020
,
0000
0032
0000
1003
0010
0000
0100
0001
,
0010
0000
0100
1000
0010
0000
0100
0001
,
0010
0000
0100
1000
0010
0000
1010
0000
,
1100
0000
1001
0000
0101
0000
0100
0010
,
1000
0000
0100
0010
0001
0000
0010
0001
,
0100
0000
0010
1000
0100
0000
0010
0001
,
0100
0000
0010
1000
0100
0000
0110
0000
,
0011
0000
1001
0000
1010
0000
0010
0100
,
0001
0000
0010
0100
1000
0000
0100
1000
,
0010
0000
0100
0001
0010
0000
0100
1000
,
0010
0000
0100
0001
0010
0000
0011
0000
,
2001
0010
3100
1100
,
1000
0000
0000
0010
0000
0000
0100
0000
0000
0000
0010
0000
0000
0000
2001
0000
,
0000
3100
0010
0000
0001
1000
0001
0000
,
0201
0310
1200
0310
,
0100
1000
0001
0000
0100
0001
1000
0000
,
0001
0100
0000
0010
0000
0100
0000
1002
,
0000
0013
0100
0000
0001
0000
0100
0000
,
1000
0010
0100
0000
0001
0010
0100
0000
,
2100
3001
0102
1003
,
0010
0000
1000
0000
0001
0000
0100
2000
,
0000
3100
0010
0000
1000
0001
1000
0000
,
0001
0010
0100
0000
0100
0010
0001
0000
,
0012
1003
2010
3001
,
0100
0000
0001
0000
1000
0000
0010
0002
,
0000
0013
0100
0000
0001
1000
0001
0000
,
1001
1010
1100
1001
,
2100
3010
0102
0013
,
0100
0000
0010
0000
0001
0000
0100
2000
,
0000
3100
0001
0000
0010
0100
1000
0000
,
0001
1000
0100
0000
0100
1000
0001
0000
,
0012
0103
2010
3100
,
0010
0000
0100
0000
1000
0000
0010
0002
,
0000
0013
1000
0000
0100
0010
0001
0000
,
1001
0101
1001
1100
,
1000
0000
0010
0000
0100
0000
0000
0001
0000
0000
1000
0000
0100
0000
1000
0000
,
0001
0000
0010
0000
0100
0000
0000
1000
0000
0000
0001
0000
0100
0000
0001
0000
,
0100
0000
0000
0010
0000
0000
1000
0000
0000
0001
0000
0000
1000
0000
0100
0000
,
2100
3001
2010
3100
,
1000
0000
0100
0000
0010
0000
0000
0001
0000
0000
1000
0000
0010
0000
1000
0000
,
0001
0000
0100
0000
0010
0000
0000
1000
0000
0000
0001
0000
0010
0000
0001
0000
,
0010
0000
0000
0100
0000
0000
1000
0000
0000
0001
0000
0000
1000
0000
0010
0000
,
2010
3001
2100
3010
,
1001
0000
0000
0000
;

//--------------- dance-single - chrononical ----------------
#NOTES:
     dance-single:
     chrononical:
     Hard:
     14:
     0,0,0,0,0:
0000
0000
0000
0000
,
0000
0000
0000
0000
,
0000
0000
0000
0000
,
0000
0000
0000
0000
,
0000
0000
0000
0000
,
0000
0000
0000
0000
,
0000
0000
0000
0000
,
0001
0000
0010
0000
0110
0000
0000
1100
0000
0000
1000
0000
0100
0000
0010
0000
,
0001
0000
0100
0000
0110
0000
0000
1010
0000
0000
1000
0000
0010
0000
0100
0000
,
0001
0010
0000
0010
0100
0000
0100
1000
0000
1000
0001
0000
0100
0000
0110
0000
,
1002
0013
2001
3010
,
1000
0000
0100
0000
0110
0000
0000
0011
0000
0000
0001
0000
0010
0000
0100
0000
,
1000
0000
0010
0000
0110
0000
0000
0101
0000
0000
0001
0000
0100
0000
0010
0000
,
1000
0100
0000
0100
0010
0000
0010
0001
0000
0001
1000
0000
0010
0000
0110
0000
,
2001
0000
0000
0000
3100
0000
0000
0000
1002
0000
0000
0000
0103
0010
1000
0000
,
1010
0000
1001
0000
0021
0000
0130
0002
,
0000
0103
0010
0100
1000
0001
0100
0001
,
0010
0110
0100
1000
0010
0110
0100
0001
,
0010
0000
0110
0000
0100
0000
1000
0000
0010
0100
0010
0000
0100
0000
0001
0000
,
0101
0000
1001
0000
1200
0000
0310
2000
,
0000
3002
0000
0103
1000
0001
0010
0001
,
0100
0110
0010
1000
0100
0110
0010
0001
,
0100
0000
0110
0000
0010
0100
0010
0100
0000
0001
1000
0001
1000
0000
0001
0000
,
0011
0000
1001
0000
1020
0000
0130
0010
,
0001
0010
1000
1000
0001
0010
1000
1000
,
0010
0012
1003
0001
0100
0101
0001
1000
,
0100
0000
2100
0000
3001
0000
1000
0000
0100
0010
0100
1000
0001
0000
1000
0000
,
1100
0000
1001
0000
0201
0000
0310
0100
,
1000
0100
0001
0001
1000
0100
0001
0001
,
0100
2100
3001
1000
0010
1010
1000
0001
,
0010
0000
0011
0000
0001
0000
1000
0000
0010
0100
0010
1000
0001
0000
1000
0000
,
2001
0000
3100
0000
1002
0000
0103
1000
,
1100
0000
0000
0110
0000
0000
0101
0000
0001
0000
0010
0000
0100
0000
2100
0000
,
0000
3001
1020
0000
1030
0001
1200
0000
,
0302
0000
0000
0000
0103
0000
1000
0000
0001
0100
0010
0000
0100
0010
1000
0001
,
1000
0100
0001
0100
1000
0010
0001
0010
,
0100
1000
0000
1200
0000
0301
0010
0012
,
0000
1003
0101
0001
0010
0000
0210
0000
,
0301
0000
0100
0000
1000
0000
0010
0000
0100
0010
0100
0000
0001
1000
0001
1000
,
0001
2100
3001
2010
,
3010
0000
0100
0000
0010
0000
0001
0000
0010
1000
0001
0000
0010
0001
2000
0000
,
0000
3100
0001
1000
0010
0001
1000
0010
,
0100
0001
1000
0000
0010
1000
0001
0000
0010
0001
1000
0000
0100
1000
0001
0000
,
1000
0012
1003
0102
,
0103
0000
0010
0000
0100
0000
1000
0000
0100
0001
1000
0000
0100
1000
0002
0000
,
0000
0013
1000
0001
0100
1000
0001
0010
,
0100
0010
0100
0000
1000
0001
1000
0000
0010
0100
0010
0000
1000
0001
1000
0100
,
0010
2100
3010
0102
,
0013
0000
0100
0000
0010
0000
1000
0000
0010
0001
1000
0000
0010
1000
0002
0000
,
0000
0103
1000
0001
0010
1000
0001
0010
,
0100
1000
0001
0000
0010
0001
1000
0000
0010
1000
0001
0000
0100
0001
1000
0000
,
0100
0012
0103
2010
,
3100
0000
0010
0000
0100
0000
0001
0000
0100
1000
0001
0000
0100
0001
2000
0000
,
0000
3010
0001
1000
0100
0001
1000
0100
,
0010
0100
1000
0000
0001
1000
0001
0000
0100
0010
1000
0000
0100
0010
0001
1000
,
0010
0000
1000
0000
1100
0000
0000
0110
0000
0000
0010
0000
1000
0000
1000
0000
,
0010
0000
0001
0000
0101
0000
0000
0110
0000
0000
0010
0000
0001
0000
0001
0000
,
0010
0100
0000
0100
0001
0000
0001
0010
0000
0010
0100
0000
1000
0000
1100
0000
,
0210
0000
0000
0000
0301
0000
0000
0000
0210
0000
0000
0000
1300
0001
0100
0010
,
0100
0000
0001
0000
0011
0000
0000
0110
0000
0000
0100
0000
0001
0000
0001
0000
,
0100
0000
1000
0000
1010
0000
0000
0110
0000
0000
0100
0000
1000
0000
1000
0000
,
0100
0010
0000
0010
1000
0000
1000
0100
0000
0100
0010
0000
0001
0000
0011
0000
,
0120
0000
0000
0000
1030
0000
0000
0000
0120
0000
0031
0100
0010
0000
0000
0000
,
1001
0000
0000
0000
;
