#TITLE:罪と罰;
#SUBTITLE:;
#ARTIST:Xceon feat. Mayumi Morinaga;
#TITLETRANSLIT:Tsumi to batsu;
#SUBTITLETRANSLIT:;
#ARTISTTRANSLIT:;
#GENRE:HYPER J-POP;
#CREDIT:;
#MUSIC:Tsumi to batsu.ogg;
#BANNER:Tsumi to batsu.png;
#BACKGROUND:Tsumi to batsu-bg.png;
#CDTITLE:./CDTitles/bm IIDX 21 SPADA.png;
#SAMPLESTART:13.370;
#SAMPLELENGTH:15.000;
#SELECTABLE:YES;
#OFFSET:1.161;
#BPMS:0.000=144.000;
#STOPS:231.750=0.417;
#BGCHANGES:0.000=Tsumi to batsu.mp4=1.000=0=0=0=StretchNoLoop====,
99999.000=-nosongbg-=1.000=0=0=0=StretchNoLoop====
;
#FGCHANGES:;

//--------------- dance-single - forcednature ----------------
#NOTES:
     dance-single:
     forcednature:
     Beginner:
     1:
     0,0,0,0,0:
0000
0000
0000
0000
,
0000
0000
0000
0000
,
0000
0000
0000
0000
,
0000
0000
0000
0000
,
0000
0000
0000
0000
,
0001
0000
0000
0000
,
0000
0000
0000
0000
,
1000
0000
0000
0000
,
0000
0000
0000
0000
,
0010
0000
0000
0000
,
0000
0000
0000
0000
,
0100
0000
0000
0000
,
0000
0000
0000
0000
,
0001
0000
0000
0000
,
0000
0000
0000
0000
,
1000
0000
0000
0000
,
0000
0000
0000
0000
,
1001
0000
0000
0000
,
0000
0000
0000
0000
,
0000
0000
0000
0000
,
1000
0000
0000
0000
,
0000
0000
0000
0000
,
1000
0000
0000
0000
,
0000
0000
0000
0000
,
0001
0000
0000
0000
,
0000
0000
0000
0000
,
0001
0000
0000
0000
,
0000
0000
0000
0000
,
0010
0000
0000
0000
,
0000
0000
0000
0000
,
0100
0000
0000
0000
,
0000
0000
0000
0000
,
0100
0000
0000
0000
,
0000
0000
0000
0000
,
0010
0000
0000
0000
,
0000
0000
0000
0000
,
1001
0000
0000
0000
,
0110
0000
0000
0000
,
0000
0000
0000
0000
,
0001
0000
0000
0000
,
0000
0000
0000
0000
,
1000
0000
0000
0000
,
0000
0000
0000
0000
,
0010
0000
0000
0000
,
0000
0000
0000
0000
,
1001
0000
0000
0000
,
0000
0000
0000
0000
,
0000
0000
0000
0000
,
0000
0000
0000
0000
,
1000
0000
0000
0000
,
0000
0000
0000
0000
,
0001
0000
0000
0000
,
0000
0000
0000
0000
,
0100
0000
0000
0000
,
0000
0000
0000
0000
,
0010
0000
0000
0000
,
0000
0000
0000
0000
,
0000
0000
0000
0000
,
0000
1001
0000
0000
,
0000
0000
0000
0000
,
0000
0001
0000
0000
,
0000
0000
0000
0000
,
0000
0100
0000
0000
,
0000
0000
0000
0000
,
0000
0010
0000
0000
,
0000
0000
0000
0000
,
0000
1000
0000
0000
,
0000
0000
0000
0000
,
0000
0001
0000
0000
,
0000
0000
0000
0000
,
0000
1001
0000
0000
;

//--------------- dance-single - forcednature ----------------
#NOTES:
     dance-single:
     forcednature:
     Easy:
     5:
     0,0,0,0,0:
0000
0000
0000
0000
,
0000
0000
0000
0000
,
0000
0000
0000
0000
,
0000
0000
0000
0000
,
0000
0000
0000
0000
,
1000
0000
1000
0100
,
0010
0000
0010
0001
,
0100
0000
0010
0000
,
1000
1000
0001
0000
,
1001
0000
0110
0000
,
0001
0100
0001
0000
,
1001
0000
0110
0000
,
1000
1000
0010
0000
,
1001
0000
0110
0000
,
0010
0100
0010
0000
,
1000
1000
1000
0000
,
0001
0001
0001
0000
,
2002
0000
0000
0000
,
0000
0000
0000
0000
,
3003
0000
0000
0000
,
1000
0000
1000
0000
,
0100
0010
0001
0000
,
0001
0000
0001
0000
,
0100
0010
1000
0000
,
0001
0010
0001
0000
,
0001
0100
0001
0000
,
1000
0100
1000
0000
,
1000
0010
1000
0000
,
1001
0000
0010
0010
,
0010
0000
0100
0000
,
1001
0000
0100
0100
,
0100
0000
0010
0000
,
1000
1000
1000
0000
,
0001
0001
0001
0000
,
0100
0001
0100
0000
,
0010
1000
0010
0000
,
0100
0100
0100
0000
,
1001
0000
0110
0000
,
1000
0010
1000
0000
,
1001
0000
0110
0000
,
0001
0010
0001
0000
,
1001
0000
0110
0000
,
1000
0100
1000
0000
,
0001
0100
0001
0000
,
0010
0001
0010
0000
,
2002
0000
0000
0000
,
0000
0000
0000
0000
,
3003
0000
0000
0000
,
0000
0000
0000
0000
,
0000
1000
0000
1000
,
0000
1000
1000
1000
,
0000
0001
0000
0001
,
0000
0001
0001
0001
,
0000
0100
0010
0100
,
0000
0010
0100
0010
,
0000
1000
0100
1000
,
0001
1000
0010
0000
,
0100
0000
0000
0000
,
0000
1001
0000
0110
,
0000
0001
0010
0001
,
0000
1001
0000
0110
,
0000
1000
0010
1000
,
0000
1001
0000
0110
,
0000
0001
0100
0001
,
0000
1000
1000
1000
,
0000
0001
0001
0001
,
0000
0010
0100
1000
,
0000
0100
0010
0001
,
0000
0100
0100
0100
,
0000
0010
0010
0010
,
0000
2002
0000
0000
,
0000
0000
0000
0000
,
0000
0000
0000
3003
;

//--------------- dance-single - forcednature ----------------
#NOTES:
     dance-single:
     forcednature:
     Medium:
     10:
     0,0,0,0,0:
0000
0000
0000
0000
,
0000
0000
0000
0000
,
0000
0000
0000
0000
,
0000
0000
0000
0000
,
0000
0000
0000
0000
,
1001
0000
0001
0000
0100
0010
1000
0000
,
0001
0000
1000
0000
0100
0010
0001
0000
,
1000
1000
1000
0000
0001
0001
0001
0000
,
2002
0000
3003
0000
0110
0000
0001
0010
,
0001
0000
1000
0010
1000
0000
0100
0010
,
0001
1000
0010
0000
1000
0000
0001
0100
,
0001
0000
1000
0100
1000
0000
0010
0000
,
1001
0000
0110
0000
1001
0000
1000
0100
,
0010
0000
0001
0100
0010
0000
1000
0001
,
0010
0100
1000
0000
0010
0000
0100
0000
,
0012
0103
2010
3100
,
1000
0000
0000
1000
0000
0000
1000
0000
0001
0000
0000
0001
0000
0000
0001
0000
,
0020
0000
0230
0000
,
2300
0000
3002
0000
,
0203
0000
0000
0300
,
0010
1000
0010
0000
1000
0010
1000
0000
,
0100
0110
0010
1001
,
0001
0010
0001
0000
0010
0001
0010
0000
,
0100
0110
0010
1001
,
1000
0100
0010
0000
0100
0010
0001
0000
,
0100
0110
0010
1001
,
0001
0100
0010
0000
0100
0010
1000
0000
,
0100
0110
2002
3003
,
1000
0000
0100
0020
0000
0032
0000
2003
,
0000
0000
3000
0001
0100
0000
0010
1000
,
0010
0000
1000
0200
0000
0320
0000
0032
,
0000
0103
0001
0200
0000
0000
0300
0000
,
0010
0000
0000
1000
0000
0000
0010
0000
0000
0000
0100
0000
0001
0000
0000
0000
,
0010
0000
0000
0010
0000
0000
0100
0000
2002
0000
0000
0000
3003
0000
0000
0000
,
1000
0000
0000
0100
0000
0000
1000
0000
0001
0000
0000
0100
0000
0000
0001
0000
,
0010
0000
0000
0010
0000
0000
0100
0000
0220
0000
0000
0000
0330
0000
0000
0000
,
0010
0000
0000
0110
0000
0000
0100
0000
1001
0000
0000
0000
1000
0000
0001
0000
,
0010
0000
0100
0010
0001
0000
1000
0001
,
0100
0010
1000
0000
1001
0000
0001
1000
,
0010
0000
1000
0001
0010
0000
0100
0000
,
1001
0000
0110
0000
1001
0000
1000
0001
,
0100
0000
0001
1000
0100
0000
0010
0001
,
1000
0001
0100
0000
0220
0000
0330
0000
,
1001
0000
0000
0000
1000
0000
0100
0000
1000
0000
0000
1000
0000
0000
1000
0000
,
0001
0000
0000
0001
0000
0000
0001
0000
0100
0000
0000
0010
0000
0000
0100
0000
,
2002
0000
0000
0000
,
0000
0000
0000
3003
,
2000
0000
3200
0000
,
0320
0000
0032
2003
,
3000
0001
0100
0001
0000
0100
0001
0100
,
0000
0010
1000
0000
0100
0000
1001
0000
,
0000
1000
0100
1000
0000
0100
1000
0100
,
0000
0010
0001
0000
0100
0000
1001
0000
,
0000
0001
0001
0001
0000
1000
1000
1000
,
0000
0010
0100
0010
0000
1000
0001
1000
,
0000
0100
0010
0000
0110
0000
1000
0001
,
1000
0000
0000
0001
0000
0000
0100
0000
0020
0000
0000
0000
0030
0000
0000
0000
,
2000
3200
0320
0032
,
0003
0000
1001
0000
0001
0100
0001
0000
,
1000
0010
1000
0001
0010
0000
0100
0000
,
0010
0001
1000
0000
0010
1000
0001
0000
,
0100
0010
1000
0100
0010
0000
1001
0000
,
0001
0100
0001
0000
1000
0100
1000
0000
,
0010
0100
0001
1000
0100
0000
0110
0000
,
0010
0001
0020
0000
0130
1000
0200
0000
,
1300
0000
0010
0000
1000
0000
0000
1000
0000
0000
1000
0000
0001
0000
0000
0001
,
0000
0001
0100
0000
0010
1000
0001
0000
,
0010
0100
1000
0000
0001
1000
0010
0100
,
0001
0000
0010
0010
0010
0000
0100
0100
,
0100
0000
1000
0010
1000
0010
0100
0001
,
1000
2002
0000
0000
,
0000
0000
0000
0000
,
0000
0000
0000
3003
;

//--------------- dance-single - forcednature ----------------
#NOTES:
     dance-single:
     forcednature:
     Hard:
     15:
     0,0,0,0,0:
0000
0000
0000
0000
,
0000
0000
0000
0000
,
0000
0000
0000
0000
,
0000
0000
0000
0000
,
0000
0000
0000
0000
,
1000
0000
0100
0000
0010
0001
0010
0000
0001
0000
0100
0000
0010
1000
0010
0000
,
0100
0000
0001
0000
1000
0100
1000
0000
0001
0000
0001
0000
0100
0000
0010
1000
,
0001
0001
0010
0010
0100
0100
1000
1000
,
1001
0000
0001
0000
0100
0000
0010
0000
1000
0000
0100
1000
0001
0100
0001
0100
,
0010
0000
1000
0000
0100
0000
0010
0002
0000
0000
0103
0000
0010
0000
1000
0000
,
0001
0000
0010
0000
0100
0000
1000
0020
0000
0000
0130
0000
0001
0000
1000
0000
,
0100
0000
0010
0000
0100
0000
1000
0002
0000
0000
0103
0000
0010
0000
1000
0000
,
1100
0001
0101
1000
1001
0000
0010
0110
,
1000
0000
0100
0000
0010
0000
0001
0200
0000
0000
0310
0000
1000
0000
0100
0000
,
1000
0000
0010
0000
0100
0000
0001
0020
0000
0000
0130
0000
1000
0000
0001
0000
,
0101
0000
0000
0100
0010
0000
1000
0000
1100
0000
0000
0100
0010
0000
0001
0000
,
1001
0000
0000
0110
0000
0000
1000
0000
0001
0100
0001
0100
0010
0000
1000
0000
,
2001
0000
3001
0010
0200
0000
1300
0001
,
0200
0000
0000
0000
0310
0000
1000
0000
0001
0000
0001
0000
1000
0000
0100
0010
,
0002
0000
0000
0003
,
1000
0001
0100
2000
3000
0001
0010
2000
,
3000
0001
0010
0100
0001
0100
1000
0010
,
0000
1000
0100
0002
0003
1000
0010
0002
,
0003
1000
0010
0100
1000
0100
0001
0001
,
0010
0100
1000
1010
0000
0100
0001
0011
,
0000
0010
0100
1000
0010
0001
0010
1000
,
0000
0001
0010
0001
0201
0000
0310
1000
,
0002
0000
0013
0100
2000
0000
3010
0010
,
2001
0000
3001
0101
0000
1010
0000
1002
,
0000
0000
0010
0000
0013
0000
0001
0000
1000
0010
1000
0000
0010
0000
0100
0000
,
0201
0000
0301
0011
0000
0110
0000
2100
,
0000
0000
3010
0000
1010
0000
1000
0100
0010
0000
0001
0000
1001
0000
0000
0000
,
0101
0000
0000
0110
0000
0000
2010
0000
0000
0000
3001
0000
0010
0000
0100
0000
,
1100
0000
0000
0110
0000
0000
0010
0000
0012
0000
0000
0000
0103
0000
0010
0000
,
1001
0000
0000
0001
0010
0000
0100
0000
1001
0000
0000
1000
0010
0000
0100
0000
,
0110
0000
0000
0010
1000
0000
0001
0000
0021
0000
0000
0000
0130
0000
1000
0001
,
0100
0000
0000
1001
0000
0000
0110
0000
2002
0000
0000
0000
3003
0000
0000
0000
,
0001
0000
0100
0000
0010
0000
1000
0100
0000
0100
0010
0000
0001
1000
0001
0000
,
0100
0000
0010
0000
1000
0000
0001
0010
0000
0010
0100
0000
1000
0001
1000
0000
,
0010
0000
0100
0000
0001
0000
1000
0100
0000
0100
0010
0000
0001
0000
0100
0000
,
0001
0010
0001
0000
1000
0010
1000
0000
1001
0000
0000
0000
0100
0000
0110
0000
,
1000
0000
0001
0000
0100
0001
0100
0002
0000
0000
1003
0000
0001
0000
0010
0000
,
0011
0000
0001
0000
1000
0100
1000
0200
0000
0000
0310
0000
0001
0000
1000
0000
,
1001
0000
0001
0010
0001
0000
0100
0000
1001
0000
1000
0010
1000
0000
0100
0000
,
0010
0001
0000
1000
0010
0000
0100
0000
0001
1000
0001
1000
0100
0000
0010
0001
,
2000
0000
3020
0000
,
0230
0000
0000
0000
0301
1000
0100
0010
,
0002
0000
1003
0001
0200
0000
0310
1000
,
0002
0000
0013
0100
0010
0001
0100
1000
,
0000
1000
0100
0002
0003
1000
0100
0002
,
0003
0000
0100
0000
0010
0000
0001
0000
0100
0000
0010
1000
0001
0000
0010
0000
,
0000
1000
0010
0002
0003
1000
0010
0002
,
0003
0000
0010
0000
1000
0000
0001
0000
0010
0000
0100
1000
0010
0000
0100
0000
,
0110
0000
0010
1000
0001
0000
0022
0000
0033
0000
0010
0001
1000
0000
2020
0000
,
3030
0000
1000
0001
0100
0000
0010
0000
1000
0001
1000
0001
0010
0000
0100
0000
,
1000
0001
0010
0000
0100
1000
0001
0000
0001
1000
0010
0000
0100
0001
1000
0000
,
1000
0100
1000
0100
0010
0001
0010
0001
0100
0010
0100
0010
1000
0001
1000
0000
,
0100
0000
0100
0010
0001
0000
0001
0100
0010
0000
0010
1000
0001
0010
0100
2000
,
3000
0000
0000
0000
1001
0000
0001
0000
0100
0000
0010
1000
0000
1000
0001
0000
,
0010
0100
1000
0000
1010
0000
0010
0000
0100
0000
0001
0010
0000
0010
0100
0000
,
1000
0001
0100
0000
0110
0000
0010
0000
1000
0000
0100
0010
0000
0010
0001
0000
,
0100
0000
1000
0000
0100
0001
0010
0000
0100
1000
0010
0000
1001
0000
0000
0000
,
0100
0000
0110
0000
0001
1000
0010
0000
1000
0100
1000
0100
0020
0000
0001
0000
,
0130
0000
1000
0000
0001
1000
0010
0000
0100
0001
0100
0001
2000
0000
0100
0000
,
3001
0000
1000
0000
1010
0000
0010
1000
0001
1000
0100
0000
0011
0000
0010
0001
,
1000
0001
0100
0000
0110
0000
0000
1001
0000
0000
1000
0001
1000
0100
1000
0100
,
0010
0001
0010
0001
1000
0000
0010
0000
0100
1000
0100
0000
0001
0000
0010
0000
,
0100
0001
0100
0000
1000
0000
0010
0000
0100
0001
1000
0001
0010
0000
0100
0010
,
0100
0000
1000
0000
1010
0000
0010
0000
0100
0001
1000
0000
0011
0000
0010
0000
,
0100
1000
0001
0000
0100
0010
0100
0010
1000
0001
1000
0001
0010
0100
1000
0001
,
0100
0010
1000
0001
0020
0000
0000
0000
0000
0000
0000
0000
0000
0000
0000
0000
,
0000
0000
0000
0000
,
0000
0000
0000
0030
;

//--------------- dance-double - forcednature ----------------
#NOTES:
     dance-double:
     forcednature:
     Easy:
     5:
     0,0,0,0,0:
00000000
00000000
00000000
00000000
,
00000000
00000000
00000000
00000000
,
00000000
00000000
00000000
00000000
,
00000000
00000000
00000000
00000000
,
00000000
00000000
00000000
00000000
,
00001000
00000000
00001000
00010000
,
00000100
00000000
00010000
00001000
,
01000000
00000000
01000000
00000000
,
00010000
00010000
10000000
00000000
,
10010000
00000000
01100000
00000000
,
00010000
01000000
00001000
00000000
,
00011000
00000000
00011000
00000000
,
00010000
00010000
00000100
00000000
,
00001001
00000000
00000110
00000000
,
00000001
00001000
00000001
00000000
,
00000010
00000010
00000010
00000000
,
00000100
00000100
00000100
00000000
,
00022000
00000000
00000000
00000000
,
00000000
00000000
00000000
00000000
,
00033000
00000000
00000000
00000000
,
00001000
00000000
00001000
00000000
,
00001000
01000000
00001000
00000000
,
00010000
00000000
00010000
00000000
,
00010000
00000100
00010000
00000000
,
00001000
00100000
00001000
00000000
,
00001000
01000000
00001000
00000000
,
00010000
00000100
00010000
00000000
,
00010000
00000010
00010000
00000000
,
00011000
00000000
00100000
00100000
,
00100000
00000000
01000000
00000000
,
10010000
00000000
01000000
01000000
,
01000000
00000000
00100000
00000000
,
00001000
00001000
00001000
00000000
,
00010000
00010000
00010000
00000000
,
00000010
00001000
00000010
00000000
,
00001000
00000100
00001000
00000000
,
00000001
00000001
00000001
00000000
,
00001001
00000000
00000110
00000000
,
00001000
00000100
00001000
00000000
,
00001001
00000000
00000110
00000000
,
00010000
00001000
00010000
00000000
,
00011000
00000000
00011000
00000000
,
01000000
00010000
01000000
00000000
,
00010000
10000000
00010000
00000000
,
00100000
00010000
00100000
00000000
,
00022000
00000000
00000000
00000000
,
00000000
00000000
00000000
00000000
,
00033000
00000000
00000000
00000000
,
00000000
00000000
00000000
00000000
,
00000000
00000100
00000000
00000100
,
00000000
00000100
00000100
00000100
,
00000000
00010000
00000000
00010000
,
00000000
00010000
00010000
00010000
,
00000000
00001000
00100000
00001000
,
00000000
00001000
00010000
00001000
,
00000000
00001000
01000000
00010000
,
01000000
00001000
00010000
00000000
,
00010000
00000000
00000000
00000000
,
00000000
00011000
00000000
00011000
,
00000000
00001000
00100000
00001000
,
00000000
10010000
00000000
01100000
,
00000000
10000000
00010000
10000000
,
00000000
00011000
00000000
00011000
,
00000000
00010000
00000010
00010000
,
00000000
00000100
00000100
00000100
,
00000000
00001000
00001000
00001000
,
00000000
00000001
00000100
00000010
,
00000000
00001000
00000010
00010000
,
00000000
00001000
00001000
00001000
,
00000000
00010000
00010000
00010000
,
00000000
00022000
00000000
00000000
,
00000000
00000000
00000000
00000000
,
00000000
00000000
00000000
00033000
;

//--------------- dance-double - forcednature ----------------
#NOTES:
     dance-double:
     forcednature:
     Medium:
     11:
     0,0,0,0,0:
00000000
00000000
00000000
00000000
,
00000000
00000000
00000000
00000000
,
00000000
00000000
00000000
00000000
,
00000000
00000000
00000000
00000000
,
00000000
00000000
00000000
00000000
,
00011000
00000000
00010000
00000000
00000100
00001000
00000001
00000000
,
00000100
00000000
00000010
00000000
00001000
00000010
00010000
00000000
,
00001000
00001000
00001000
00000000
00010000
00010000
00010000
00000000
,
00022000
00000000
00033000
00000000
01001000
00000000
01000000
00010000
,
01000000
00000000
00100000
10000000
00100000
00000000
10000000
01000000
,
00100000
00001000
00010000
00000000
00000010
00000000
00001000
00000100
,
00001000
00000000
00000100
00010000
00000100
00000000
00001000
00000000
,
00001001
00000000
00000110
00000000
00001001
00000000
00001000
00000010
,
00010000
00000000
00001000
00100000
00010000
00000000
10000000
00010000
,
01000000
00010000
00100000
00000000
01000000
00000000
10000000
00000000
,
20100000
31000000
00120000
01030000
,
00001000
00000000
00000000
00001000
00000000
00000000
00001000
00000000
00010000
00000000
00000000
00010000
00000000
00000000
00010000
00000000
,
00000200
00000000
00002300
00000000
,
00003002
00000000
00000203
00000000
,
00002300
00000000
00000000
00003000
,
00010000
00000010
00010000
00000000
00001000
00100000
00001000
00000000
,
00010000
00010100
00001000
01001000
,
00001000
00100000
00001000
00000000
00010000
00000010
00010000
00000000
,
00001000
01001000
00010000
00010100
,
00000100
00001000
00000010
00000000
00010000
00001000
00100000
00000000
,
01000000
01100000
00100000
00011000
,
01000000
00001000
00010000
00000000
00000100
00001000
00000010
00000000
,
00000100
00000110
00002002
00003003
,
00000001
00000000
00000010
00000200
00000000
00020300
00000000
00032000
,
00000000
00000000
00003000
01000000
00010000
00000000
10000000
00100000
,
10000000
00000000
01000000
00020000
00000000
00032000
00000000
00003020
,
00000000
00000130
00001000
00000200
00000000
00000000
00000300
00000000
,
00000010
00000000
00000000
00000001
00000000
00000000
00000010
00000000
00000000
00000000
00000100
00000000
00010000
00000000
00000000
00000000
,
00001000
00000000
00000000
00001000
00000000
00000000
01000000
00000000
02200000
00000000
00000000
00000000
03300000
00000000
00000000
00000000
,
10000000
00000000
00000000
01000000
00000000
00000000
00010000
00000000
00001000
00000000
00000000
00000010
00000000
00000000
00000001
00000000
,
00000100
00000000
00000000
00000100
00000000
00000000
00000010
00000000
00000220
00000000
00000000
00000000
00000330
00000000
00000000
00000000
,
00010000
00000000
00000000
00011000
00000000
00000000
00001000
00000000
00011000
00000000
00000000
00000000
00010000
00000000
00001000
00000000
,
00100000
00000000
00001000
00010000
00000010
00000000
00001000
00000100
,
00010000
00001000
01000000
00000000
01100000
00000000
00100000
10000000
,
01000000
00000000
00100000
00010000
01000000
00000000
00001000
00000000
,
00011000
00000000
00010100
00000000
00000110
00000000
00000010
00000001
,
00000100
00000000
00000010
00001000
00000001
00000000
00000010
00000100
,
00001000
00000100
00010000
00000000
00022000
00000000
00033000
00000000
,
01001000
00000000
00000000
00000000
01000000
00000000
00010000
00000000
00100000
00000000
00000000
00100000
00000000
00000000
00100000
00000000
,
00001000
00000000
00000000
00001000
00000000
00000000
00001000
00000000
00010000
00000000
00000000
00000010
00000000
00000000
00010000
00000000
,
00022000
00000000
00000000
00000000
,
00000000
00000000
00000000
00033000
,
00000200
00000000
00020300
00000000
,
00032000
00000000
02003000
03020000
,
00030000
10000000
01000000
10000000
00000000
01000000
00010000
01000000
,
00000000
00010000
00001000
00000000
00000010
00000000
00001001
00000000
,
00000000
00000001
00000100
00000001
00000000
00000100
00001000
00000100
,
00000000
00001000
00010000
00000000
00100000
00000000
10010000
00000000
,
00000000
00001000
00001000
00001000
00000000
00010000
00010000
00010000
,
00000000
00000100
00001000
00000100
00000000
00010000
00001000
00010000
,
00000000
00100000
01000000
00000000
01100000
00000000
00100000
10000000
,
00010000
00000000
00000000
10000000
00000000
00000000
01000000
00000000
00020000
00000000
00000000
00000000
00030000
00000000
00000000
00000000
,
00002000
00003020
00000032
00000203
,
00000300
00000000
00000110
00000000
00000010
00001000
00000001
00000000
,
00000010
00000100
00001000
00000100
00010000
00000000
00001000
00000000
,
01000000
00010000
10000000
00000000
01000000
10000000
00010000
00000000
,
01000000
00001000
00010000
00000010
00001000
00000000
00001001
00000000
,
00000001
00000010
00000100
00000000
00001000
00000010
00000100
00000000
,
00001000
00010000
00001000
01000000
00010000
00000000
10010000
00000000
,
10000000
01000000
20000000
00000000
31000000
00010000
02000000
00000000
,
03100000
00000000
00001000
00000000
00010000
00000000
00000000
00010000
00000000
00000000
00010000
00000000
00001000
00000000
00000000
00001000
,
00000000
00001000
00000010
00000000
00000100
00001000
00000001
00000000
,
00000100
00001000
00010000
00000000
00100000
10000000
00010000
10000000
,
01000000
00000000
00010000
00010000
00010000
00000000
00001000
00001000
,
00001000
00000000
00000010
00000100
00000010
00000100
00001000
00000001
,
00000100
00002002
00000000
00000000
,
00000000
00000000
00000000
00000000
,
00000000
00000000
00000000
00003003
;

//--------------- dance-double - forcednature ----------------
#NOTES:
     dance-double:
     forcednature:
     Hard:
     15:
     0,0,0,0,0:
00000000
00000000
00000000
00000000
,
00000000
00000000
00000000
00000000
,
00000000
00000000
00000000
00000000
,
00000000
00000000
00000000
00000000
,
00000000
00000000
00000000
00000000
,
00001000
00000000
00010000
00000000
00000100
00001000
00000100
00000000
00000010
00000000
00000001
00000000
00001000
00000010
00001000
00000000
,
00000100
00000000
00010000
00000000
00001000
01000000
00001000
00000000
00010000
00000000
00010000
00000000
00100000
00000000
10000000
00010000
,
00100000
00100000
01000000
01000000
00010000
00010000
00001000
00001000
,
00011000
00000000
00000000
00000000
00010000
00000000
00000100
00000000
00001000
00000000
00000001
00000100
00000010
00001000
00000010
00001000
,
00000100
00000000
00010000
00000000
00001000
00000000
01000000
00020000
00000000
00000000
00130000
00000000
01000000
00000000
00100000
00000000
,
00001000
00000000
00010000
00000000
00100000
00000000
01000000
00020000
00000000
00000000
10030000
00000000
01000000
00000000
00010000
00000000
,
00001000
00000000
00100000
00000000
00001000
00000000
00010000
00000020
00000000
00000000
00001030
00000000
00000100
00000000
00000010
00000000
,
00000001
00000100
00001000
00010000
00011000
00000000
00100000
00010000
,
01000000
00000000
00010000
00000000
10000000
00000000
01000000
00200000
00000000
00000000
00301000
00000000
00010000
00000000
00000100
00000000
,
00001000
00000000
00000010
00000000
00000100
00000000
00000001
00002000
00000000
00000000
00003100
00000000
00010000
00000000
00001000
00000000
,
01001000
00000000
00000000
01000000
00010000
00000000
10000000
00000000
11000000
00000000
00000000
01000000
00100000
00000000
00001000
00000000
,
00011000
00000000
00000000
00010100
00000000
00000000
00000100
00000000
00001000
00000001
00001000
00000001
00000100
00000000
00000010
00000000
,
00020010
00000000
00031000
00100000
02000000
00000000
13000000
00010000
,
02000000
00000000
00000000
00000000
03001000
00000000
00010000
00000000
00000100
00000000
00000100
00000000
00001000
00000000
00000001
00000100
,
00000020
00000000
00000000
00000030
,
00000100
00001000
00010000
00200000
00300000
00010000
00001000
00000020
,
00000030
00001000
00010000
01000000
00100000
00001000
00010000
00100000
,
00000000
10000000
01000000
00020000
00030000
00001000
00000100
00000002
,
00000003
00000010
00000100
00010000
00001000
00000100
00000010
00000010
,
00001000
00000001
00000010
00001010
00000000
00001000
00010000
00110000
,
00000000
00100000
01000000
10000000
01000000
00010000
00100000
00001000
,
00000000
00010000
00000010
00001000
00001200
00000000
00010300
00001000
,
02000000
00000000
03010000
00100000
02000000
00000000
03100000
00100000
,
00102000
00000000
01003000
01010000
00000000
00011000
00000000
00001200
,
00000000
00000000
00000010
00000000
00000310
00000000
00000100
00000000
00001000
00000001
00001000
00000000
00000010
00000000
00010000
00000000
,
00012000
00000000
00103000
00110000
00000000
01100000
00000000
21000000
,
00000000
00000000
30100000
00000000
00010000
00000000
00001000
00010000
00000100
00000000
00000010
00000000
00000110
00000000
00000000
00000000
,
00010100
00000000
00000000
00011000
00000000
00000000
02001000
00000000
00000000
00000000
03010000
00000000
10000000
00000000
01000000
00000000
,
01100000
00000000
00000000
00101000
00000000
00000000
00001000
00000000
00021000
00000000
00000000
00000000
00030010
00000000
00001000
00000000
,
00001001
00000000
00000000
00000001
00000100
00000000
00001000
00000000
00011000
00000000
00000000
00010000
01000000
00000000
10000000
00000000
,
10010000
00000000
00000000
00010000
01000000
00000000
00001000
00000000
00021000
00000000
00000000
00000000
00030010
00000000
00001000
00000001
,
00000010
00000000
00000000
00001000
00000000
00000000
00010000
00000000
00022000
00000000
00000000
00000000
00033000
00000000
00000000
00000000
,
00010000
00000000
01000000
00000000
10000000
00000000
01000000
00100000
00000000
00100000
00001000
00000000
00010000
00000010
00010000
00000000
,
00001000
00000000
00000010
00000000
00000100
00000000
00000010
00000001
00000000
00000001
00000100
00000000
00000010
00001000
00000010
00000000
,
00010000
00000000
00001000
00000000
00100000
00000000
00010000
01000000
00000000
01000000
00100000
00000000
10000000
00000000
01000000
00000000
,
00010000
00001000
00010000
00000000
00000100
00001000
00000100
00000000
00000110
00000000
00000000
00000000
00000010
00000000
00000001
00000000
,
00000100
00000000
00000001
00000000
00000010
00000100
00000010
00000200
00000000
00000000
00010300
00000000
00001000
00000000
01000000
00000000
,
00010000
00000000
10000000
00000000
01000000
00100000
01000000
00200000
00000000
00000000
00301000
00000000
00010000
00000000
00000010
00000000
,
00000110
00000000
00000100
00000001
00000100
00000000
00001000
00000000
00011000
00000000
00010000
00000010
00010000
00000000
00001000
00000000
,
00100000
00010000
00000000
10000000
00100000
00000000
10000000
00000000
01000000
00100000
01000000
00100000
00001000
00000000
00010000
00000010
,
00002000
00000000
00003002
00000000
,
00000023
00000000
00000000
00000000
00000130
00010000
00001000
00100000
,
00020000
00000000
10030000
00010000
02000000
00000000
03001000
00010000
,
00000200
00000000
00001300
00000010
00000001
00000010
00000100
00001000
,
00000000
00010000
00100000
00020000
00030000
00001000
00000010
00002000
,
00003000
00000000
00010000
00000000
01000000
00000000
10000000
00000000
00010000
00000000
10000000
00100000
01000000
00000000
00001000
00000000
,
00000000
00010000
00000100
00000020
00000030
00000100
00010000
00000020
,
00000030
00000000
00000100
00000000
00001000
00000000
00010000
00000000
00100000
00000000
01000000
00010000
10000000
00000000
01000000
00000000
,
01100000
00000000
00100000
00001000
00010000
00000000
00020200
00000000
00030300
00000000
00000010
00010000
00001000
00000000
02002000
00000000
,
03003000
00000000
00100000
00001000
00010000
00000000
00000010
00000000
00001000
00000001
00001000
00000001
00000010
00000000
00000100
00000000
,
00010000
00001000
01000000
00000000
00010000
00100000
00001000
00000000
00010000
00000010
00001000
00000000
00000100
00010000
00001000
00000000
,
01000000
00010000
01000000
00000000
00100000
01000000
00100000
00000000
10000000
00100000
10000000
00000000
01000000
10000000
01000000
00000000
,
00100000
00000000
00000000
00100000
00001000
00000000
00000000
00001000
00010000
00000000
00000010
00001000
00000010
00000100
00000001
00002000
,
00003000
00000000
00000000
00000000
00000100
00000000
00010000
00000000
00001000
00000000
01000000
00010000
00000000
00010000
10000000
00000000
,
01000000
00100000
00001000
00000000
00010000
00000000
00000010
00000000
00001000
00000000
00000100
00010000
00000000
00010000
00001000
00000000
,
00000100
00000001
00001000
00000000
00000100
00000000
00000010
00000000
00000100
00000000
00010000
00001000
00000000
01000000
00010000
00000000
,
00100000
00000000
10000000
00000000
00100000
00010000
10000000
00000000
00010000
01000000
00001000
00000000
00011000
00000000
00000000
00000000
,
00010000
00000000
00000100
00000000
00001000
00000001
00000100
00000000
00000010
00001000
00000010
00001000
00000200
00000000
00010000
00000000
,
00001300
00000000
00000100
00000000
00010000
00001000
01000000
00000000
00010000
10000000
00010000
10000000
02000000
00000000
00100000
00000000
,
13000000
00000000
01000000
00000000
01100000
00000000
00100000
00001000
00010000
00000000
00000010
00000000
00000110
00000000
00000010
00010000
,
00001000
00000000
00100000
00000000
01100000
00000000
00000000
11000000
00000000
00000000
10000000
00010000
01000000
00001000
01000000
00001000
,
00010000
00000100
00010000
00000100
00001000
00000000
00000010
00000000
00010000
00001000
00010000
00000000
00100000
00000000
01000000
00000000
,
00001000
00010000
00001000
00000000
00100000
00000000
00010000
00000000
10000000
00100000
01000000
00010000
01000000
00000000
00001000
00000000
,
00010000
00000000
00000100
00000000
00000110
00000000
00000010
00000000
00001000
00010000
01000000
00000000
01100000
00000000
00100000
00000000
,
00001000
00010000
00000100
00000000
00001000
00000010
00001000
00000010
00010000
00001000
00010000
00001000
00100000
00000000
00010000
00000000
,
10000000
00100000
01000000
00010000
00200000
00000000
00000000
00000000
00000000
00000000
00000000
00000000
00000000
00000000
00000000
00000000
,
00000000
00000000
00000000
00000000
,
00000000
00000000
00000000
00300000
;
