#TITLE:Time Traveler;
#SUBTITLE:;
#ARTIST:KNOWER;
#TITLETRANSLIT:;
#SUBTITLETRANSLIT:;
#ARTISTTRANSLIT:;
#GENRE:;
#CREDIT:;
#MUSIC:Time Traveler.ogg;
#BANNER:;
#BACKGROUND:;
#CDTITLE:;
#SAMPLESTART:69.064;
#SAMPLELENGTH:15.000;
#SELECTABLE:YES;
#OFFSET:-0.064;
#BPMS:0.000=160.000;
#STOPS:;
#BGCHANGES:;
#FGCHANGES:;

//--------------- dance-single - eataninja ----------------
#NOTES:
     dance-single:
     eataninja:
     Beginner:
     4:
     0,0,0,0,0:
0000
0000
0000
0000
,
0000
0000
0000
0000
,
0000
0000
0000
0000
,
0000
0000
0000
0000
,
0000
0001
1000
0000
,
1000
0010
0000
0000
,
0000
1000
0001
0000
,
0010
0010
0010
0000
,
0100
0010
0100
0000
,
1000
1000
0001
0000
,
0100
0010
0100
0000
,
2002
0000
3003
0000
,
0010
0100
0010
0000
,
1000
1000
0001
0000
,
0010
0100
0010
0000
,
2002
3003
2002
3003
,
2002
3003
2002
3003
,
0010
0000
0000
0000
,
0100
0000
0000
0000
,
0001
0000
0000
0000
,
1000
0000
0000
0000
,
0100
0000
0000
0000
,
0010
0000
0000
0000
,
0100
0000
0000
0000
,
1000
0000
0000
0000
,
0001
0001
0100
0000
,
0010
0100
0010
0000
,
1000
1000
0001
0000
,
0010
0100
0010
0000
,
0001
0001
1000
0000
,
0010
1000
0010
0000
,
0100
0100
0001
0000
,
1000
0100
1000
0000
,
0002
0000
0000
0003
,
2000
0000
0000
3000
,
0020
0000
0000
0030
,
2000
0000
0000
3000
,
0002
0000
0000
0003
,
0020
0000
0000
0030
,
0100
0100
0100
0000
,
0110
0000
0110
0000
,
0110
0000
0110
0000
,
1001
0000
0001
0000
,
0020
0000
0000
0000
,
0230
0000
0000
0000
,
1300
0000
0001
1000
,
0010
0100
0000
0100
,
0001
0001
0000
0000
,
0010
0100
0000
1000
,
0001
0001
0001
0000
,
0010
0100
0000
0100
,
1000
1000
0000
0000
,
0010
0100
0000
0001
,
1000
1000
1000
0000
,
0001
0000
0100
0000
,
1000
0000
0100
0000
,
0001
0000
0100
0000
,
1000
0000
0100
0000
,
0001
0000
0010
0000
,
1000
0000
0010
0000
,
0001
0000
0010
0000
,
1000
0000
0010
0000
,
0110
0000
1000
0000
,
0001
0100
0001
0000
,
0010
0010
0100
0000
,
2002
0000
3003
0000
,
1000
0000
0001
0000
,
0010
0010
0001
0000
,
0100
0010
0100
0000
,
2002
0000
3003
0000
,
0001
0000
0010
0010
,
0100
0000
0010
0010
,
0001
0000
1000
1000
,
2002
0000
0000
3003
,
0200
0000
0320
0000
,
2030
0000
0000
0000
,
0000
0000
0000
0000
,
0000
0000
0000
0000
,
0000
0000
0000
0000
,
3000
0000
0000
0000
;

//--------------- dance-single - eataninja ----------------
#NOTES:
     dance-single:
     eataninja:
     Easy:
     8:
     0,0,0,0,0:
0000
0000
0000
0000
,
0000
0000
0000
0000
,
0000
0000
0000
0000
,
0000
0000
0000
0000
,
0000
1000
0100
0000
,
0001
0100
0000
0000
,
0000
1000
0010
0000
,
0100
0100
0100
0000
,
1001
0001
0010
0010
,
0001
1000
0100
0010
,
0001
0100
1000
0000
0100
0000
0100
0000
,
0001
0000
0000
0001
0000
0000
0001
0000
0000
0000
1000
0000
0000
0000
0000
0000
,
1001
1000
0010
0010
,
0100
0000
0001
0000
0010
0100
1000
0000
,
0001
0100
0010
0100
,
0002
0000
0000
1000
2003
0000
0000
0100
,
3200
0000
0000
0010
0320
0000
0000
0031
,
1000
0000
1000
1000
,
0020
0030
0010
0010
,
0002
0003
0001
0001
,
0200
0300
0100
0100
,
2000
0000
3000
1000
0000
0000
1000
0000
,
0020
0000
0030
0010
0000
0000
0010
0000
,
0002
0000
0003
0001
0000
0000
0001
0000
,
0200
0000
0300
0100
0000
0000
1000
0000
,
1001
0001
0100
0100
,
0010
1000
0100
0000
0010
0000
0001
0000
,
1000
0010
0100
0100
,
0001
0010
0100
0000
0010
0001
0001
0000
,
1001
1000
0010
0010
,
1000
0000
0100
0000
0001
0100
0010
0000
,
0001
1000
0010
0100
,
1000
0000
0100
0000
0010
1000
0001
0000
,
0020
0000
0100
0000
,
0001
0000
0130
0000
,
2000
0000
0010
0000
,
0001
0000
3100
0000
,
0020
0001
0130
0000
,
2000
0010
3001
0000
,
0001
0010
0010
0000
,
0100
0010
0100
0000
1000
0001
1000
0000
,
0010
0100
0010
0000
0100
0001
1000
0000
,
1001
0000
0000
0201
0000
0000
1000
0000
,
0010
0010
0001
0001
,
1000
1000
0001
0001
,
0010
0000
0310
0000
0110
0000
0100
0001
,
1000
0000
0100
0000
0001
0100
1000
0000
,
1001
0000
0101
0000
0000
0001
0100
0000
,
0010
1000
0100
0000
0010
0000
0001
0000
,
1000
0000
0000
1000
0000
0000
1000
0000
0000
0000
0001
0000
0000
0000
0000
0000
,
1000
0000
0010
0000
0001
0010
1000
0000
,
1001
0000
0011
0000
0000
0001
0010
0000
,
0100
1000
0010
0000
0100
0000
0001
0000
,
1000
0000
0000
1000
0000
0000
1000
0000
0000
0000
0001
0000
0000
0000
0000
0000
,
1000
0010
1000
0000
0010
0100
0010
0000
,
0100
0001
0100
0000
0001
0010
0100
0000
,
1000
0100
1000
0000
0100
0010
0100
0000
,
0010
0001
0010
0000
0001
0100
0010
0000
,
1000
0010
0001
0000
0010
0100
0001
0000
,
1000
0100
0001
0000
0100
0010
0001
0000
,
1000
0010
0100
0000
1000
0100
0001
0000
,
0010
0010
0010
0000
0100
0100
0100
0000
,
1001
0000
1000
0000
0010
0100
0010
0000
,
1000
0001
0010
0000
0100
0010
0001
0000
,
1000
0000
0010
0000
0100
0010
0100
0000
,
0001
0000
0000
0001
0000
0000
0001
0000
0000
0000
1000
0000
0000
0000
0000
0000
,
1001
0000
0001
0000
0010
0100
0010
0000
,
0001
0000
0100
0100
0010
0000
0100
0000
,
0001
1000
0100
0000
0010
0000
0100
0000
,
1000
0000
0000
1000
0000
0000
1000
0000
0000
0000
0001
0000
0000
0000
0000
0000
,
0101
0000
1000
0000
0001
0001
1000
0000
,
0100
0000
0010
0000
0001
0001
0100
0000
,
0010
0000
0100
0000
0001
0001
1000
1000
,
0200
0000
0000
0000
,
0320
0000
0032
0000
,
2003
0000
0010
0000
,
0010
0000
0010
0000
,
3200
0000
0010
0000
,
0010
0000
0310
0000
;

//--------------- dance-single - eataninja ----------------
#NOTES:
     dance-single:
     eataninja:
     Medium:
     12:
     0,0,0,0,0:
0000
0000
0000
0000
,
0000
0000
0000
0000
,
0000
0000
0000
0000
,
0000
0000
0000
0000
,
1000
0000
0010
0000
1000
1000
1000
0000
,
0001
0010
0100
0000
,
0010
0000
0001
0000
1000
1000
1000
0000
,
0010
0000
0100
0000
0010
0000
1000
0001
,
0010
1000
0010
0100
0000
1000
0001
1000
,
0010
0100
0001
0100
0000
0010
1000
0001
,
0010
0100
1000
0001
0000
0100
0010
0010
,
1000
0000
0000
1000
0000
0000
1000
0000
0000
0000
1000
0000
0000
0000
0100
0000
,
0001
0100
1000
0001
0000
0100
0010
1000
,
0100
0010
0001
1000
0010
0010
0200
0000
,
0301
1000
0010
1000
0000
0100
0010
0001
,
1000
0000
0000
1000
0000
0000
1000
0000
0001
0000
0000
0001
0000
0000
0001
0000
,
0100
0000
0000
0100
0000
0000
0100
0000
0010
0000
0000
0010
0000
0000
0010
0000
,
2002
3003
0000
1000
0100
0010
0001
0000
,
0202
0303
0000
0001
0100
0010
1000
0000
,
2002
3003
0000
0001
0010
0100
1000
0000
,
2200
3300
0000
1000
0010
0100
0001
0000
,
1000
0000
0100
0001
0000
0100
0010
0001
,
1000
0000
0010
0001
0000
0010
0100
0100
,
0001
0000
0100
1000
0000
0100
0010
1000
,
0001
0000
0010
1000
0000
0010
0100
1000
,
0001
0100
0010
0100
0001
1000
0100
0000
,
0010
0001
1000
0100
1000
0001
0100
0000
,
0010
0100
0001
1000
0100
0010
0001
0000
,
1000
0010
0100
0010
1000
0001
0001
0000
,
0010
0100
1000
0001
1000
0010
0100
0000
,
0001
1000
0100
0001
0100
0010
0001
0000
,
1000
0010
0100
0010
1000
0001
0100
0000
,
0010
1000
0001
0010
1000
0010
0100
0000
,
2000
0010
0001
0000
,
0100
0000
3001
0000
,
0002
0100
0010
0000
,
1000
0000
0103
0000
,
0001
1000
0100
0001
,
0100
1000
0010
0000
,
0100
0100
0100
0000
,
0001
1000
1001
0000
0001
0100
0101
0000
,
0001
1000
1001
0000
0001
0010
0100
1000
,
0001
0000
0100
2000
0000
0100
3100
0000
,
0001
0000
1000
0200
0000
0001
0301
0000
,
0100
0000
0010
0002
0000
1000
1003
0000
,
0010
0000
0100
0000
0100
0000
0001
1000
,
0100
0001
0100
0000
0010
0001
1000
0010
,
0110
0000
1001
0000
0000
1000
0010
0010
,
0100
1000
0100
0000
0010
1000
0001
0010
,
0100
0000
0000
0100
0000
0000
0100
0000
0000
0000
1000
0000
0001
0000
0000
0000
,
0010
1000
0010
0000
0100
1000
0001
0100
,
0110
0000
1001
0000
0000
0001
0010
0010
,
0100
0001
0100
0000
0010
0001
1000
0010
,
0100
0000
0000
0100
0000
0000
0100
0000
0000
0000
0001
0000
1000
0000
0000
0000
,
0001
0010
0100
1000
0010
0100
0001
0010
,
0100
1000
0010
0100
0001
0010
0100
0000
,
1000
0100
0010
0001
0100
0010
1000
0100
,
0010
0001
0100
0010
1000
0100
0010
0000
,
0001
1000
0010
0001
0010
0100
0001
1000
,
0100
0001
0100
0010
0001
1000
0010
0000
,
1000
0001
0100
1000
0100
0010
1000
0001
,
0010
1000
0010
0100
1000
0001
0100
0100
,
1000
0100
0001
1000
0010
1000
0001
0010
,
0001
1000
0100
0010
0001
0100
0010
0000
,
0100
0001
1000
0100
0010
0001
1000
0010
,
0100
0000
0000
0100
0000
0000
0100
0000
0000
0000
0100
0000
0000
0000
0010
0000
,
0001
0010
1000
0001
0010
0001
1000
0010
,
1000
0100
0010
0001
0001
1000
0010
0000
,
0100
1000
0100
0001
1000
0100
0010
0001
,
0100
0000
0000
0100
0000
0000
0100
0000
0000
0000
0010
0000
1000
0000
1000
0000
,
0100
0001
0100
0010
0001
0001
2000
0000
,
3010
0100
0001
1000
0100
0100
0020
0000
,
0031
1000
0001
0010
0100
0100
1000
1000
,
0010
0000
0000
0010
0000
0000
0010
0000
0000
0010
0000
0000
0100
0000
0100
0000
,
0001
0000
0000
0001
0000
0000
0001
0000
1000
0000
0000
1000
0000
0000
1000
0000
,
0200
0000
0320
0000
,
0032
0000
2003
0000
,
3020
0000
0230
0000
,
0302
0000
2003
0000
,
3100
0000
0000
0000
;

//--------------- dance-single - eataninja ----------------
#NOTES:
     dance-single:
     eataninja:
     Hard:
     15:
     0,0,0,0,0:
0000
0000
0000
0000
,
0000
0000
0000
0000
,
0000
0000
0000
0000
,
0000
0000
0000
0000
,
0000
1001
0101
0000
,
0011
0110
0000
1000
,
0000
1001
0101
0000
,
1000
0000
1000
0000
0001
0000
0001
0000
0010
0000
0010
0000
0100
1000
0100
1000
,
0020
0000
0030
0000
0100
0000
1000
0000
0100
0000
0001
0000
0100
0000
0010
1000
,
0010
0000
1000
0000
0001
0000
0010
0000
0000
0000
0100
0000
1000
0000
0001
1000
,
0020
0000
0032
0000
0013
0000
0100
0000
0001
0000
1000
0000
0100
0010
0001
1000
,
0010
0000
0000
0010
0000
0000
0110
0000
0000
0000
1001
0000
0000
0000
0001
0000
,
0200
1300
0100
0010
1000
0001
0010
1000
,
0010
0000
0100
0000
1000
0000
0001
0100
0001
0000
1000
0000
2100
0000
0000
0000
,
3001
1000
0010
0100
0001
0000
1000
0000
0100
0000
0010
0000
0001
1000
0001
0010
,
0100
0000
0000
0210
0000
0000
1300
0000
0010
0000
0000
0210
0000
0000
0301
0000
,
0100
0000
0000
0210
0000
0000
0301
0000
0010
0000
0000
0210
0000
0000
1300
0000
,
1001
0000
0000
0000
0000
0000
1000
0000
0010
0000
0001
0000
0010
0100
0000
0000
,
0210
0000
0000
0000
0300
0000
0001
0000
0010
0000
1000
0000
0010
0100
0000
0000
,
0120
0000
0000
0000
0030
0000
0001
0000
1000
0000
0010
0000
0100
1000
0000
0000
,
1200
0000
0000
0000
0300
0000
0010
0000
1000
0000
0100
0000
0001
0100
0000
0010
,
0002
0000
0000
0000
1003
0000
0010
0000
0000
0000
1000
0000
0001
0010
0000
0100
,
0002
0000
0000
0000
0103
0000
1000
0000
0000
0000
0001
0000
1000
0010
0000
0100
,
2000
0000
0000
0000
3100
0000
0001
0000
0000
0000
1000
0000
0100
0010
0000
0100
,
0002
0000
0000
0000
0103
0000
1000
0000
0000
0000
0001
0000
0100
0010
0100
0001
,
0020
0000
0030
0010
0100
0000
1000
0001
1000
0000
0010
0100
0010
0000
1000
0001
,
0010
0100
1000
0001
0100
0000
1000
0100
0000
0000
0010
0100
0010
1000
0001
0010
,
0100
0000
0000
0010
0100
0010
0001
1000
0010
0000
0001
0000
0010
0100
0000
0100
,
0001
1000
0100
0010
0001
0000
1000
0000
0010
0000
0001
0010
0001
0000
0010
0000
,
0100
0000
0000
0100
0001
1000
0001
0000
0000
0000
0010
0000
0100
1000
0000
1000
,
0010
0000
0000
0100
1000
0100
0001
0000
1000
0000
0100
0000
0010
0100
0000
0100
,
1000
0000
0000
0010
0000
0001
0010
0000
0200
0000
0301
1000
0001
0010
0000
0100
,
1000
0000
0000
0001
0000
1000
0010
0000
0100
0000
1000
0000
0100
0010
0100
0010
,
1000
0000
0000
0001
0000
0000
0020
0000
0030
0000
0000
0000
,
0100
0000
0010
0000
0000
0001
0000
0000
2000
0000
3000
0000
,
0010
0000
0000
0100
0000
0000
2000
0000
3000
0000
0000
0000
,
0100
0000
0010
0000
0000
2000
0000
3000
0000
0000
0000
0000
,
0001
0000
0000
1000
0000
0100
0010
0000
0000
0001
0000
1000
,
0010
0000
0001
0000
0000
0010
0100
0000
0100
0001
0000
0000
,
1000
0000
0100
0010
0000
0010
0000
0000
0001
1000
0000
0000
,
0010
0100
0101
0000
0010
0100
0101
0000
,
0010
0000
0100
0000
0101
0000
0001
0000
1000
0000
0100
0000
0010
0001
0010
0001
,
0100
0000
0000
0000
0020
0000
1000
0001
0000
0000
0001
1000
0000
0000
1000
0001
,
0000
0000
0001
1000
0000
0000
1000
0001
0000
0000
0001
1000
0000
0000
1030
0001
,
0200
0000
0001
1000
0000
0000
1000
0001
0000
0000
0001
1000
0000
0000
1000
0001
,
0000
0000
0001
1000
0000
0000
1300
0001
0100
0000
0010
0000
1000
0000
1000
0000
,
0002
0000
0013
0000
0100
0000
0001
0000
0100
0000
1000
0000
0010
0000
0100
0001
,
1000
0000
0100
0000
1000
0000
0001
0000
0000
0000
1000
0000
0010
0100
0001
1000
,
0200
0000
0302
0000
0103
0000
0010
0000
0001
0000
1000
0000
0010
1000
0001
0010
,
0100
0000
0000
0100
0000
0000
0120
0000
0000
0000
0031
0000
1000
0000
0010
0000
,
0002
0013
0100
0001
1000
0100
0010
0001
,
0100
0000
0010
0000
0100
0000
0001
0000
0000
0000
1000
0000
0001
0010
0100
1000
,
0020
0000
0032
0000
0013
0000
0100
0000
0001
0000
0100
0000
0010
0100
0001
1000
,
0100
0000
0000
0100
0000
0000
0120
0000
0000
0000
1030
0000
0010
0000
0001
0000
,
1000
0010
0001
1000
0100
0001
1000
0010
,
0001
1000
0100
0001
1000
0010
0100
0000
,
0001
0010
1000
0001
0100
1000
0001
0010
,
1000
0001
0100
1000
0001
0100
0010
0000
,
1000
0010
0001
1000
0100
0010
1000
0100
,
0001
1000
0010
0100
1000
0001
0100
0000
,
0001
0000
0010
0000
1000
0000
0001
0000
0100
0000
0010
0000
0001
1000
0001
0000
,
1000
0010
1000
0000
0010
0100
0010
0000
0100
0001
0100
0000
0001
1000
0100
1000
,
0020
0130
0001
1000
0100
0001
0100
0010
,
0001
0000
1000
0000
0010
0000
0100
0000
1000
0000
0100
0010
1000
0000
0001
0000
,
0010
0000
1000
0000
0010
0000
0100
0000
1000
0000
0001
0000
0100
0010
1000
0001
,
0010
0000
0100
1000
0001
0000
0100
0000
0000
0000
0100
0000
0010
0000
1000
0000
,
0200
0301
0100
0010
0001
1000
0010
0100
,
1000
0000
0100
0000
0010
0000
1000
0001
0020
0000
0230
0000
1300
0000
1000
0000
,
0001
0100
0010
0100
0001
0000
2000
0000
3100
0000
0001
0000
0100
0010
0001
1000
,
0010
0000
0100
0010
0000
0100
0010
0000
0000
0000
1000
0000
0001
0000
0010
0000
,
2000
3010
0100
1000
0001
0100
0201
0310
,
1000
0001
0010
0200
0310
0001
0012
1003
,
0010
0001
0010
0100
0001
0001
1000
1000
,
0100
0000
0000
0100
0000
0000
0120
0000
0000
0130
0000
0000
1000
0000
1000
0000
,
0010
0000
0000
0010
0000
0000
0010
0000
0100
0000
0000
0100
0000
0000
0100
0000
,
0002
0000
2003
0000
,
3200
0000
2300
0000
,
3020
0000
0230
0000
,
0302
0000
0023
0000
,
0130
0000
0000
0000
;
