#TITLE:Tii;
#SUBTITLE:;
#ARTIST:Neiokoso;
#TITLETRANSLIT:;
#SUBTITLETRANSLIT:;
#ARTISTTRANSLIT:;
#GENRE:;
#CREDIT:;
#BANNER:bn.png;
#BACKGROUND:bg.png;
#LYRICSPATH:;
#CDTITLE:;
#MUSIC:Tii.ogg;
#OFFSET:-0.154000;
#SAMPLESTART:61.000000;
#SAMPLELENGTH:12.000000;
#SELECTABLE:YES;
#BPMS:0.000000=130.000000
;
#STOPS:
;
#BGCHANGES:;
#KEYSOUNDS:;
#ATTACKS:;

//---------------dance-single - ----------------
#NOTES:
     dance-single:
     :
     Beginner:
     2:
     0.122069,0.162296,0.066583,0.077680,0.000000,77.000000,71.000000,6.000000,7.000000,0.000000,0.000000,0.122069,0.162296,0.066583,0.077680,0.000000,77.000000,71.000000,6.000000,7.000000,0.000000,0.000000:
0000
0000
0000
0000
,
1000
0000
0000
0000
,
0001
0000
0000
0000
,
1000
0000
0010
0000
,
1000
0000
0000
0000
,
0001
0000
0000
0000
,
1000
0000
0000
0000
,
0001
0000
0100
0000
,
0001
0000
0000
0000
,
1000
0000
0000
0000
,
0001
0000
0000
0000
,
1000
0000
0001
0000
,
1000
0000
0000
0000
,
0010
0000
0000
0000
,
0100
0000
0000
0000
,
0010
0000
0100
0000
,
0010
0000
0000
0000
,
0110
0000
0000
0000
,
1001
0000
0000
0000
,
0001
0000
0000
0000
,
1000
0000
0000
0000
,
1001
0000
0000
0000
,
0110
0000
0000
0000
,
2002
0000
0000
0000
,
3003
0000
0000
0000
,
1000
0000
0010
0000
,
1000
0000
0001
0000
,
1000
0000
0100
0000
,
1000
0000
0001
0000
,
1000
0000
0001
0000
,
1000
0000
0010
0000
,
0100
0000
0001
0000
,
2000
0000
0000
3000
,
0001
0000
1000
0000
,
0001
0000
0001
0000
,
1000
0000
0010
0000
,
1000
0000
1000
0000
,
0010
0000
0100
0000
,
0010
0000
0010
0000
,
0100
0000
0010
0000
,
0200
0000
0000
0300
,
0001
0000
1000
0000
,
0001
0000
0100
0000
,
0010
0000
1000
0000
,
0200
0000
0000
0300
,
1000
0000
0100
0000
,
1000
0000
0001
0000
,
1000
0000
0001
0000
,
2002
0000
0000
3003
;

//---------------dance-single - ----------------
#NOTES:
     dance-single:
     :
     Easy:
     5:
     0.221944,0.270494,0.066583,0.332915,0.000000,140.000000,134.000000,6.000000,30.000000,0.000000,0.000000,0.221944,0.270494,0.066583,0.332915,0.000000,140.000000,134.000000,6.000000,30.000000,0.000000,0.000000:
0000
0000
0000
0000
,
1000
0100
0010
0001
,
1000
0100
1000
0100
,
1000
0100
0010
0001
,
0200
0000
0000
0300
,
0001
0010
0100
1000
,
0001
0100
0010
0100
,
0001
0010
0100
1000
,
0020
0000
0000
0030
,
1000
0100
0010
0001
,
0100
0010
1000
0100
,
1000
0100
0010
0001
,
0200
0000
0000
0300
,
0001
0010
0100
1000
,
0010
0100
0001
1000
,
0010
0100
0010
1000
,
2002
0000
0000
3003
,
1000
0200
0000
0300
,
1000
0020
0000
0030
,
1000
0002
0000
0003
,
1000
2002
0000
3003
,
0001
0200
0000
0300
,
0001
0020
0000
0030
,
0001
2000
0000
3000
,
2002
0000
0000
3003
,
1000
0200
0000
0300
,
1000
0020
0000
0030
,
0100
0020
0000
0030
,
0100
0002
0000
0003
,
1000
0002
0000
0003
,
0100
0002
0000
0003
,
0010
0002
0000
0003
,
2002
0000
0000
3003
,
1000
0100
0010
0001
,
0010
0100
1000
0001
,
1000
0100
0010
0001
,
0020
0000
0000
0030
,
0001
0010
0100
1000
,
0100
0010
0001
1000
,
0001
0010
0100
1000
,
2002
0000
0000
3003
,
0001
0010
0100
1000
,
0100
0010
0001
1000
,
0001
0010
0100
1000
,
0200
0000
0000
0300
,
1000
0100
0010
0001
,
0010
0100
1000
0001
,
1000
0100
0010
0001
,
2002
0000
0000
3003
;

//---------------dance-single - ----------------
#NOTES:
     dance-single:
     :
     Medium:
     8:
     0.326574,0.432790,0.299624,0.688025,0.000000,206.000000,179.000000,27.000000,62.000000,0.000000,0.000000,0.326574,0.432790,0.299624,0.688025,0.000000,206.000000,179.000000,27.000000,62.000000,0.000000,0.000000:
0000
0000
0000
0000
,
1000
0100
0010
0001
,
2000
0000
3010
0100
0010
1000
0020
0030
,
0110
1001
1100
1001
,
0202
0000
0000
0303
,
0001
0010
0100
1000
,
0002
0000
0103
0010
0100
0001
0200
0300
,
0110
1001
0011
1001
,
2020
0000
0000
3030
,
0010
0100
0010
1000
,
0010
0000
0100
0010
0100
0010
2000
3000
,
1001
1100
0110
0011
,
2002
0000
0000
3003
,
0001
0100
0010
0100
,
0001
0000
0100
0010
0100
0010
2000
3000
,
1010
0110
0101
0110
,
2002
0000
0000
3003
,
0001
0010
0002
0000
0000
0000
0000
0003
,
1000
0010
2000
0000
0000
0000
0000
3000
,
0001
0100
0002
0000
0000
0000
0000
0003
,
1000
0100
2000
0000
0000
0000
0000
3000
,
0100
0010
0200
0000
0000
0000
0000
0300
,
1000
0001
2000
0000
0000
0000
0000
3000
,
0010
1000
0020
0000
0000
0000
0000
0030
,
0220
0000
0000
0330
,
0100
0001
0200
0000
0000
0000
0000
0300
,
0001
1000
0002
0000
0000
0000
0000
0003
,
1000
0100
2000
0000
0000
0000
0000
3000
,
0010
1000
0020
0000
0000
0000
0000
0030
,
0100
0010
0200
0000
0000
0000
0000
0300
,
0010
1000
0020
0000
0000
0000
0000
0030
,
1000
0100
2000
0000
0000
0000
0000
3000
,
2002
0000
0000
3003
,
1000
0100
0001
0200
0000
2300
0000
3001
,
0010
0100
1000
0002
0000
2003
0000
3001
,
0100
0010
1000
0002
0000
2003
0000
3001
,
2002
0000
0000
3003
,
0001
0010
1000
0020
0000
0032
0000
1003
,
0100
0010
0001
2000
0000
3002
0000
1003
,
0010
0100
0001
2000
0000
3002
0000
1003
,
2002
0000
0000
3003
,
0010
1000
0100
2000
0000
3020
0000
0130
,
0001
1000
0010
0200
0000
0320
0000
0130
,
1000
0001
0010
0200
0000
0320
0000
0130
,
0220
0000
0000
0330
,
0100
0001
0010
0002
0000
0203
0000
0310
,
1000
0001
0100
0020
0000
0230
0000
0310
,
0001
1000
0100
0010
0000
0110
0000
2002
,
0000
0000
0000
3003
;

//---------------dance-single - ----------------
#NOTES:
     dance-single:
     :
     Hard:
     11:
     0.605589,0.647520,0.543762,0.288527,0.149812,382.000000,333.000000,49.000000,26.000000,0.000000,0.000000,0.605589,0.647520,0.543762,0.288527,0.149812,382.000000,333.000000,49.000000,26.000000,0.000000,0.000000:
// measure 0
0000
0000
0000
0000
,  // measure 1
1000
0100
0010
0001
,  // measure 2
0101
0000
0001
1000
0010
1000
0100
0000
,  // measure 3
0110
0000
1002
0100
0000
0000
1003
0000
,  // measure 4
1100
0000
0102
1000
0000
0000
0103
0000
,  // measure 5
0001
0010
0100
1000
,  // measure 6
1010
0000
1000
0001
0100
0001
0010
0000
,  // measure 7
0110
0000
2001
0010
0000
0000
3001
0000
,  // measure 8
0011
0000
2010
0001
0000
0000
3010
0000
,  // measure 9
1010
0110
0101
0011
,  // measure 10
2001
0000
3100
1000
0100
1000
0100
0000
,  // measure 11
1100
0110
0011
0101
,  // measure 12
1002
0000
0010
2000
3003
0000
1010
0000
,  // measure 13
1001
0011
0110
1100
,  // measure 14
1010
0000
0010
1000
0010
1000
0010
0000
,  // measure 15
0110
1001
1100
0011
,  // measure 16
2001
0000
0000
0000
0100
0000
0002
0000
3003
0000
1000
0000
0100
1000
0001
0000
,  // measure 17
1000
0000
0000
0000
0001
0000
1000
0010
0000
0000
1000
0000
0001
0000
1000
0000
,  // measure 18
0001
0000
0000
0000
1000
0000
0001
0100
0000
0000
0001
0000
1000
0001
1000
0001
,  // measure 19
1000
0000
0100
0000
0010
0000
0100
1000
0000
0000
0010
0000
0100
0000
0010
0000
,  // measure 20
0100
0000
0001
0000
1000
0000
0100
1000
0000
0000
0001
0000
1000
0000
0001
0000
,  // measure 21
1000
0000
0010
0000
0100
0000
0010
1000
0001
0000
0010
0000
0100
0000
1000
0000
,  // measure 22
0001
0000
0100
0000
0010
0000
0100
0001
1000
0000
0100
0000
0010
0000
0001
0000
,  // measure 23
1000
0000
0001
0000
1000
0000
0010
0100
0010
0000
1000
0000
0001
0000
1000
0000
,  // measure 24
0001
0000
0100
0000
0001
1000
0001
1000
0001
0000
1000
0100
0010
0001
0010
0100
,  // measure 25
1000
0000
0001
0000
0100
0000
0001
0000
1000
0000
0001
0010
0001
0010
0001
0000
,  // measure 26
1000
0000
0001
0000
0010
0000
0001
0000
1000
0000
0010
1000
0010
1000
0010
0000
,  // measure 27
1000
0000
0001
0000
0100
0000
0001
0000
1000
0000
0001
0100
0001
0100
0001
0000
,  // measure 28
1000
0000
0001
0000
0010
0000
0001
0000
1000
0000
0100
1000
0100
1000
0100
0000
,  // measure 29
1000
0000
0100
0000
0001
0000
0100
0000
1000
0000
0001
1000
0001
1000
0001
0000
,  // measure 30
1000
0010
0001
0010
1000
0100
0010
0001
,  // measure 31
1000
0000
0100
0000
0001
0000
0100
0000
1000
0000
0001
1000
0001
1000
0001
0000
,  // measure 32
1000
0010
0001
1000
0100
0001
1000
0001
,  // measure 33
1000
0100
0010
0210
1000
0020
0330
1100
,  // measure 34
1001
0001
1000
0102
1000
0200
0303
1001
,  // measure 35
0001
0100
1000
0100
0001
0102
0000
1003
,  // measure 36
0001
0010
0100
2000
3010
1010
0000
1001
,  // measure 37
0001
0010
0100
0120
0001
0200
0330
0011
,  // measure 38
1001
1000
0001
2010
0001
0020
3030
1001
,  // measure 39
1000
0010
0001
0010
1000
2010
0000
3001
,  // measure 40
1000
0100
0010
0002
0103
0101
0000
1001
,  // measure 41
1000
0100
0010
0001
1000
0001
0100
0001
,  // measure 42
1000
0010
0100
0001
1000
0010
0100
0010
,  // measure 43
0100
0001
1000
0001
0010
0001
0010
0001
,  // measure 44
1000
0010
1000
0001
1000
0100
0010
0001
,  // measure 45
1000
0010
0001
1000
0100
0001
1000
0001
,  // measure 46
1000
0100
0001
1000
0010
0001
0100
0001
,  // measure 47
1000
0100
0001
0200
0300
2200
3300
2002
,  // measure 48
0000
0000
0000
0000
0000
3003
0000
0000
;
