#TITLE:Tiempo Loco;
#SUBTITLE:;
#ARTIST:kors k feat.Hboy;
#TITLETRANSLIT:;
#SUBTITLETRANSLIT:;
#ARTISTTRANSLIT:;
#GENRE:Hi-TECH / PSY CORE;
#CREDIT:;
#MUSIC:Tiempo Loco.ogg;
#BANNER:Tiempo Loco.png;
#BACKGROUND:Tiempo Loco-bg.png;
#CDTITLE:./CDTitles/bm IIDX 28 BISTROVER.png;
#SAMPLESTART:3.635;
#SAMPLELENGTH:15.000;
#SELECTABLE:YES;
#OFFSET:1.671;
#BPMS:0.000=90.000
,47.000=180.000
;
#STOPS:41.000=0.333
,42.500=0.333
;
#BGCHANGES:2.000=Tiempo Loco.mp4=1.000=0=0=0=StretchNoLoop====,
99999.000=-nosongbg-=1.000=0=0=0=StretchNoLoop====
;
#FGCHANGES:;

//--------------- dance-single - forcednature ----------------
#NOTES:
     dance-single:
     forcednature:
     Beginner:
     4:
     0,0,0,0,0:
0000
0000
0000
0000
,
0000
0000
0000
0000
,
0000
0000
0000
0000
,
0000
0000
0000
0000
,
0000
0000
0000
0000
,
0000
0000
0000
0000
,
0001
0000
0000
0000
,
1000
0000
0000
0000
,
0010
0000
0000
0000
,
0100
0000
0100
0000
,
0001
0000
0000
1000
,
0000
1000
0000
0010
,
0000
0000
0000
0010
,
0000
0000
0000
0100
,
0000
0000
0000
0001
,
0000
0000
0000
1001
,
0000
0000
0000
1000
,
0000
0000
0000
0010
,
0000
0000
0000
0010
,
0000
0000
0000
1000
,
0000
0000
0000
0001
,
0000
0000
0000
0010
,
0000
0000
0000
0010
,
0000
0000
0000
1001
,
0000
0000
0000
1000
,
0000
0000
0000
0100
,
0000
0000
0000
1000
,
0000
0000
0000
0001
,
0000
0000
0000
0100
,
0000
0000
0000
0001
,
0000
0000
0000
0010
,
0000
0000
0000
0100
,
0000
0000
0000
1000
,
0000
0000
0000
0100
,
0000
0000
0000
1000
,
0000
0000
0000
0001
,
0000
0000
0000
0100
,
0000
0000
0000
0001
,
0000
0000
0000
0100
,
0000
0000
0000
2002
,
0000
0000
0000
0000
,
0000
0000
0000
0000
,
0000
0000
0000
0000
,
0000
0000
0000
0000
,
0000
0000
0000
0000
,
0000
0000
0000
0000
,
0000
0000
0000
0000
,
0000
0000
0000
0000
,
0000
0000
0000
0000
,
0000
0000
0000
0000
,
0000
0000
0000
3003
,
0000
0000
0000
0001
,
0000
0001
0000
0001
,
0000
0000
0000
1000
,
0000
1000
0000
1000
,
0000
0000
0000
1001
,
0000
0000
0000
0001
,
0000
0000
0000
1000
,
0000
0000
0000
0001
,
0000
0000
0000
0010
,
0000
0000
0000
0100
,
0000
0000
0000
1000
,
0000
1000
0000
1000
,
0000
0000
0000
0001
,
0000
1000
0000
0001
,
0001
0001
0000
1000
,
0000
0001
0000
1000
,
1000
1000
0000
0010
,
0000
0100
0000
0010
,
0010
0010
0000
0100
,
0000
0010
0000
0100
,
0100
0100
0000
0001
,
1000
0001
0000
1000
,
1000
1000
0000
1000
,
0001
1000
0000
0001
,
0001
0001
0000
0010
,
0100
0010
0000
0100
,
0100
0100
0000
0100
,
0010
0100
0000
0010
,
0010
0010
0000
1001
;

//--------------- dance-single - forcednature ----------------
#NOTES:
     dance-single:
     forcednature:
     Easy:
     9:
     0,0,0,0,0:
0000
0000
0000
0000
,
0000
0000
0000
0000
,
0000
0000
0000
0000
,
0000
0000
0000
0000
,
0000
0000
0000
0000
,
0000
0000
0000
0000
,
1000
0000
1000
0000
0001
0100
0001
0000
,
0001
0000
0001
0000
1000
0100
1000
0000
,
0010
0000
0010
0000
0100
0010
0100
0000
,
0001
0001
0000
0001
0000
0001
1000
0000
,
0100
0000
1001
0010
0000
1001
1000
0000
,
1000
0000
0001
0001
0001
0000
0100
0000
,
0000
0110
0000
0010
,
0000
0110
0000
1000
,
0001
1000
0001
0020
,
0000
0000
0130
1001
,
0000
0001
0100
0010
,
1000
0001
0000
0010
,
0100
1000
0100
0010
,
0100
1000
0000
0001
,
0100
0010
0000
1000
,
0001
0010
0000
0001
,
0100
0010
0100
0001
,
0100
0020
0000
1030
,
0001
0000
1000
0001
1000
0000
0001
0000
,
0100
0100
0000
0001
,
1000
0000
0001
1000
0001
0000
1000
0000
,
0100
0100
0000
1000
,
0001
0000
1000
0001
1000
0000
0001
0000
,
0010
0010
0000
0001
,
1000
0000
0001
1000
0001
0000
1000
0000
,
0010
0200
0000
0301
,
0010
0000
0100
0010
0100
0000
1000
0000
,
0010
0000
0100
0010
0100
0000
0001
0000
,
1000
0000
0100
0010
0100
0000
1000
0000
,
0001
0000
0100
0010
0100
0000
0001
0000
,
1000
0000
0001
0010
0001
0000
1000
0000
,
0001
0000
1000
0010
1000
0000
0100
0000
,
0100
0010
0010
0220
,
0000
0000
0330
2002
,
0000
0000
0000
0000
,
0000
0000
0000
0000
,
0000
0000
0000
0000
,
0000
0000
0000
0000
,
0000
0000
0000
0000
,
0000
0000
0000
0000
,
0000
0000
0000
0000
,
0000
0000
0000
3003
,
0000
0000
0000
0002
,
0000
0000
0003
0200
,
0000
0000
0300
0000
0020
0000
0000
0030
,
2000
0000
3000
0001
,
0001
0010
0010
0100
,
0100
0000
1000
0000
0000
0000
0001
1000
,
0001
1000
0010
0200
,
0000
0001
0000
0000
0300
0000
0010
0000
,
0010
1000
1000
0001
,
0001
0020
0030
0100
,
0100
1000
1000
0001
,
0001
0200
0300
0010
,
0010
1000
1000
0100
,
0100
0000
0020
0000
0030
0000
0001
1000
,
0001
1000
0001
0200
,
0000
0000
0310
1001
,
1000
0000
0001
1000
0001
0000
0100
0000
,
0010
0000
0100
0010
0100
0010
1000
0000
,
0001
0000
1000
0001
1000
0000
0100
0000
,
0010
0000
0100
0010
0100
0010
0001
0000
,
1000
0000
0001
1000
0001
0000
0100
0000
,
0010
0000
0100
0010
0100
0010
1000
0000
,
0001
0000
1000
0001
1000
0000
0100
0000
,
0010
0110
1001
0001
,
1000
0000
0010
0100
0010
0000
1000
0000
,
0001
0000
0010
0010
0010
0000
0001
0000
,
1000
0000
0100
0010
0100
0000
1000
0000
,
0001
0000
0100
0100
0100
0000
0010
0000
,
0100
0000
0001
1000
0001
0000
0010
0000
,
0100
0000
1000
1000
1000
0000
0100
0000
,
0010
0000
0001
1000
0001
0000
0100
0000
,
0010
0000
1000
1000
1000
0000
2002
0000
,
0000
0000
0000
3003
;

//--------------- dance-single - forcednature ----------------
#NOTES:
     dance-single:
     forcednature:
     Medium:
     13:
     0,0,0,0,0:
0000
0000
0000
0000
,
0000
0000
0000
0000
,
0000
0000
0000
0000
,
0000
0000
0000
0000
,
0000
0000
0000
0000
,
0000
0000
0000
0000
,
1000
0000
0100
0000
0010
0000
0000
0100
0000
0010
0000
0000
0001
0000
1000
0000
,
0001
0000
0100
0000
0010
0000
0000
0100
0000
0010
0000
1000
0000
0000
0001
0000
,
0010
0000
0200
0000
1000
0000
0300
0000
0001
0000
1000
0000
0001
0100
0001
0000
,
1000
0001
0010
0100
0100
1000
0001
0000
,
0100
0000
0000
0000
0010
0000
0000
0000
2000
3000
0000
0000
0100
0000
0000
0000
0010
0000
0000
0000
0002
0003
0000
0000
1000
0000
0000
0000
1000
0000
0000
0000
,
0001
0001
0100
0010
0110
0000
1001
0000
,
0000
1100
0000
0101
,
0000
0110
0000
0001
,
0001
0000
1000
0000
1000
0000
0010
0100
,
0010
0100
0010
0000
0100
0000
1001
0000
,
1000
0000
0100
0010
0001
0000
1000
0001
,
0100
0000
0010
1000
0001
0000
0010
0100
,
0010
1000
0010
0100
0010
0001
1000
0000
,
0001
0100
0010
1000
0001
0000
0100
0000
,
0010
0000
1000
0001
0010
0000
0100
1000
,
0001
0000
0100
0010
1000
0000
0100
0010
,
0100
0001
0100
0010
0100
1000
0001
0000
,
0100
0010
2000
0000
0000
3000
1001
0000
,
0001
0100
0010
1000
0001
0000
0010
0100
,
1000
0100
0010
0000
0001
0000
1000
0000
,
0001
0100
0010
0100
1000
0000
0100
0001
,
1000
0001
0010
0000
0100
0000
0110
0000
,
0010
0001
0100
0001
1000
0000
0010
1000
,
0100
1000
0001
0000
0100
0000
0010
0000
,
1000
0100
0010
0100
0001
0000
0100
0010
,
0100
0000
2002
0000
3003
0000
1000
0010
,
0100
0001
1000
0010
0100
0000
0001
0010
,
0100
1000
0001
0010
0100
0000
1000
0001
,
0100
0010
1000
0001
0100
0000
0001
1000
,
0100
0010
0001
1000
0100
0000
0010
0001
,
0100
0001
1000
0001
0100
0000
0010
1000
,
0100
1000
0001
1000
0100
0000
0010
0000
,
1001
0100
1001
0220
,
0000
0000
0330
2002
,
0000
0000
0000
0000
,
0000
0000
0000
0000
,
0000
0000
0000
0000
,
0000
0000
3003
0000
,
2000
3000
0020
0030
,
0200
0300
0002
0003
,
2000
3000
0200
0300
,
0020
0030
0002
0003
,
0000
0000
0000
0020
,
0000
0000
0000
2030
,
0000
0000
3002
0000
,
0023
0000
0030
0110
,
0100
1001
0010
1100
,
0101
0000
1001
0000
0000
0000
0001
0001
,
1000
1000
0001
1000
0001
0000
0020
0000
,
0000
0230
0000
0000
0300
0000
2100
0000
,
0100
0001
0001
0100
,
0100
0000
3001
0010
0001
0000
0102
0000
,
0100
1000
1000
0100
,
0100
0000
1003
0010
1000
0000
1001
0000
,
0001
0010
0100
1000
0001
0000
1000
0010
,
0100
0000
0001
0000
1000
0000
0001
0000
0010
0000
0000
0000
0100
0000
0000
0100
,
0000
0000
1000
0000
0000
1000
0000
0000
0001
0000
0000
0000
0100
0000
0010
0000
,
0100
0000
0010
0000
0100
0000
0000
0000
1001
0000
0000
0000
0001
0000
0000
0100
,
0001
0000
1000
0000
0000
0010
1000
0000
0001
0000
0010
0000
0100
0000
0000
0010
,
0001
0000
1000
0000
0002
0000
0203
0000
0320
0000
2030
0000
3001
0000
0000
0010
,
0001
0000
1000
0000
0000
0100
1000
0000
0001
0000
0100
0000
0010
0000
0000
1000
,
0010
0000
0100
0000
0002
0000
0023
0000
0230
0000
2300
0000
3001
0000
0000
0010
,
0100
0000
1000
0000
0000
0010
0100
0000
0001
0000
1000
0000
0100
0000
0000
0010
,
0001
0000
1000
0000
0020
0000
0230
0000
0302
0000
2003
0000
3100
0000
0000
0010
,
0001
0000
0100
0000
0000
0010
1000
0000
0001
0000
0010
0000
0100
0000
0000
1000
,
0001
0000
0100
0000
0010
0000
1000
0000
0010
0000
1000
0000
0001
0000
0010
0001
,
0000
0010
0001
0000
0010
0100
0000
1000
0100
0000
0010
0000
0001
0000
0100
0001
,
0000
0100
0001
0000
2000
0000
3020
0000
0032
0000
0023
0000
1030
0000
0010
1000
,
0000
0010
1000
0000
0010
0100
0000
0001
0100
0000
0010
0000
1000
0000
0100
1000
,
0000
0100
1000
0000
0002
0000
0023
0000
2030
0000
3020
0000
0031
0000
1000
0001
,
0000
1000
0100
0000
0010
0001
0000
1000
0001
0000
0100
0000
0010
0000
1000
0001
,
0000
0010
0001
0000
0200
0000
2300
0000
3200
0000
0302
0000
1003
0000
0001
1000
,
0000
0001
0100
0000
0010
1000
0000
0001
1000
0000
0100
0000
0010
0000
0001
1000
,
0000
0010
1000
0000
0200
0000
0302
0000
0203
0000
2300
0000
3020
0000
0000
0000
,
0000
0000
0000
0030
;

//--------------- dance-single - forcednature ----------------
#NOTES:
     dance-single:
     forcednature:
     Hard:
     16:
     0,0,0,0,0:
0000
0000
0000
0000
,
0000
0000
0000
0000
,
0000
0000
0000
0000
,
0000
0000
0000
0000
,
0000
0000
0000
0000
,
0000
0000
0000
0000
,
0001
0000
0100
0000
0010
1000
0000
0001
0000
0100
0000
0010
1000
0100
0010
0001
,
1000
0000
0100
0000
0010
0001
0000
1000
0000
0100
0000
0010
0000
0001
1000
0000
,
0001
0000
0100
0000
0010
1000
0000
0001
0000
0100
0000
0010
1000
0001
0010
0000
,
0110
0110
1000
0001
0001
0100
1000
0000
,
0100
0000
0000
0000
0010
0000
0000
0000
2002
3003
0000
0000
0100
0000
0000
0000
0010
0000
0000
0000
2002
3003
0000
0000
0110
0000
0000
0000
0110
0000
0000
0000
,
1001
0000
0010
0000
0100
0010
0100
0010
0100
0000
1001
0000
0001
0000
0000
0000
,
0001
0001
1000
0000
1000
1000
0010
0000
,
0010
0010
0100
0000
0100
0100
0001
0001
,
1000
0000
1000
0000
0100
0010
0100
0010
0001
0000
1000
0000
0001
0100
0001
0100
,
0010
1000
0010
1000
0001
0000
0010
0000
0100
0000
0000
0000
1001
0000
0000
0000
,
0001
0000
0010
0100
1000
0000
0100
0010
0001
0000
1000
0000
0001
0000
0010
0001
,
1000
0000
0010
0000
0100
0000
0001
0010
0100
0000
0000
0000
1000
0000
1000
0010
,
0100
0000
0100
0001
0010
0000
0010
0100
1000
0000
1000
0001
0100
0000
1000
0000
,
0100
0001
0010
0200
1000
0000
0320
0000
,
0031
0000
0100
0001
1000
0000
0010
1000
0001
0000
0010
0000
0100
0000
1000
0001
,
0100
0000
0010
0000
1000
0000
0100
0010
0001
0000
0000
0000
0001
0000
0001
0010
,
0100
0000
0100
1000
0010
0000
0010
0100
0001
0000
0001
1000
0100
0000
0100
0010
,
0001
0000
0001
0100
2000
0000
0000
0000
0000
0000
3100
0000
0001
0000
1000
0000
,
0001
0010
0000
0100
0010
0000
0100
1000
0001
0000
0100
0000
0010
1000
0010
0000
,
0100
0001
0000
0010
0001
0000
1000
0010
1000
0000
0100
0000
0010
0001
1000
0000
,
0001
0100
0000
0010
0100
0000
0010
1000
0001
0000
1000
0000
0100
0010
0100
0000
,
1000
0010
0000
0100
0002
0000
0010
0000
1000
0000
0003
0000
0001
0010
0001
0000
,
1000
0010
0000
0100
0001
0000
1000
0100
0010
0000
0100
0000
1000
0001
0100
0000
,
0010
1000
0000
0001
0010
0000
0100
0010
0100
0000
1000
0000
0001
0100
0010
0000
,
1000
0001
0000
0010
0001
0000
0100
0010
1000
0000
0001
0000
1001
0000
0000
0000
,
0110
0000
0000
0000
2002
0000
0000
0000
3003
0000
0000
0000
1000
0000
0100
0010
,
0001
0010
0100
0000
1000
0000
0010
0100
0001
0100
0010
0000
1000
0000
0001
0010
,
0100
0010
0001
0000
1000
0000
0001
0100
0020
0000
2030
0000
3001
0000
0010
0100
,
1000
0100
0010
0000
0001
0000
0100
0010
1000
0010
0100
0000
0001
0000
1000
0100
,
0010
0100
1000
0000
0001
0000
1000
0010
0200
0000
0302
0000
1003
0000
0100
0010
,
0100
0010
0001
0000
1000
0000
0010
0100
0010
0100
0001
0000
1000
0000
0100
0010
,
0100
0010
0001
0000
1000
0000
0010
0100
0002
0000
2003
0000
3100
0000
0000
0000
,
0011
0100
1010
0210
,
0000
0000
0000
0010
0310
0000
2002
0000
,
0000
0000
0000
0000
,
0000
0000
0000
0000
,
0000
0000
0000
0000
,
0000
0000
3003
0000
,
0002
0003
0002
0003
,
0200
0300
0200
0300
,
0020
0030
0020
0030
,
2000
3000
2000
3000
,
0000
0000
0000
0200
,
0000
0000
0000
0320
,
0000
0000
0032
0000
,
2003
0000
3000
1100
,
1100
0101
0101
1001
,
0110
0000
0000
0000
1001
0000
0000
0000
0001
0000
1000
0000
0001
0100
0001
0100
,
0010
0000
0000
1000
0000
0000
0010
0000
0000
1000
0000
0000
0001
0000
0000
0000
0100
0000
0000
0000
0010
0000
0000
0000
1000
0000
0000
0000
0000
0000
0001
0000
0000
0000
0000
0000
2000
0000
0000
0000
0000
0000
0000
0000
0000
0000
0000
0000
,
0000
0000
3200
0000
0000
0000
0310
0001
0010
0001
1000
0000
0200
0000
0000
0000
,
0010
0010
0010
0010
,
0010
0000
0310
0100
1000
0001
0200
0000
,
0010
0010
0010
0010
,
0010
0000
0310
0100
0001
1000
0200
0000
,
0310
0100
0010
0100
0010
0001
1000
0000
,
0010
0000
0100
0000
0010
0000
0100
0001
1000
0000
0000
0000
0100
0000
1000
0100
,
0000
1000
0010
0000
0100
0001
0000
0010
0001
0000
1000
0000
0100
1000
0100
1000
,
0001
0100
0001
0100
0001
1000
0100
0010
0002
0000
0000
0000
0103
0000
0001
1000
,
0000
0001
0010
0000
0100
1000
0000
1000
0001
0000
0100
0000
0010
0000
1000
0100
,
0000
0010
0100
0000
1000
0010
0100
0001
1000
0010
0100
0000
0001
0000
0010
0100
,
0000
0010
0001
0000
0100
0010
0000
0010
1000
0000
0001
0000
0010
0000
0100
1000
,
0000
0010
1000
0000
0001
0010
0100
1000
0001
0010
0100
0000
0010
0000
0001
0100
,
0000
0010
0100
0000
0001
1000
0000
1000
0100
0000
0010
0000
0100
0000
1000
0001
,
0000
0100
0001
0000
1000
0100
0010
0001
1000
0100
0010
0000
0001
0000
0100
0010
,
0000
1000
0010
0000
0100
0001
0000
0001
1000
0000
0100
0000
0010
0000
0001
0100
,
0000
0001
1000
0000
0010
0000
0010
0000
0100
0000
0100
0000
1001
0000
0001
0100
,
0001
1000
0010
0000
1000
0100
0000
0010
0001
0000
0100
0000
0001
0000
1000
0010
,
0100
0001
1000
0000
0001
0010
0100
1000
0100
0010
0001
1000
0001
0000
0100
0010
,
1000
0001
0010
0000
0100
1000
0000
0001
0100
0000
0010
0000
1000
0000
0001
0010
,
0100
1000
0001
0000
1000
0010
0100
0001
0100
0010
1000
0001
1000
0000
0010
1000
,
0100
0010
0001
0000
1000
0010
0000
0100
0001
0000
0010
0000
0100
0000
0010
0001
,
1000
0001
0100
0000
0001
0010
0100
1000
0001
0100
0010
1000
0001
0000
1000
0100
,
1000
0001
0100
0000
0010
1000
0000
0001
0010
0000
0100
0000
0010
0000
0001
1000
,
0010
0100
0001
0000
1000
0100
0010
0001
1000
0010
0100
0001
0020
0000
0000
0000
,
0000
0000
0000
0030
;

//--------------- dance-double - forcednature ----------------
#NOTES:
     dance-double:
     forcednature:
     Easy:
     9:
     0,0,0,0,0:
00000000
00000000
00000000
00000000
,
00000000
00000000
00000000
00000000
,
00000000
00000000
00000000
00000000
,
00000000
00000000
00000000
00000000
,
00000000
00000000
00000000
00000000
,
00000000
00000000
00000000
00000000
,
00001000
00000000
00010000
00000000
00001000
01000000
00001000
00000000
,
00010000
00000000
00001000
00000000
00010000
00000100
00010000
00000000
,
00001000
00000000
00010000
00000000
00001000
00100000
00001000
00000000
,
00010000
00010000
00000000
00010000
00000000
00010000
00000010
00000000
,
00010000
00000000
00011000
00001000
00000000
00011000
00010000
00000000
,
00001000
00000000
00010000
00001000
00010000
00000000
00100000
00000000
,
00000000
01100000
00000000
01000000
,
00000000
01100000
00000000
00010000
,
10000000
00010000
10000000
02000000
,
00000000
00000000
03100000
10010000
,
00000000
00010000
01000000
00001000
,
00010000
00000010
00000000
00001000
,
00000100
00000010
00000001
00000010
,
00000100
00001000
00000000
00000010
,
00010000
00001000
00000000
01000000
,
00001000
00010000
00000000
00000100
,
00001000
00000100
00010000
00001000
,
00100000
00020000
00000000
10030000
,
00010000
10000000
00100000
01000000
,
00001000
00001000
00000000
00010000
,
00000100
00001000
00000001
00000100
,
00000010
00000010
00000000
00001000
,
00000100
00010000
00001000
01000000
,
00010000
00010000
00000000
00100000
,
01000000
10000000
01000000
00100000
,
00001000
00020000
00000000
00030010
,
00001000
00000010
00000100
00000001
,
00001000
00000001
00000010
00000100
,
00001000
00000100
00010000
00001000
,
01000000
00010000
10000000
00010000
,
00100000
01000000
10000000
01000000
,
00100000
00010000
00100000
00001000
,
00001000
00010000
00010000
00000020
,
00000000
00000000
00000030
00002002
,
00000000
00000000
00000000
00000000
,
00000000
00000000
00000000
00000000
,
00000000
00000000
00000000
00000000
,
00000000
00000000
00000000
00000000
,
00000000
00000000
00000000
00000000
,
00000000
00000000
00000000
00000000
,
00000000
00000000
00000000
00000000
,
00000000
00000000
00000000
00003003
,
00000000
00000000
00000000
00002000
,
00000000
00000000
00003000
00000200
,
00000000
00000300
00020000
00030000
,
00002000
00000000
00003000
01000000
,
01000000
00010000
00010000
01000000
,
01000000
00010000
00000000
10000000
,
10000000
01000000
01000000
00200000
,
00000000
00000000
00300000
00001000
,
00010000
00001000
00010000
00000010
,
00001000
00000020
00000030
00010000
,
00001000
00010000
00001000
00100000
,
00010000
00100000
00000000
00001000
,
00010000
00001000
00010000
00000100
,
00001000
00000100
00000000
00010000
,
00010000
00001000
00001000
02000000
,
00000000
00000000
03100000
01100000
,
01000000
00010000
10000000
00010000
,
00100000
00000000
01000000
00100000
01000000
00000000
00100000
00000000
,
00010000
00100000
00001000
00010000
,
00000010
00000000
00001000
00000010
00001000
00000000
00000001
00000000
,
00001000
00000100
00010000
00001000
,
00010000
00000000
00001000
00010000
00001000
00000000
01000000
00000000
,
00010000
01000000
00100000
10000000
,
01000000
00100000
00100000
10010000
,
00010000
01000000
00001000
00010000
,
00000100
00000000
00001000
00000001
00001000
00000000
00000010
00000000
,
00001000
00000010
00010000
00001000
,
00100000
00000000
00010000
10000000
00010000
00000000
01000000
00000000
,
00001000
00010000
00001000
00010000
,
00000100
00000000
00001000
00000001
00001000
00000000
00000010
00000000
,
00010000
00001000
00010000
00001000
,
00100000
00000000
00010000
10000000
00010000
00000000
20020000
00000000
,
00000000
00000000
00000000
30030000
;

//--------------- dance-double - forcednature ----------------
#NOTES:
     dance-double:
     forcednature:
     Medium:
     13:
     0,0,0,0,0:
00000000
00000000
00000000
00000000
,
00000000
00000000
00000000
00000000
,
00000000
00000000
00000000
00000000
,
00000000
00000000
00000000
00000000
,
00000000
00000000
00000000
00000000
,
00000000
00000000
00000000
00000000
,
00001000
00000000
00010000
00000000
00100000
00000000
00000000
00010000
00000000
00100000
00000000
00000000
10000000
00000000
01000000
00000000
,
00010000
00000000
00001000
00000000
00000010
00000000
00000000
00001000
00000000
00000010
00000000
00000001
00000000
00000000
00000100
00000000
,
00001000
00000000
00020000
00000000
00000010
00000000
00030000
00000000
00001000
00000000
00100000
00000000
00010000
00100000
00010000
00000000
,
01000000
01000000
00010000
00100000
00100000
01000000
00010000
00000000
,
00001000
00000000
00000000
00000000
00010000
00000000
00000000
00000000
00200000
00300000
00000000
00000000
00010000
00000000
00000000
00000000
00001000
00000000
00000000
00000000
00000020
00000030
00000000
00000000
00000001
00000000
00000000
00000000
00000001
00000000
00000000
00000000
,
00000100
00000100
00001000
00010000
00011000
00000000
01001000
00000000
,
00000000
00010100
00000000
00101000
,
00000000
00010010
00000000
00010000
,
00010000
00000000
00001000
00000000
00001000
00000000
01000000
00010000
,
01000000
00010000
00100000
00000000
01000000
00000000
10010000
00000000
,
10000000
00000000
01000000
00010000
00001000
00000000
00010000
00001000
,
00000010
00000000
00001000
00000010
00000001
00000000
00000001
00000100
,
00000010
00001000
00000100
00000010
00001000
00010000
00001000
00000000
,
01000000
00010000
10000000
00010000
00100000
00000000
01000000
00000000
,
00010000
00000000
00001000
00100000
00010000
00000000
00100000
00010000
,
01000000
00000000
00010000
01000000
00100000
00000000
10000000
01000000
,
00100000
00010000
01000000
00100000
00010000
00001000
00000100
00000000
,
00000010
00001000
00000002
00000010
00000013
00000000
00001001
00000000
,
00001000
00000100
00010000
00001000
01000000
00000000
00010000
00100000
,
00001000
00010000
00000010
00000000
00001000
00000000
00000100
00000000
,
00000010
00001000
00010000
00001000
01000000
00000000
00100000
00010000
,
00001000
00010000
00000100
00000000
00000010
00000000
00000110
00000000
,
00000100
00010000
00001000
01000000
00010000
00000000
00100000
00001000
,
00010000
00000010
00001000
00000000
00000100
00000000
00010000
00000000
,
00001000
01000000
00010000
01000000
00100000
00000000
10000000
01000000
,
00010000
00000000
00022000
00000000
00033000
00000000
00001000
00010000
,
00100000
01000000
00100000
00010000
00001000
00000000
00010000
00001000
,
00000010
00000100
00000010
00001000
00010000
00000000
00001000
00010000
,
01000000
00100000
01000000
00010000
00001000
00000000
00010000
00001000
,
00000100
00000010
00000100
00001000
00010000
00000000
00100000
01000000
,
00100000
00010000
00001000
00010000
00000100
00000000
00000010
00000100
,
00000010
00001000
00010000
00001000
01000000
00000000
00100000
00000000
,
00010000
00001000
00000100
00000220
,
00000000
00000000
00000330
00002002
,
00000000
00000000
00000000
00000000
,
00000000
00000000
00000000
00000000
,
00000000
00000000
00000000
00000000
,
00000000
00000000
00003003
00000000
,
00002000
00003000
00000200
00000300
,
00020000
00030000
00002000
00003000
,
02000000
03000000
00020000
00030000
,
20000000
30000000
02000000
03000000
,
00020000
00030000
00020000
00032000
,
00000000
00000000
00000000
00003020
,
00000000
00000000
00000032
00000000
,
00002000
00000000
00003003
00000001
,
00001000
00010000
10000000
00010000
,
00001000
00000000
00000001
00000000
00000000
00000000
00000100
00000010
,
00000100
00000010
00000100
00001000
00010000
00000000
00002000
00000000
,
00000000
02003000
00000000
00000000
03000000
00000000
00002000
00000000
,
01000000
00010000
00100000
00010000
,
01000000
00200000
00303000
00020000
,
00000100
00001000
00000010
00001000
,
00000100
00000020
00030030
00011000
,
00001000
00000000
01000000
00010000
01000000
00000000
00001000
00000000
,
00010000
00000000
00000000
00000000
00000100
00000000
00001000
00000000
00000100
00000000
00000000
00000000
00000010
00000000
00000000
00000010
,
00000000
00000000
00000001
00000000
00000000
00000001
00000000
00000000
00000100
00000000
00000000
00000000
00002000
00000000
00000000
00000000
,
00010000
00000000
00000000
00000000
01003000
00000000
00000000
00000000
01100000
00000000
00000000
00000000
00100000
00000000
00000000
10000000
,
00000000
00000000
01000000
00000000
00000000
00010000
00000000
00000000
00001000
00000000
00010000
00000000
00001000
00000000
00000000
00000010
,
00000000
00000000
00000001
00000000
00000200
00000000
00000302
00000000
00002003
00000000
00003020
00000000
00010030
00000000
00000000
00001000
,
00000000
00000000
00000010
00000000
00000000
00001000
00000000
00000000
00010000
00000000
00000100
00000000
00001000
00000000
00000000
00000010
,
00000000
00000000
00001000
00000000
00020000
00000000
02030000
00000000
03200000
00000000
20300000
00000000
30010000
00000000
00000000
10000000
,
00000000
00000000
01000000
00000000
00000000
10000000
00000000
00000000
00100000
00000000
00010000
00000000
00001000
00000000
00000000
00000100
,
00000000
00000000
00001000
00000000
00020000
00000000
00030200
00000000
00002300
00000000
00003020
00000000
00000130
00000000
00000000
00000001
,
00000000
00000000
00000010
00000000
00000000
00001000
00000000
00000000
00010000
00000000
00001000
00000000
00010000
00000000
00000000
01000000
,
00000000
00000000
10000000
00000000
00100000
00000000
01000000
00000000
00100000
00000000
01000000
00000000
00010000
00000000
00100000
01000000
,
00000000
00100000
00010000
00000000
00100000
01000000
00000000
00100000
00010000
00000000
01000000
00000000
00100000
00000000
00000000
00010000
,
00000000
00000000
00001000
00000000
00020000
00000000
00030200
00000000
00002300
00000000
00003002
00000000
00000103
00000000
00000010
00001000
,
00000000
00000010
00000100
00000000
00000010
00001000
00000000
00000010
00000100
00000000
00001000
00000000
00010000
00000000
00000000
00100000
,
00000000
00000000
10000000
00000000
02000000
00000000
03200000
00000000
00320000
00000000
20030000
00000000
30100000
00000000
01000000
00010000
,
00000000
01000000
00100000
00000000
01000000
00010000
00000000
01000000
00100000
00000000
10000000
00000000
01000000
00000000
00000000
00010000
,
00000000
00000000
00001000
00000000
00000020
00000000
00000230
00000000
00020300
00000000
00032000
00000000
01003000
00000000
00010000
01000000
,
00000000
00100000
01000000
00000000
00010000
01000000
00000000
00100000
01000000
00000000
00010000
00000000
00100000
00000000
00000000
01000000
,
00000000
00010000
00002000
00003020
00000032
00000203
00002300
00000000
,
00000000
00000000
00000000
00003000
;

//--------------- dance-double - forcednature ----------------
#NOTES:
     dance-double:
     forcednature:
     Hard:
     17:
     0,0,0,0,0:
00000000
00000000
00000000
00000000
,
00000000
00000000
00000000
00000000
,
00000000
00000000
00000000
00000000
,
00000000
00000000
00000000
00000000
,
00000000
00000000
00000000
00000000
,
00000000
00000000
00000000
00000000
,
00010000
00000000
00001000
00000000
01000000
00010000
00000000
00100000
00000000
00001000
00000000
00010000
00000100
00001000
00000100
00000010
,
00000001
00000000
00001000
00000000
00000010
00010000
00000000
00001000
00000000
01000000
00000000
00010000
00000000
10000000
00100000
00000000
,
10000000
00000000
01000000
00000000
00100000
00001000
00000000
00010000
00000000
00100000
00000000
10000000
00010000
00100000
01000000
00000000
,
01100000
01100000
00100000
00001000
00001000
00000010
00000001
00000000
,
00000001
00000000
00000000
00000000
00001000
00000000
00000000
00000000
00022000
00033000
00000000
00000000
10000000
00000000
00000000
00000000
00010000
00000000
00000000
00000000
00022000
00033000
00000000
00000000
01000000
00000000
00000000
00000000
00001000
00000000
00000000
00000000
,
00000100
00001000
00020000
00100000
00031000
00010100
00000100
00000000
,
00000100
00010000
00100000
00000000
00010000
00001000
01000000
00000000
,
01000000
00001000
00000010
00000000
00001000
00010000
00000100
00001000
,
00000100
00000000
00001000
00000000
00000001
00000100
00000001
00000100
00000010
00000000
00001000
00000000
00000100
00001000
00000100
00001000
,
00000100
00010000
00000100
00010000
00001000
00000000
01000000
00000000
00010000
00000000
00000000
00000000
10010000
00000000
00000000
00000000
,
10000000
00000000
01000000
00100000
00010000
00000000
00100000
00001000
00010000
00000000
00000010
00000000
00001000
00000000
00000001
00001000
,
00000100
00000000
00010000
00000000
00001000
00000000
00100000
00010000
10000000
00000000
00000000
00000000
00100000
00000000
00100000
01000000
,
00010000
00000000
00010000
01000000
00001000
00000000
00001000
00010000
00000100
00000000
00000100
00001000
00000001
00000000
00000100
00000000
,
00000010
00001000
00010000
02000000
00100000
00000000
03002000
00000000
,
00103000
00000000
00010000
00100000
01000000
00000000
00100000
01000000
10000000
00000000
00010000
00000000
10000000
00000000
00100000
01000000
,
00010000
00000000
01000000
00000000
00001000
00000000
00010000
00000100
00001000
00000000
00000000
00000000
00000010
00000000
00000010
00010000
,
00001000
00000000
00001000
00100000
00010000
00000000
00010000
10000000
00100000
00000000
00100000
01000000
00010000
00000000
00010000
00100000
,
01000000
00000000
01000000
00010000
00002000
00000000
00100000
00000000
00103000
00000000
00000000
00000000
00011000
00000000
00010000
00000000
,
00000010
00001000
00000000
00000100
00001000
00000000
00000100
00010000
00001000
00000000
01000000
00000000
00010000
10000000
00010000
00000000
,
00100000
00010000
00000000
00100000
01000000
00000000
10000000
01000000
10000000
00000000
00010000
00000000
01000000
00001000
00010000
00000000
,
00000100
00001000
00000000
00000100
00000010
00000000
00000001
00000010
00000100
00000000
00001000
00000000
00000010
00001000
00000010
00000000
,
00010000
00001000
00000000
00100000
00020000
00000000
10000000
00000000
01000000
00000000
00030000
00000000
00010000
10000000
00010000
00000000
,
01000000
00010000
00000000
01000000
00001000
00000000
00010000
00000100
00001000
00000000
00000100
00000000
00000010
00000001
00001000
00000000
,
00000010
00001000
00000000
00000010
00010000
00000000
00001000
01000000
00001000
00000000
00010000
00000000
00001000
00100000
00010000
00000000
,
10000000
00010000
00000000
10000000
00100000
00000000
01000000
00010000
10000000
00000000
01000000
00000000
00010000
00000000
00000000
00000000
,
00001000
00000000
00000000
00000000
00000220
00000000
00000000
00000000
00000330
00000000
00000000
00000000
00000001
00000000
00000100
00001000
,
00000100
00000000
00000001
00000000
00000010
00000000
00001000
00010000
00001000
00000000
00100000
00000000
00010000
00000000
01000000
10000000
,
01000000
00000000
00010000
00000000
00100000
00000000
00001000
00010000
00001000
00000000
00000010
00000000
00000100
00000000
00010000
00000010
,
00010000
00000000
00001000
00000000
01000000
00000000
00001000
00100000
00001000
00000000
00010000
00000000
00000100
00000000
00010000
00000010
,
00010000
00000000
00001000
00000000
01000000
00000000
00001000
00100000
00020000
00000000
00000000
00000000
10030000
00000000
01000000
00010000
,
01000000
00000000
10000000
00000000
00100000
00000000
00010000
00001000
00010000
00000000
00000010
00000000
00001000
00000000
00000100
00000001
,
00000100
00000000
00001000
00000000
00000010
00000000
00010000
00001000
00010000
00000000
00100000
00000000
01000000
00000000
00000000
00000000
,
00001000
00000010
00000001
00002001
,
00000000
00000000
00000000
00010000
00013000
00000000
00022000
00000000
,
00000000
00000000
00000000
00000000
,
00000000
00000000
00000000
00000000
,
00000000
00000000
00000000
00000000
,
00000000
00000000
00033000
00001000
,
00020000
00130000
00020000
00031000
,
00020000
01030000
00020000
00031000
,
00000200
00000301
00000200
00001300
,
00020000
01030000
00020000
00031000
,
02000000
03000000
02000000
03002000
,
00000000
00000000
00000000
00023000
,
00000000
00000000
00030200
00000000
,
02000000
00000000
03000300
00010100
,
00010100
01001000
01001000
00010010
,
00101000
00000000
00000000
00000000
00011000
00000000
00000000
00000000
MMMMMMMM
00000000
00000000
00000000
01000000
00010000
01000000
00001000
,
00010000
00000000
00000000
00000010
00000000
00000000
00001000
00000000
00000000
00000010
00000000
00000000
00000100
00000000
00000000
00000000
00000001
00000000
00000000
00000000
00000100
00000000
00000000
00000000
00001000
00000000
00000000
00000000
00000000
00000000
00010000
00000000
00000000
00000000
00000000
00000000
00200000
00000000
00000000
00000000
00000000
00000000
00000000
00000000
00000000
00000000
00000000
00000000
,
00000000
20300000
00000000
30002000
00000000
00000000
02003000
00000000
,
00100000
00100000
00100000
00100000
,
00100000
00000000
03100000
10000000
01000000
00010000
00000200
00000000
,
00000010
00000010
00000010
00000010
,
00000010
00000000
00000310
00000001
00000100
00001000
02000000
00000000
,
03100000
10000000
01000000
00100000
00010000
00001000
00000100
00000000
,
00000010
00000000
00001000
00000000
00100000
00000000
00001000
00000000
00010000
00000000
00000000
00000000
00200000
00000000
00000000
20300000
,
00000000
00000000
32000000
00000000
00000000
03020000
00000000
00000000
00031000
00000000
00000010
00000000
00000100
00001000
00000100
00001000
,
00000100
00010000
00000100
00010000
00001000
01000000
00010000
01000000
00200000
00000000
00000000
00000000
10300000
00000000
01000000
00100000
,
00000000
00010000
00100000
00000000
00001000
00010000
00000000
00010000
00000010
00000000
00000100
00000000
00000001
00000000
00001000
00000100
,
00000000
00010000
00000100
00000000
00001000
00000010
00010000
00001000
01000000
00010000
00100000
00000000
01000000
00000000
10000000
01000000
,
00000000
00100000
00010000
00000000
01000000
00001000
00000000
00001000
00010000
00000000
00000100
00000000
00001000
00000000
00000010
00010000
,
00000000
00001000
01000000
00000000
00010000
00100000
00001000
00010000
00000100
00001000
00000010
00000000
00000100
00000000
00000001
00001000
,
00000000
00000100
00001000
00000000
00000010
00010000
00000000
00010000
00001000
00000000
00100000
00000000
00010000
00000000
10000000
00100000
,
00000000
01000000
00100000
00000000
10000000
01000000
00100000
00001000
00010000
00000100
00000010
00000000
00000001
00000000
00000100
00000001
,
00000000
00000010
00000001
00000000
00001000
00000010
00000000
00000010
00010000
00000000
00001000
00000000
00100000
00000000
01000000
10000000
,
00000000
01000000
00100000
00000000
00001000
00000000
00000010
00000000
00001000
00000000
00000010
00000000
00000001
00000000
00000100
00000001
,
00001000
00000010
00001000
00000000
00000100
00010000
00000000
00001000
00100000
00000000
00001000
00000000
00010000
00000000
00100000
01000000
,
00100000
10000000
00010000
00000000
10000000
01000000
00010000
00001000
00100000
00010000
00100000
00001000
00010000
00000000
00000010
00001000
,
00000010
00000100
00000001
00000000
00001000
00000100
00000000
00010000
00001000
00000000
01000000
00000000
00010000
00000000
00100000
00001000
,
00010000
00000010
00001000
00000000
00000001
00000100
00001000
00010000
00000010
00001000
00000010
00010000
00001000
00000000
01000000
00010000
,
10000000
00010000
00100000
00000000
01000000
10000000
00000000
01000000
00010000
00000000
00001000
00000000
00100000
00000000
00001000
01000000
,
00010000
01000000
00100000
00000000
10000000
01000000
00100000
00010000
00001000
00000100
00000010
00000001
00001000
00000000
00000001
00000100
,
00000001
00001000
00000010
00000000
00010000
00001000
00000000
01000000
00010000
00000000
00100000
00000000
00001000
00000000
00010000
00000100
,
00001000
00000100
00000010
00000000
00000001
00000100
00000010
00001000
00010000
01000000
00100000
10000000
00020000
00000000
00000000
00000000
,
00000000
00000000
00000000
00030000
;
