#TITLE:The wheel to the right;
#SUBTITLE:;
#ARTIST:Sampling Masters MEGA;
#TITLETRANSLIT:;
#SUBTITLETRANSLIT:;
#ARTISTTRANSLIT:;
#GENRE:;
#CREDIT:;
#MUSIC:The wheel to the right.ogg;
#BANNER:The wheel to the right.png;
#BACKGROUND:The wheel to the right-bg.png;
#CDTITLE:;
#SAMPLESTART:5.452;
#SAMPLELENGTH:15.000;
#SELECTABLE:YES;
#OFFSET:0.548;
#BPMS:0.000=200.000
,60.000=400.000
,64.000=200.000
,76.000=400.000
,84.000=200.000
,92.000=400.000
,96.000=200.000
,108.000=400.000
,113.000=200.000
,114.000=400.000
,115.000=200.000
,159.000=400.000
,160.000=200.000
,163.000=400.000
,164.000=200.000
,167.000=400.000
,168.000=200.000
,171.000=400.000
,172.000=200.000
,175.000=400.000
,176.000=200.000
,179.000=400.000
,180.000=200.000
,183.000=400.000
,184.000=200.000
,185.000=400.000
,186.000=200.000
,195.000=400.000
,196.000=200.000
,199.000=400.000
,200.000=200.000
,207.000=400.000
,208.000=200.000
,266.500=400.000
,268.000=200.000
,282.500=400.000
,284.000=200.000
,292.000=100.000
,296.000=200.000
,334.000=400.000
,336.000=200.000
,385.500=400.000
,387.000=200.000
,388.500=400.000
,390.000=200.000
,394.500=400.000
,396.000=200.000
,397.500=400.000
,399.000=200.000
,400.500=400.000
,402.000=200.000
,406.500=400.000
,408.000=200.000
;
#STOPS:60.000=0.150
,61.000=0.075
,61.500=0.075
,62.000=0.075
,62.500=0.075
,63.000=0.075
,63.500=0.075
,76.000=0.150
,77.000=0.075
,77.500=0.075
,78.000=0.075
,78.500=0.075
,79.000=0.075
,79.500=0.075
,80.000=0.100
,80.667=0.100
,81.333=0.100
,82.000=0.100
,82.667=0.100
,83.333=0.100
,92.000=0.150
,93.000=0.075
,93.500=0.075
,94.000=0.075
,94.500=0.075
,95.000=0.075
,95.500=0.075
,108.000=0.150
,109.000=0.075
,109.500=0.075
,110.000=0.075
,110.500=0.075
,111.000=0.075
,111.500=0.075
,112.000=0.150
,114.000=0.150
,159.000=0.150
,163.000=0.150
,167.000=0.150
,171.000=0.150
,175.000=0.150
,179.000=0.150
,183.000=0.150
,185.000=0.150
,195.000=0.150
,199.000=0.150
,207.000=0.150
,266.500=0.225
,282.500=0.225
,334.000=0.300
,385.500=0.225
,388.500=0.225
,394.500=0.150
,395.500=0.075
,397.500=0.225
,400.500=0.225
,406.500=0.150
,407.500=0.075
;
#DISPLAYBPM:100.000:200.000;
#BGCHANGES:3.750=The wheel to the right.avi=1.000=1=0=0=StretchNoLoop====,
99999.000=-nosongbg-=0.000=0=0=0=StretchNoLoop====;
#FGCHANGES:;

//--------------- dance-single - chrononical ----------------
#NOTES:
     dance-single:
     chrononical:
     Hard:
     13:
     0,0,0,0,0:
0000
0000
0000
0000
,
0000
0000
0000
0000
,
0000
0000
0000
0000
,
1000
0000
0100
0000
0010
0001
0000
0001
,
1000
0000
0010
0000
0200
0000
0301
0001
,
1000
0100
0000
0100
0002
0000
0103
1000
,
0010
0000
0100
2000
0000
3001
0010
1000
,
0000
0010
0000
0010
0002
0000
0013
1000
,
0100
0000
0010
2000
0000
3010
0001
1000
,
0001
0100
0000
0100
2000
0000
3100
0001
,
0010
0000
0100
0002
0000
1003
0010
0001
,
0000
0010
0000
0010
2000
0000
3010
0001
,
0100
0100
0000
0000
0010
0010
0000
0000
,
1001
0000
1100
0000
1010
0010
0000
0000
,
1001
0000
0101
0000
0011
0010
0000
0000
,
2001
0000
3001
0100
0010
1000
0001
0010
,
0100
0000
1000
0020
0000
0000
0130
0000
,
1001
0000
0101
0000
0011
0010
0000
0000
,
1001
0000
1010
0000
1100
0100
0000
0000
,
1002
0000
1003
0010
0100
0001
1000
0100
,
0010
0000
0010
0000
0010
0000
0001
0000
0001
0000
0001
0000
,
1001
1100
1010
0110
,
1001
0011
0101
0110
,
2001
0000
3100
0010
0001
1000
0010
0100
,
0010
0000
1000
0200
0000
0000
0310
0000
,
1001
0101
0011
0110
,
1001
1010
1100
0110
,
1002
0000
0013
0100
1000
0001
0100
0010
,
0200
0301
0020
0130
,
1000
1000
1000
1000
,
1000
0000
1000
0000
0001
0000
0100
0100
,
0001
0010
0000
0010
2000
0000
3010
0001
,
0100
0000
0010
0002
0000
1003
0100
0001
,
0000
0100
0000
0100
2000
0000
3100
0001
,
0010
0000
0100
0002
0000
0103
1000
0001
,
1000
0010
0000
0010
0002
0000
0013
1000
,
0100
0000
0010
2000
0000
3001
0100
1000
,
0000
0100
0000
0100
0002
0000
0103
1000
,
0010
0010
0000
0000
0110
0000
0200
0000
,
0301
1000
0001
0010
0100
0100
1000
0000
,
0001
1000
0001
0100
1000
0100
0010
0000
,
1000
1000
0001
0001
1000
0100
0010
0000
,
0001
0001
0100
0100
1000
0100
0010
0000
,
1000
0001
0010
0100
1000
0001
1000
0000
,
0001
0100
0010
0100
1000
0100
0010
0000
,
1000
0100
0001
0100
1000
0001
0100
0000
,
0001
0100
1000
0000
0001
0010
0200
0000
,
0301
0000
1000
0100
0010
0000
0100
1000
,
0010
0000
1000
0010
0100
0000
0010
0000
,
0110
0110
2001
3100
,
0120
0000
0031
0010
0100
1000
0001
1000
,
0001
0000
0100
0010
0100
0000
0010
0000
,
0120
0000
1030
0010
0100
0000
0010
1000
,
0100
0000
0010
0100
0010
0000
0001
0000
,
1000
0010
0000
0010
0100
0001
1000
0001
,
1001
0000
0000
1100
,
1001
0000
0000
0101
,
1001
0000
0011
0000
,
0110
0000
0000
1100
,
1001
0000
0000
0011
,
1001
0000
0000
1010
,
1001
0001
0010
0100
1000
0010
0100
0001
,
1000
0100
0010
0001
0011
0000
1001
0000
,
1020
0031
0010
0100
,
0001
0010
0100
1000
0001
1000
0100
0000
,
1200
0301
0100
0010
,
0001
0100
0010
1000
0001
0200
0300
0000
,
0201
1300
0100
0010
,
1000
0100
0010
0001
1000
0001
0010
0000
,
0021
1030
0010
0100
,
1000
0010
0100
0001
1000
0020
0030
0000
,
1020
0031
0010
1000
,
0001
0010
0100
0010
0001
1000
0010
0000
,
0100
0001
0000
0010
0100
0000
0100
0000
1000
0000
1000
0000
0010
0010
1000
0001
,
0020
1030
0010
0001
,
1000
0010
0100
0010
1000
0001
0100
0000
,
0201
1300
0100
0001
,
1000
0100
0010
0100
1000
0001
1000
0010
,
0100
0001
1000
0100
0010
0001
0010
0100
,
1000
0001
1000
0010
0100
0001
0100
0010
,
2000
0000
0000
0000
,
0000
3000
2002
0000
,
0000
0000
0000
0000
,
0000
0000
3003
0000
,
0001
0000
0001
0010
0000
0010
0100
0000
,
0000
0100
1000
0010
0010
0100
0001
1000
,
0000
1000
0100
0000
0100
0001
0000
0100
,
1000
0000
1000
0010
0000
0010
0100
0000
,
0000
0100
0001
0010
0010
0100
1000
0001
,
0000
0001
0100
0000
0100
1000
0000
0100
,
0001
0000
0001
0100
0000
0100
0010
0000
,
0000
0010
1000
0100
0100
0010
0001
1000
,
0000
1000
0010
0000
0010
0001
0000
0010
,
1000
0000
1000
0100
0000
0100
0010
0000
,
0000
0010
0001
0100
0100
0010
1000
0001
,
0000
0001
0010
0000
0010
1000
0000
0010
,
0100
0000
0000
1001
0000
0000
0010
0000
,
0000
1001
0000
0000
0100
0000
0000
0110
,
0000
0000
0110
0000
0000
1001
0000
1000
,
0010
0000
0000
1001
0000
0000
0010
0000
,
0000
1001
0000
0000
1000
0100
0010
0001
,
0000
0001
1000
0000
0000
1001
0000
0001
,
1000
0000
0000
1100
0000
0000
0110
0000
,
0000
0011
0000
0000
1001
0000
1000
0010
,
0100
1001
0011
0110
,
2002
0000
0000
0000
,
0000
0000
0000
0000
3003
0000
1000
0001
,
1000
0010
0100
0010
0002
0000
0013
0100
,
0001
0001
1000
0000
1000
1000
0001
0000
,
0001
0010
0100
0010
2000
0000
3010
0100
,
1000
0000
1000
0010
0000
0010
0100
0100
,
0001
0100
0010
0100
2000
0000
3100
0010
,
0110
0110
1001
0001
,
1000
0100
0010
0100
0002
0000
0103
0010
,
0001
0001
0000
0000
0100
0100
0000
0000
,
0010
0010
0000
0000
1000
1000
0000
0000
,
1001
0000
0100
0110
,
1001
0000
0010
0000
,
1001
0000
0000
0000
1010
0000
0010
0000
0100
0000
0001
0000
,
2002
0000
0000
0000
,
3003
0000
0000
0000
;

//--------------- dance-single - chrononical ----------------
#NOTES:
     dance-single:
     chrononical:
     Challenge:
     15:
     0,0,0,0,0:
0000
0000
0000
0000
,
0000
0000
0000
0000
,
0000
0000
0000
0000
,
1000
0000
0000
0000
0001
0000
0000
0100
0010
0000
0100
0000
0000
0000
0001
0000
,
1000
0000
0000
0000
0100
0000
0000
0000
0010
0001
1000
0001
0100
0000
0100
0000
,
0001
1000
0000
0010
2000
0000
3100
0010
,
0100
1000
0001
0200
0000
0310
0100
1000
,
0100
0000
0001
0000
0000
0000
1000
0000
0002
0000
0000
0000
0103
0000
0010
1000
,
0010
1000
0001
0020
0000
0100
0130
1000
,
0001
0100
0000
0010
0200
0000
0301
0010
,
0100
1000
0100
0020
0000
0130
0010
1000
,
0010
0000
0100
0000
0000
0000
1000
0000
0020
0000
0000
0000
1030
0000
0001
1000
,
0001
0002
0100
1003
0010
0020
0100
1030
,
1010
0000
0210
0000
0301
0010
0100
1000
,
1100
0000
0120
0000
0031
0100
0010
1000
,
2001
0000
3010
0100
1000
0100
0010
0100
,
0001
0010
0100
0001
0100
1000
0001
0100
,
0101
0000
0120
0000
1030
0100
0010
0001
,
0011
0000
0210
0000
1300
0010
0100
0001
,
1002
0000
0103
0010
0001
0010
0100
0010
,
2000
0000
0100
0000
0010
0000
3002
0000
0100
0000
0013
0000
,
0011
0000
1001
0000
0101
0100
0010
1000
,
1010
0000
1001
0000
1100
0100
0010
0001
,
0021
0000
0130
0010
1000
0010
0100
0010
,
0001
0100
0010
0001
0010
0100
0010
1000
,
1010
0000
1001
0000
1100
0100
0010
0001
,
0011
0000
1001
0000
0101
0100
0010
1000
,
1200
0000
0310
0100
0001
0100
0010
0100
,
2100
3010
0102
0013
,
2001
0100
0100
0100
,
0100
0000
0000
0000
3100
0000
0000
0100
0010
0000
0000
0000
1200
0000
0010
0000
,
1300
0001
0000
0001
0200
0000
0310
1000
,
0100
0010
0001
0200
0000
0310
0100
1000
,
0100
0000
0001
0000
0000
0000
0001
0000
0020
0000
0000
0000
0130
0000
0100
0010
,
0001
0100
0010
0002
0000
0010
0013
0100
,
0001
1000
0000
1000
0200
0000
0310
0001
,
0100
0010
1000
0200
0000
0310
0100
0001
,
0100
0000
1000
0000
0000
0000
1000
0000
0020
0000
0000
0000
0130
0000
0100
0010
,
1000
0000
2000
0000
0001
0000
3100
0000
1100
0000
0000
0000
1000
0100
0010
0001
,
1000
0010
0100
0010
0001
1000
0200
0000
,
0301
0010
0100
0010
1000
0001
0200
0000
,
1300
1000
0010
0010
0001
1000
0200
0000
,
0301
0001
0010
0010
1000
0001
0200
0000
,
1300
0100
0010
0100
0001
1000
0020
0000
,
0031
0100
0010
0100
1000
0001
0020
0000
,
1030
0010
0001
0010
1000
0100
0020
0000
,
0031
0100
2000
0000
3001
0001
0010
0100
,
0101
0000
0001
0010
0021
0000
1030
0010
,
0021
0000
0130
1000
2020
0000
3030
0000
,
1010
1001
2200
3300
,
1200
0000
0310
0001
0201
0310
0010
0010
,
1020
0000
0130
0001
0022
0000
0033
0000
,
0201
0000
0310
1000
1200
0000
0301
0100
,
1200
0000
0310
0001
0201
0000
2300
0000
,
3001
0010
0000
0010
1000
0100
0100
0010
,
0021
0100
0000
1030
1010
0000
0011
0000
,
0201
0010
0000
1300
1100
0000
0101
0000
,
0021
0100
0000
1030
0021
0100
0000
1030
,
0021
0100
0000
1030
1010
0000
0110
0000
,
1200
0010
0000
0301
0101
0000
1100
0000
,
1020
0100
0000
0031
0011
0000
1010
0000
,
1100
1000
0001
0001
0101
0100
0010
0010
,
1010
0000
1000
0000
0001
0000
0001
0000
0011
0000
0000
0000
0001
0010
0100
1000
,
0020
0000
0000
0000
0130
0000
0001
0000
0010
0000
0000
0010
0100
0000
0000
0100
,
1000
0001
0100
1000
1000
0100
0101
0001
,
0020
0000
0000
0000
0130
0000
1000
0000
0010
0000
0000
0010
0100
0000
0000
0100
,
0001
1000
0100
0001
0001
0200
0300
0000
,
0200
0000
0000
0000
0310
0000
0001
0000
0100
0000
0000
0100
0010
0000
0000
0010
,
1000
0001
0010
1000
1000
0010
0011
0001
,
0200
0000
0000
0000
0310
0000
1000
0000
0100
0000
0000
0100
0010
0000
0000
0010
,
0001
1000
0010
0001
0001
0020
0030
0000
,
0020
0000
0000
0000
0130
0000
0001
0000
0010
0000
0000
0100
1000
0000
0000
0010
,
0100
0001
0100
1000
1000
0100
0101
0001
,
1000
0000
0100
0000
0000
0000
0100
0000
0110
0000
0000
0000
0011
0000
0000
0000
1001
0000
0000
0000
1010
0000
0000
0000
0010
0100
0010
0000
0010
0000
0010
0000
,
0200
0000
0000
0000
0310
0000
1000
0000
0100
0000
0000
0010
0001
0000
0000
0100
,
0010
1000
0010
0001
0001
0010
1010
1000
,
0200
0000
0000
0000
0310
0000
0001
0000
0100
0000
0000
0010
1000
0000
0000
0100
,
0010
0001
0010
1000
1000
0010
0001
0100
,
0110
0010
1000
0100
0110
0010
0001
0100
,
0110
0010
1000
0100
0110
0010
0001
0100
,
0101
0000
0000
0000
0000
0000
0000
0000
0000
0000
0000
0000
0000
0000
0000
0000
0000
0000
0000
0000
0000
0000
0000
0000
0001
0000
0000
0000
0000
0000
0000
0000
0000
0000
0000
0000
0000
0000
0000
0000
0000
0000
0000
0000
0000
0000
0000
0000
1000
0000
0000
0000
0000
0000
0000
0000
0000
0000
0000
0000
0000
0000
0000
0000
0000
0000
0100
0000
0000
0000
0000
0000
0000
0000
0000
0000
0000
0000
0000
0000
0000
0000
0000
0000
0010
0000
0000
0000
0000
0000
0000
0000
0000
0000
0000
0000
0000
0000
0000
0000
0000
0000
0001
0000
0000
0000
0000
0000
0000
0000
0000
0000
0000
0000
0000
0000
0000
1000
0000
0000
0000
0000
0000
0000
0000
0000
0000
0000
0000
0000
0000
0001
0000
0000
0000
0000
0000
0000
0000
0000
0000
0000
0000
0000
2000
0000
0000
0000
0000
0000
0000
0000
0000
0000
0000
0000
0000
0000
0000
0000
0000
0000
0000
0000
0000
0000
0000
0000
0000
0000
0000
0000
0000
0000
0000
0000
0000
0000
0000
0000
0000
0000
0000
0000
0000
0000
0000
0000
0000
0000
0000
0000
,
0000
3000
2002
0000
,
0000
0000
0000
0000
,
0000
0000
3003
0000
,
1100
0000
0100
0110
0000
0010
0011
0000
,
0001
0100
0010
0100
1000
0100
0010
0110
,
0000
0100
0101
0000
0001
0011
0001
1000
,
1010
0000
0010
0110
0000
0100
0101
0000
,
0001
0010
0100
0010
1000
0010
0100
0110
,
0000
0100
1100
0000
1000
1010
1000
0001
,
0101
0000
0100
0110
0000
0010
1010
0000
,
1000
0100
0010
0100
0001
0100
0010
0110
,
0000
0100
1100
0000
1000
1010
1000
0001
,
0011
0000
0010
0110
0000
0100
1100
0000
,
1000
0010
0100
0010
0001
0010
0100
0110
,
0000
0100
0101
0000
0001
0011
0000
0001
,
2001
0000
0000
3010
0000
0000
1002
0000
,
0000
0013
0000
0000
0110
0000
0000
1100
,
0000
0000
1020
0000
0000
0001
0000
0130
,
2001
0000
0000
3100
0000
0000
1002
0000
,
0000
0103
0000
0000
0100
0010
0100
0001
,
0000
0001
0020
0000
0000
1000
0000
0130
,
1001
0000
0000
0101
0000
0000
0110
0000
,
0000
1001
0000
0000
1100
0000
0100
0010
,
0011
0000
0000
0000
1001
0000
0000
0000
1010
0000
0000
0000
0010
0100
0001
0020
,
0100
0100
0100
0100
,
0100
0000
0100
0000
0130
0000
1001
0001
,
0100
1000
0100
0001
0020
0000
0130
1000
,
0010
0010
0010
0000
0010
0010
0010
0100
,
0010
0001
0010
1000
0200
0000
0310
0001
,
0011
0000
0010
0110
0000
0100
1100
1000
,
0100
0001
0100
1000
0020
0000
0130
0001
,
1001
0000
0011
0000
0101
0001
0100
0010
,
0100
1000
0100
0001
0020
0000
0130
1000
,
0010
0020
0100
1030
0001
0002
0100
1003
,
0100
0200
0010
1300
0001
0002
0100
1003
,
1002
0100
0103
0110
,
2001
0100
3100
0110
,
1001
0000
0000
0000
0011
0000
1001
0000
1010
0000
0110
0000
,
2002
0000
0000
0000
,
3003
0000
0000
0000
;
