#TITLE:The Hope of Tomorrow;
#SUBTITLE:-Ryu☆ Remix-;
#ARTIST:Sota Fujimori REMIXED BY Ryu☆;
#TITLETRANSLIT:;
#SUBTITLETRANSLIT:;
#ARTISTTRANSLIT:;
#GENRE:;
#CREDIT:KAYSTAR;
#BANNER:bn.png;
#BACKGROUND:bg.png;
#LYRICSPATH:;
#CDTITLE:;
#MUSIC:The Hope of Tomorrow -Ryu Remix-.ogg;
#OFFSET:0.000000;
#SAMPLESTART:64.560997;
#SAMPLELENGTH:10.000000;
#SELECTABLE:YES;
#DISPLAYBPM:171.000000;
#BPMS:0.000000=171.000000
,100.000000=85.500000
,108.000000=171.000000
,172.000000=85.500000
,174.000000=171.000000
;
#STOPS:174.000000=0.702000
;
#BGCHANGES:36.000=The Hope of Tomorrow -Ryu Remix-.avi=1.000=0=0=1===CrossFade_Fastest==,
372.000=bg.jpg=1.000=0=0=1=====,
99999=-nosongbg-=1.000=0=0=0 // don't automatically add -songbackground-
;
#KEYSOUNDS:;
#ATTACKS:;

//---------------dance-single - ----------------
#NOTES:
     dance-single:
     :
     Beginner:
     3:
     0.167487,0.235197,0.100084,0.007149,0.000000,164.000000,150.000000,14.000000,1.000000,0.000000,0.000000,0.167487,0.235197,0.100084,0.007149,0.000000,164.000000,150.000000,14.000000,1.000000,0.000000,0.000000:
0000
0000
0000
0000
,
0000
0000
0000
0000
,
0000
0000
0000
0000
,
0000
0000
0000
0000
,
0000
0000
0000
0000
,
0000
0000
0000
0000
,
0000
0000
0000
0000
,
0000
0000
0000
0000
,
0000
0000
0000
0000
,
1000
0000
1000
0000
,
1000
0000
0000
0000
,
0010
0000
0010
0000
,
0010
0000
0100
0100
,
0100
0000
0100
0000
,
0100
0000
0000
0000
,
0010
0000
0010
0000
,
0010
0000
0000
0000
,
1000
0000
1000
0000
,
0001
0000
0000
0000
,
0001
0000
0001
0000
,
1000
0000
0000
0000
,
0100
0000
0100
0100
,
0100
0000
0000
0000
,
0001
0000
0001
0000
,
1000
0000
0000
0000
,
1001
0000
0000
0000
,
0000
0000
0000
0000
,
1000
0000
0000
0000
,
0001
0000
0001
0000
,
0001
0000
0000
0000
,
1000
0000
1000
0000
,
1000
0000
0000
0000
,
0010
0000
0000
0000
,
0100
0000
0000
0000
,
0001
0000
0000
0000
,
1000
1000
1000
0000
,
0000
0000
0000
0000
,
0010
0010
0010
0000
,
0000
0000
0000
0000
,
1001
0000
0000
0000
,
0110
0000
0000
0000
,
1000
0000
0001
0001
,
0001
0000
1000
0000
,
1001
0000
0000
0000
,
0001
0000
0001
0000
,
0010
0000
0100
0000
,
1000
0000
1000
0000
,
0010
0000
0000
0001
,
0001
0000
0100
0000
,
0001
0000
1000
0000
,
0001
0000
0001
0000
,
0010
0000
0000
0000
,
0010
0000
0001
0000
,
1000
0000
0010
0000
,
0100
0000
0100
0000
,
0001
0000
0000
0000
,
1000
0000
0010
0000
,
1000
0000
0001
0000
,
0010
0000
0001
0000
,
1000
0000
0010
0000
,
1000
1000
1000
0000
,
1000
0000
0000
0000
,
0010
0000
0100
0000
,
0010
0000
0100
0000
,
0001
0001
0001
0000
,
0001
0000
0001
0000
,
1000
0001
1000
0000
,
0001
1000
0001
0000
,
1000
1000
1000
0000
,
1000
0000
0000
0000
,
0100
0000
0010
0000
,
0100
0000
0000
0000
,
0001
0000
1001
0000
,
0000
0000
1001
0000
,
0000
0000
0110
0000
,
0000
0000
0110
0000
,
0001
0001
0001
0000
,
1000
0000
0001
1000
,
0010
0010
0010
0000
,
0100
0000
0100
0010
,
1000
1000
1000
0000
,
0001
0000
0001
1000
,
0001
0001
0001
0000
,
1000
0000
0001
0001
,
0000
0000
0000
0000
,
1001
0000
1001
0000
,
0000
0000
0000
0000
,
0110
0000
0110
0000
,
0000
0000
0000
0000
,
1001
0000
1001
0000
,
1000
0000
0001
0000
,
1000
0001
0010
0100
,
2000
0000
0000
0000
,
0000
0000
0000
0000
,
3000
0000
0000
0000
;

//---------------dance-single - ----------------
#NOTES:
     dance-single:
     :
     Easy:
     7:
     0.269613,0.403194,0.207316,0.057191,0.000000,264.000000,235.000000,29.000000,8.000000,0.000000,0.000000,0.269613,0.403194,0.207316,0.057191,0.000000,264.000000,235.000000,29.000000,8.000000,0.000000,0.000000:
0000
0000
0000
0000
,
0000
0000
0000
0000
,
0000
0000
0000
0000
,
0000
0000
0000
0000
,
0000
0000
0000
0000
,
0000
0000
0000
0000
,
0000
0000
0000
0000
,
0000
0000
0000
0000
,
0000
0000
0000
0000
,
1000
0000
1000
0000
,
1000
0000
0001
0001
,
0010
0000
0010
0000
,
0110
0000
1000
0001
,
1000
0000
1000
0000
,
0001
0000
1000
1000
,
0100
0000
0100
0000
,
0110
0000
1001
1001
,
1001
0000
1000
0000
,
0001
1000
0001
0001
,
1000
0000
0010
0100
,
0001
1000
0001
0001
,
1000
0000
0100
0010
,
0001
1000
0001
0001
,
1000
0000
0010
0010
,
1000
0000
0000
0000
0001
1000
0001
2000
,
0002
0000
0000
0000
,
0000
0000
3003
0000
,
2000
0000
0000
0000
,
0000
0000
0000
0000
,
3002
0000
0000
0000
,
1000
0000
0100
0000
,
0203
0000
0000
0000
,
0000
0000
0000
0000
,
0320
0000
0100
0000
,
0100
0000
0100
0000
,
0130
0100
0100
0100
,
0000
0000
1001
0000
,
0010
0010
0010
0010
,
0000
0001
1000
0001
,
1000
1000
1000
0000
,
0001
0001
0001
0000
,
0110
0000
1001
1001
,
1001
0000
0000
0000
1000
0000
0001
1000
,
0001
0000
0000
1001
,
0001
1000
0001
1000
,
0010
0100
0010
0100
,
0001
1000
0001
1000
,
0100
0010
0110
0000
,
1000
0001
1000
0010
,
1000
0000
1001
0000
,
0001
1000
0001
0010
,
0001
1000
0001
0100
,
0010
0100
0010
0100
,
0001
1000
0001
1000
,
0100
0010
0100
0010
,
0001
1000
1001
0000
,
1000
0000
0110
0000
,
1000
0000
1001
0000
,
0100
0100
0001
0000
,
0100
0100
0001
0000
,
0100
0000
0001
0000
,
1000
0000
0010
0000
,
0010
0010
0001
0000
,
1000
1000
0010
0010
,
0010
0000
1000
0000
,
0001
0000
1000
0000
,
0001
0100
0001
0100
,
0010
1000
0010
0000
,
1000
0000
0100
0000
,
1000
0000
0010
0000
,
0110
0000
0001
0000
,
0010
0000
0100
0100
,
0100
0000
1001
0000
,
0010
0000
1001
0000
,
0110
0000
0001
0000
,
1001
0000
1001
0000
,
0010
1000
0010
1000
,
0001
0010
0001
0010
,
0100
1000
0100
1000
,
0001
0100
0001
0100
,
0010
1000
0010
1000
,
0001
0010
0001
0010
,
0100
1000
0001
0100
,
0001
1000
0010
0000
,
1001
0000
1001
0000
,
1000
0000
0000
1000
0000
0000
1000
0000
,
0010
0000
0010
0010
,
0100
0000
0000
0100
0000
0000
0100
0000
,
1001
0000
0110
0000
,
1001
0000
0000
1001
0000
0000
1001
0000
,
1000
0000
0010
0010
,
1000
0000
0001
0000
1000
0001
1000
0002
,
2000
0000
0000
0000
,
0000
0000
0000
0000
,
3003
0000
0000
0000
;

//---------------dance-single - ----------------
#NOTES:
     dance-single:
     :
     Medium:
     11:
     0.443228,0.537592,0.285953,0.178721,0.003574,434.000000,394.000000,40.000000,25.000000,0.000000,0.000000,0.443228,0.537592,0.285953,0.178721,0.003574,434.000000,394.000000,40.000000,25.000000,0.000000,0.000000:
0000
0000
0000
0000
,
0000
0000
0000
0000
,
0000
0000
0000
0000
,
0000
0000
0000
0000
,
0000
0000
0000
0000
,
0000
0001
0000
0001
,
0000
1000
0000
1000
,
0000
0001
0000
0001
,
1000
0000
0000
0000
,
1000
0000
0100
1000
0000
0001
0000
0100
,
0000
0010
0000
1000
0010
0000
0110
0000
,
1001
0000
0001
0010
0000
0100
0000
1000
,
0100
0010
0000
1000
0100
0010
0001
0000
,
1000
0000
0001
0100
0000
0010
0000
0100
,
0000
0001
0000
0100
0010
0000
0110
0000
,
1001
0000
0001
0010
0000
0100
0000
1000
,
0001
1000
0000
0001
1000
0010
1000
0001
,
1000
0000
0010
1000
0000
0001
0000
1000
,
0002
0000
0000
1000
0000
0000
0103
0000
,
1000
0001
0000
1000
0010
1000
0001
0000
,
2000
0000
0000
0001
0000
0000
3100
0000
,
0001
0000
0100
0001
1000
0001
0010
0001
,
2000
0000
0000
0001
0000
0000
3010
0000
,
0001
1000
0000
0001
1000
0001
0100
0000
,
0010
0000
0000
0000
0010
0100
0010
0200
,
0020
0000
0000
0000
,
0000
0000
0330
0000
,
2000
0000
0000
0000
,
3002
0000
0000
0000
,
0203
0000
0000
0000
,
0320
0000
1000
0100
,
2030
0000
0000
0000
,
3200
0000
0000
0000
,
0302
0000
0100
0000
,
0203
0000
1000
0000
,
1300
0100
1000
0001
0000
0100
0001
0000
,
1000
0001
0010
0100
1000
0000
1100
0000
,
0001
0010
0000
0001
1000
0001
1000
0000
,
0010
1000
0001
0100
0001
1000
0010
0100
,
0001
0101
0010
0101
,
0010
1010
0100
1010
,
0110
0000
0110
0110
,
0001
0010
0001
0010
0100
1000
0100
1000
,
0002
0000
0003
1001
,
1000
0100
1000
0000
0001
0100
0001
0000
,
1000
0010
1000
0000
0001
0100
0001
1000
,
0100
0010
0100
0000
1000
0100
1000
0000
,
0001
1000
0001
0000
1000
0001
0010
0001
,
1000
0010
0100
0000
0010
1000
0001
0000
,
0010
0001
1000
0000
0001
0100
0010
0000
,
1000
0100
0001
0010
,
1000
0000
0100
0000
0010
0100
0010
0100
,
0010
0100
0010
0000
0001
1000
0001
0000
,
1000
0100
1000
0000
0100
0010
0100
1000
,
0001
0010
0001
0000
1000
0010
1000
0000
,
0001
0010
0001
0000
0100
0010
0100
0010
,
1000
0010
0100
0000
0001
0100
0010
0000
,
1000
0001
0010
0000
0100
0010
0001
0000
,
0010
0100
0001
1000
,
0100
0010
1000
0001
,
0010
0011
0001
0011
,
0001
1000
0100
0000
1000
0000
1001
0000
,
0100
1001
0010
1001
,
0001
0000
0000
1000
0000
0000
0001
0000
1000
0000
0001
0000
0000
0000
0010
0000
,
0002
1000
1003
0010
,
2000
0001
3001
0100
,
1000
0100
0010
0000
0001
0100
0010
0000
,
1000
0100
0010
0000
0001
0010
0001
0010
,
0001
0011
0100
0011
,
0100
1000
0001
0000
0100
0000
1010
0000
,
0100
1010
0100
0011
,
0100
0000
1010
0000
1000
0001
1000
0010
,
0100
0001
1002
0000
,
0023
0000
0130
1000
,
0020
0000
0130
0001
,
0020
0000
0130
0000
,
1100
0000
1100
0000
0001
0010
0001
0000
,
1000
0010
0100
0010
1000
0000
1010
0000
,
1001
0000
1001
0000
0001
0100
0001
0000
,
0010
0100
1000
0100
0010
0000
1100
0000
,
0110
0000
0011
0000
0001
0010
0001
0000
,
1000
0010
0100
0001
1000
0000
0101
0000
,
0110
0000
1010
0000
0010
0100
0010
0000
,
1000
0010
0000
1000
0010
1000
0010
0000
,
0100
0110
0100
0001
,
2000
0000
0000
0100
0000
0000
3010
0000
,
1000
0010
0000
1000
0010
0100
0001
0000
,
0200
0000
0000
0010
0000
0000
0301
0100
,
0010
0000
0101
0000
0100
0010
0100
0001
,
0200
0000
0000
0010
0000
0000
0301
0000
,
0101
0000
0110
0000
1000
0010
1000
0000
,
0001
1000
0001
1000
0001
1000
0001
2000
,
0002
0000
0000
0000
,
0000
0000
0000
0000
,
3003
0000
0000
0000
;

//---------------dance-single - ----------------
#NOTES:
     dance-single:
     :
     Hard:
     14:
     0.625012,0.705590,0.321697,0.364590,0.210891,612.000000,567.000000,45.000000,51.000000,0.000000,0.000000,0.625012,0.705590,0.321697,0.364590,0.210891,612.000000,567.000000,45.000000,51.000000,0.000000,0.000000:
0000
0000
0000
0000
,
0000
0000
0000
0000
,
0000
0000
0000
0000
,
0000
0000
0000
0000
,
0000
0000
0000
0000
,
0000
0001
0000
0001
,
1000
0000
0100
1000
0000
0001
0100
0000
,
0001
1000
0000
1000
,
0001
0000
0000
0000
,
1000
0100
0010
0100
0000
1000
0000
0101
,
0000
0110
0000
1000
0100
0010
0001
0000
,
1010
0000
0011
0010
0000
1100
0000
0010
,
0001
0100
0000
0010
1000
0100
1100
0000
,
0010
0100
1000
0100
0000
0011
0000
1100
,
0000
0101
0000
0010
0100
0001
0010
0000
,
1100
0000
1010
1000
0000
0010
0000
1000
,
1000
0100
0000
0001
0001
0100
0001
0000
,
1000
0100
0010
0100
1000
0001
0000
1000
,
0002
0000
1000
1000
0000
0010
0013
0001
,
0010
0100
1000
0010
0100
0001
1001
0000
,
2000
0000
0001
0001
0000
0100
3100
0010
,
0001
0000
0010
0000
0100
0000
1000
0000
0001
0000
1000
0000
0001
1000
0001
0000
,
2000
0000
0001
0001
0000
0010
3010
1000
,
0001
1000
0000
0001
0100
1000
0100
0000
,
0001
0000
1000
0000
0001
0000
1000
0000
0001
0000
1000
0000
0001
1000
0001
2000
,
0002
0000
0000
0000
,
0000
0000
3003
0000
,
2000
0000
0000
3002
0000
0000
0103
0000
0020
0000
0000
2030
0000
0000
3001
0000
,
0200
0000
0000
0320
0000
0000
1030
0000
0020
0000
0000
0230
0000
0000
0301
0000
,
0020
0000
0000
0230
0000
0000
1300
0000
0200
0000
0000
0320
0000
0000
0031
0000
,
2000
0000
0000
3002
0000
0000
0103
0000
0010
0000
1000
0000
0100
0000
0001
0000
,
0200
0000
0000
2300
0000
0000
3100
0000
0020
0000
0000
0032
0000
0000
0013
0000
,
0200
0000
0000
0302
0000
0000
0103
0000
2000
0000
0000
3002
0000
0000
0103
0000
,
0020
0000
0000
2030
0000
0000
3010
0000
0002
0000
0000
0023
0000
0000
1030
0000
,
0002
0000
0000
0023
0000
0000
0130
0000
1000
0000
0000
0000
0100
1000
0000
0100
,
1000
0001
1000
0001
1000
0100
0001
0100
,
1000
0001
0010
0100
1000
0001
1001
0000
,
1000
0001
0100
1000
0100
0001
1000
0001
,
1000
0000
0100
0000
0001
0000
0100
0000
1000
0000
0001
0000
1000
0000
0001
1000
,
0001
0010
0100
1000
0100
0001
0100
1000
,
0010
0100
0010
0100
0010
1000
0010
0001
,
0010
1000
0001
0000
0110
0000
0110
0000
,
0001
0000
0010
0000
0100
0000
1000
0000
0001
0000
0010
0000
0100
1000
0100
1000
,
0200
0000
0300
1001
,
1000
0000
0100
1000
0000
0000
0100
0000
1000
0000
0001
0100
0000
0000
0001
0000
,
1000
0000
0010
1000
0000
0000
0001
0000
1000
0000
0100
0000
0110
0000
0000
0000
,
1000
0000
0001
0100
0000
0000
0001
0000
1000
0000
0001
0010
0000
0000
0001
0000
,
1000
0000
0001
1000
0000
0000
0010
0000
1000
0000
0100
0000
0001
0000
0100
0000
,
1000
0000
0001
0100
0000
0000
0001
0000
1000
0000
0010
1000
0000
0000
0010
0000
,
1000
0000
0100
1000
0000
0000
0100
0000
0010
0000
0001
0000
0011
0000
0000
0000
,
1000
0000
0010
0100
0000
0000
0010
0000
1000
0000
0100
0010
0000
0000
0100
0000
,
1000
0000
0001
0000
0100
0000
0010
0000
0100
0000
0010
0100
0010
0000
1000
0000
,
0001
0000
0100
0010
0000
0000
1000
0000
0001
0000
0010
0100
0000
0000
1000
0000
,
0100
0000
0010
0001
0000
0000
1000
0000
0001
0000
0100
0000
0110
0000
0000
0000
,
0001
0000
0010
0100
0000
0000
1000
0000
0010
0000
0100
0001
0000
0000
0100
0000
,
0010
0000
1000
0001
0000
0000
1000
0000
0100
0000
0010
0000
0100
0000
1000
0000
,
0001
0000
0100
0010
0000
0000
1000
0000
0010
0000
0100
1000
0000
0000
0100
0000
,
0010
0000
1000
0001
0000
0000
0100
0000
0010
0000
1000
0000
0100
0000
0001
0000
,
0100
0000
1000
0100
0000
1000
0100
0000
1000
0000
0001
1000
0000
0001
1000
0000
,
0001
0000
1000
0010
0000
1000
0010
0000
1000
0000
0001
1000
0000
0001
1000
0000
,
0001
1000
0010
1000
0001
1000
0100
0000
,
0101
0000
1010
0000
1001
0000
0110
0010
,
0001
1000
0001
0100
0001
1000
0001
0010
,
0001
0000
0000
0100
0000
0000
0010
0000
0010
0000
0100
0000
0001
0000
0100
0000
,
0002
1003
0020
0130
,
0020
0031
0020
1030
,
2000
0000
0000
0010
0000
0000
0010
0000
3020
0000
0000
0100
0000
0000
0100
0000
,
0130
0000
0000
0001
0000
0000
1000
0000
0100
0000
0001
0000
0100
0000
1000
0000
,
0001
0100
0010
1000
0010
0100
0001
1000
,
1001
1010
0101
1100
,
0101
0001
0010
1000
0010
0001
1000
0001
,
1000
0010
0001
0010
1000
0001
1000
1000
,
0010
1000
1100
0000
0102
0000
0013
0000
,
2100
0000
3010
0000
0102
0000
0013
0100
,
0210
1300
0210
0301
,
0210
1300
0101
0000
,
0001
0010
1000
0010
0001
0100
0001
0010
,
0001
1000
0100
0010
0001
1000
0010
0001
,
0010
0100
0001
0010
0100
1000
0010
0100
,
0010
1000
0010
0001
0010
0100
0110
0000
,
0001
0010
0100
0010
0001
0100
0010
1000
,
0100
0010
0001
0010
1000
0010
0001
0100
,
0010
0100
1000
0100
0010
0100
0001
0100
,
1000
0001
0010
1000
0001
1000
1001
0000
,
1000
1000
0001
1100
0000
0101
0000
1000
,
0020
0000
0100
0100
0000
0001
0031
0000
,
0010
0010
0100
0010
0010
1000
1010
0000
,
1020
0000
0100
0100
0000
0001
0031
0010
,
1000
0000
0001
1000
0100
0100
0010
0001
,
0020
0000
0100
0100
0000
1000
1030
0000
,
0011
0000
0110
0000
1000
0100
1001
0000
,
1000
0000
0001
0000
1000
0000
0001
0000
1000
0001
1000
0001
1000
0001
1000
0002
,
2000
0000
0000
0000
,
0000
0000
0000
0000
,
3003
0000
0000
0000
;

//---------------dance-single - ----------------
#NOTES:
     dance-single:
     :
     Challenge:
     16:
     0.811903,0.907187,0.114381,0.121530,0.818541,795.000000,779.000000,16.000000,17.000000,0.000000,0.000000,0.811903,0.907187,0.114381,0.121530,0.818541,795.000000,779.000000,16.000000,17.000000,0.000000,0.000000:
// measure 0
0000
0000
0000
0000
,  // measure 1
0000
0000
0000
0000
,  // measure 2
0000
0000
0000
0000
,  // measure 3
0000
0000
0000
0000
,  // measure 4
0000
0000
0000
0000
,  // measure 5
0000
0001
0000
0001
,  // measure 6
1000
0000
0100
0001
0000
0100
1000
0000
,  // measure 7
0001
1000
0000
1000
,  // measure 8
0001
0000
0000
0000
0000
0000
0000
0000
0000
0000
0000
0000
0100
1000
0000
0100
,  // measure 9
1000
0000
0100
0000
0010
0000
0100
0000
0000
0000
1000
0000
0001
0100
0001
0000
,  // measure 10
0000
0000
0110
0000
0000
1000
0010
1000
0010
0000
0100
0000
0010
0000
1000
0000
,  // measure 11
0001
0000
0000
0000
0001
0010
0001
0000
1000
0000
0001
0000
0100
0001
0100
0001
,  // measure 12
0100
0000
0010
0000
1000
0010
1000
0010
1000
0000
0010
0000
0110
0000
0000
0000
,  // measure 13
0001
0000
0100
0000
0010
0100
0010
0000
0100
0000
0001
0000
0100
0010
0100
0000
,  // measure 14
0000
0000
0101
0000
0000
0001
0100
0001
0100
0000
0010
0000
0110
0000
0000
0000
,  // measure 15
1000
0000
0100
0000
0010
0001
0010
0000
0100
0000
0010
0000
0000
0001
0010
0001
,  // measure 16
0010
0000
0100
0000
0000
0010
0001
0010
0001
0000
1000
0000
1001
0000
0000
0000
,  // measure 17
0001
0000
0100
0000
0010
1000
0010
0000
0100
0000
0001
0000
0000
0000
0001
0000
,  // measure 18
1000
0002
0000
0000
0100
0000
0100
0000
0000
0000
0010
0000
0013
0001
0000
0010
,  // measure 19
0100
0000
0010
0000
0000
0001
0010
0001
1000
0000
0001
0000
1001
0000
0000
0000
,  // measure 20
0001
2000
0000
0000
0010
0000
0010
0000
0000
0000
0100
0000
3100
1000
0000
0100
,  // measure 21
0010
0000
0000
0000
0011
0000
0001
0000
1000
0001
1000
0001
1000
0010
1000
0010
,  // measure 22
2000
0000
0000
0000
0001
0000
0001
0000
0000
0000
0010
0000
3010
0000
1000
0010
,  // measure 23
0100
0000
0001
0000
0000
0100
0001
1000
0010
0000
1000
0000
1100
0000
0000
0000
,  // measure 24
0010
0100
0010
0100
0010
0100
0010
0100
0010
0100
0010
0100
0010
0100
0010
0200
,  // measure 25
0020
0000
0000
0000
,  // measure 26
0000
0000
0330
0000
,  // measure 27
0001
0000
0010
0001
0000
0010
0001
0000
0010
0000
0000
0100
0000
0000
0010
0000
,  // measure 28
0100
0000
1000
0100
0000
1000
0100
0000
1000
0000
0000
0001
0000
0000
1000
0000
,  // measure 29
0001
0000
0010
0001
0000
0010
0100
0000
0010
0000
0000
0001
0000
0000
0100
0000
,  // measure 30
0001
0000
1000
0010
0000
1000
0001
0000
1000
0000
0001
0000
0010
0000
0001
0000
,  // measure 31
1000
0000
0010
0100
0000
0010
1000
0000
0001
0000
0000
0010
0000
0000
0100
0000
,  // measure 32
1000
0000
0001
0100
0000
0010
1000
0000
0001
0000
0000
0010
0000
0000
0100
0000
,  // measure 33
1000
0000
0001
0010
0000
0001
0010
0000
0100
0000
1000
0100
0000
1000
0100
0000
,  // measure 34
1000
0000
0001
0010
0000
0100
1000
0000
0001
0000
0010
0001
0010
0001
0000
0001
,  // measure 35
0010
0000
0001
0000
0100
0000
0001
0000
0010
0001
0010
0001
0010
0001
0010
0001
,  // measure 36
0010
0000
0001
0000
0100
0000
0010
0000
1000
0100
1000
0100
1000
0100
1000
0100
,  // measure 37
1000
0000
0100
0000
0010
0000
0100
0000
1000
0100
1000
0100
1000
0100
1000
0100
,  // measure 38
1000
0000
0010
0000
0100
0000
0001
0000
1000
0010
1000
0010
1000
0010
1000
0010
,  // measure 39
1000
0000
0010
0100
0010
0000
1000
0010
1000
0000
0001
1000
0001
0000
1000
0100
,  // measure 40
1000
0000
0100
0010
0100
0000
0010
0001
0010
0000
0001
1000
0001
0000
0010
0001
,  // measure 41
1000
0000
0010
1000
0001
0000
0100
0001
1000
0000
0100
1000
0001
0000
1000
0100
,  // measure 42
0010
0000
0001
0000
0010
0000
0100
0000
0010
0001
0010
0001
0010
0001
0010
0001
,  // measure 43
0020
0000
0030
1001
,  // measure 44
1000
0000
0010
1000
0000
0001
0010
0000
0001
0000
0100
0001
0000
1000
0100
0000
,  // measure 45
1000
0000
0100
1000
0000
0001
0100
0000
0001
0000
1000
0100
0000
0010
0001
0010
,  // measure 46
0001
0000
0001
0010
0000
0010
0100
0000
1000
0000
1000
0100
0000
0100
0010
0000
,  // measure 47
0001
0000
0001
0010
0000
0010
0100
0000
1000
0000
0001
1000
0000
0010
1000
0010
,  // measure 48
1000
0000
0001
0010
0000
0100
0010
0000
0001
0000
0010
0100
0000
1000
0100
0000
,  // measure 49
1000
0000
0001
0100
0000
0001
1000
0000
0001
0000
1000
0010
0000
0100
0001
0100
,  // measure 50
0001
0000
0100
0010
0000
0010
1000
0000
0001
0000
0010
0100
0000
0100
1000
0000
,  // measure 51
0001
0000
0100
0010
0000
0010
1000
0000
0001
0000
0100
0010
1000
0000
0001
0000
,  // measure 52
1000
0000
0100
1000
0000
0100
0010
0000
0100
0000
1000
0100
0000
0010
0100
0010
,  // measure 53
0100
0000
1000
0001
0000
0100
0010
0000
1000
0000
0010
0100
0000
0001
0100
0001
,  // measure 54
0100
0000
0100
0010
0000
0010
1000
0000
0001
0000
0001
0100
0000
0100
0001
0100
,  // measure 55
0001
0000
1000
0100
0000
0100
0010
0000
0100
0000
0010
0001
0000
0001
0010
0001
,  // measure 56
0010
0000
0100
1000
0000
0100
0010
0000
0001
0000
1000
0010
0000
0100
0010
1000
,  // measure 57
0010
0000
1000
0100
0000
0010
0001
0000
1000
0000
0001
0100
0000
0010
1000
0010
,  // measure 58
0100
0000
0010
0100
0000
0010
0100
0000
0001
0000
0010
0100
0000
0010
0100
1000
,  // measure 59
0001
0000
0001
0100
0000
0100
1000
0000
0100
0000
1000
0100
0000
0100
0001
0000
,  // measure 60
1000
0001
0100
0001
1000
0001
0010
0001
,  // measure 61
1000
0010
0100
0001
1000
0100
0001
0100
,  // measure 62
1000
0001
1000
0010
1000
0001
1000
0100
,  // measure 63
1000
0010
0100
0001
1000
0010
0001
0010
,  // measure 64
2000
0000
0001
0000
3001
0000
0000
0000
1000
0200
0000
0000
0310
0000
0000
0000
,  // measure 65
1000
0200
0000
0000
0301
0000
0000
0000
1000
0200
0000
0000
1300
0000
0000
0000
,  // measure 66
1000
0100
0001
0100
1000
0001
0100
1000
,  // measure 67
0100
0000
0001
0000
1000
0000
0001
0000
1000
0000
0001
1000
0000
0001
1000
0000
,  // measure 68
0100
1000
0100
0001
0100
1000
0010
0100
,  // measure 69
0001
0010
0001
0100
0001
1000
0010
0100
,  // measure 70
0001
1000
0100
0001
0100
1000
0001
1000
,  // measure 71
0001
0100
1000
0100
0001
1000
0001
0001
,  // measure 72
0001
0000
0100
0000
1000
0000
0100
0000
0001
0200
0000
0000
1000
0000
1000
0000
,  // measure 73
1300
0000
0000
0000
1000
0200
0000
0000
0301
0000
0000
0000
1001
0000
0001
0000
,  // measure 74
1000
0020
0000
0000
0031
0000
0010
0000
0100
0020
0000
0000
0130
0000
0001
0000
,  // measure 75
1000
0200
0000
0000
0301
0000
0000
0000
1001
0000
0000
0000
0010
0100
0000
0100
,  // measure 76
1000
0000
0100
0000
0001
0000
0100
0000
1000
0100
1000
0000
0100
1000
0100
0000
,  // measure 77
0010
0000
0001
0000
0010
0000
0100
1000
0100
0000
0001
0000
0100
0000
1000
0000
,  // measure 78
0100
0000
1000
0000
0010
0100
0010
0000
1000
0000
0100
0000
0001
0000
0100
0010
,  // measure 79
0100
0000
1000
0000
0100
1000
0001
1000
0010
0000
0100
0000
0110
0000
0000
0000
,  // measure 80
0001
0000
0100
0000
0010
1000
0001
0000
0010
0001
1000
0000
0010
1000
0100
0000
,  // measure 81
1000
0010
0100
0000
0010
1000
0001
0100
0001
0000
1000
0000
1001
0000
0000
0000
,  // measure 82
0001
0000
0010
0000
1000
0000
0010
0000
0001
0010
0001
0000
0000
0010
0100
1000
,  // measure 83
0001
0000
0001
0000
0000
1000
0010
0100
0001
0000
1000
0000
1001
0000
0000
0000
,  // measure 84
0001
0000
0000
0000
0100
0000
0010
0000
1000
0100
1000
0100
1000
0100
1000
0100
,  // measure 85
1000
0000
0100
0000
0001
0000
0100
0000
1000
0000
0001
0000
1000
0001
0000
1000
,  // measure 86
0001
0000
0100
0000
0000
0010
1000
0100
1000
0000
0010
0000
1010
0000
0000
0000
,  // measure 87
0001
0000
0100
0000
1000
0000
0100
0000
0001
0000
1000
0000
0001
1000
0000
0001
,  // measure 88
1000
0000
0001
0000
0010
0000
1000
0000
0010
0100
0010
0100
0010
0100
0010
0100
,  // measure 89
1000
0000
0100
0000
0001
0000
0100
0000
1000
0000
0001
0000
1000
0000
0001
1000
,  // measure 90
0001
0000
1000
0000
0000
0100
0010
0001
1000
0000
0001
0000
1001
0000
0000
0000
,  // measure 91
0001
0010
0001
0010
0100
1000
0100
1000
0001
0010
0100
1000
0001
0010
0100
2000
,  // measure 92
0002
0000
0000
0000
,  // measure 93
0000
0000
0000
0000
,  // measure 94
3003
0000
0000
0000
;
