#TITLE:Shukufuku;
#SUBTITLE:;
#ARTIST:YOASOBI;
#TITLETRANSLIT:The Blessing;
#SUBTITLETRANSLIT:;
#ARTISTTRANSLIT:;
#GENRE:;
#CREDIT:;
#BANNER:banner.png;
#BACKGROUND:bg.png;
#LYRICSPATH:;
#CDTITLE:;
#MUSIC:Shukufuku.ogg;
#OFFSET:0.840000;
#SAMPLESTART:50.526966;
#SAMPLELENGTH:16.941181;
#SELECTABLE:YES;
#BPMS:0.000000=170.000000
;
#STOPS:
;
#BGCHANGES:0.840=Shukufuku.mp4=1.000=0=0=0=StretchNoLoop====,
99999=-nosongbg-=1.000=0=0=0 // don't automatically add -songbackground-
;
#KEYSOUNDS:;
#ATTACKS:;

//---------------dance-single - XO FS-----------------
#NOTES:
     dance-single:
     :
     Challenge:
     14:
     0.723857,0.778769,0.191420,0.653080,0.320910,450.000000,433.000000,17.000000,58.000000,4.000000,0.000000,0.723857,0.778769,0.191420,0.653080,0.320910,450.000000,433.000000,17.000000,58.000000,4.000000,0.000000:
0000
0000
0000
0000
,
0000
0000
0000
0000
,
0000
0000
0000
0000
,
0000
0000
0000
0000
,
0000
0000
0000
0000
0000
0001
0010
0100
,
1000
0100
0001
0200
0000
0310
0001
2000
,
0000
3010
1000
0200
0000
0310
0001
1000
,
0010
0100
0001
2000
0000
3010
0001
0020
,
0000
0130
0001
2000
0000
3001
0010
0100
,
1000
0000
0001
0000
0010
0000
0100
1000
0100
0000
1000
0001
0100
0001
0020
0000
,
0000
0130
1000
0002
0000
0103
0010
1000
,
0001
0000
1000
0000
0010
0000
0100
0001
0100
0000
0001
1000
0100
1000
0020
0000
,
0000
0000
0000
0000
0230
0000
0000
0000
0301
0000
0000
0000
1000
0001
1000
0001
,
2000
0000
0000
3100
0020
0000
0000
0130
,
2000
3002
0203
0320
,
2030
0000
0000
3200
0000
0000
0000
0310
,
0001
0000
0100
0000
0001
0000
1000
0000
0200
0000
0000
0320
0000
0000
0031
0000
,
0200
0302
0203
2300
,
3200
0320
2030
3002
,
0023
0000
0000
0130
1000
0000
0010
1000
,
0001
0000
0010
0000
0001
0000
0010
0000
0100
1000
0100
1000
0001
0100
0001
0100
,
0001
1000
0100
1000
0010
1000
0001
0010
,
0001
0100
0001
1000
0100
0010
0001
1000
,
0010
0000
1000
0000
0100
0000
0001
0000
0100
0000
0010
0000
0001
0000
1000
0010
,
1000
0000
0001
0000
0100
0000
0001
0010
0002
0000
0000
0000
2003
0000
0000
0000
,
3010
0100
0001
0100
0010
1000
0100
1000
,
0001
0010
0100
1000
0002
0000
0000
1003
,
0010
0000
1000
0000
0001
0010
0100
0010
0001
0000
1000
0000
0100
0000
1100
0000
,
0000
0000
0001
0000
0100
0000
0010
1000
0010
0000
0100
0000
0001
0000
1000
0100
,
1000
0001
0010
0011
0000
1000
0100
1100
,
0000
0001
0100
0101
0000
1000
0010
1010
,
0000
0001
0010
1100
0000
0001
0100
1010
,
0000
0000
0010
0000
0100
0000
1001
0000
0000
0000
1000
0000
0010
0000
0100
0001
,
1000
0000
0001
0010
0001
0000
0011
0000
0000
0000
1000
0100
1000
0000
1100
0000
,
0000
0000
0001
0100
0001
0000
0101
0000
0000
0000
1000
0010
1000
0000
0002
0000
,
0000
0013
0200
0000
1300
0010
0100
0110
,
0000
0001
1001
1000
0100
1000
0001
0100
,
0110
0000
0000
0000
0001
0010
0001
0000
1000
0000
0010
0000
1000
0000
0100
0000
,
0000
0000
0010
0000
0001
0000
1000
0010
1000
0000
0001
0100
0001
0000
1000
0100
,
1000
0000
0010
0000
0100
0001
0100
0000
0001
0000
0010
0000
0001
0000
0100
0000
,
0000
0000
0001
0000
0010
0000
0100
0000
1000
0001
1000
0001
1000
0000
0010
0000
,
0100
0000
0001
0000
0010
0001
0010
0000
0100
0000
1000
0000
0001
0100
0002
0000
,
0000
0010
0000
1003
0001
0100
0010
0100
,
2000
0000
3100
0002
0000
1003
0100
0010
,
0001
0000
0100
0000
0001
0000
1000
0010
1000
0000
0001
0010
0001
0000
1000
0100
,
1000
0000
0001
0000
0100
0010
0100
0000
0001
0000
1000
0000
0100
0000
0010
0000
,
0000
0001
0100
0001
1000
0100
0010
0001
,
2000
3020
0230
2300
,
3200
0302
2003
3200
,
0310
0000
0001
0000
0100
0000
0001
1000
0001
0000
0010
0000
0100
0000
1000
0001
,
1000
0010
0100
0001
0010
0001
1000
0010
,
2000
0100
3002
0100
,
0013
0000
0100
0000
1000
0000
0001
0100
0001
0000
0010
0000
0001
0000
1000
0000
,
0020
0000
0230
0000
0302
0000
1003
0100
,
1100
0001
0100
0001
0101
1000
0100
0010
,
0100
0000
1000
0000
0010
0000
0100
0001
0100
00M0
0100
1000
0100
0010
0002
0000
,
0000
1003
0010
0200
0000
0301
1000
0001
,
0100
0000
0001
0000
0010
0000
0100
1000
0100
00M0
0100
0001
0100
0010
2000
0000
,
0000
0000
3001
0000
0010
0000
0200
0000
0000
0000
1300
0000
0001
0000
1000
0010
,
0100
0000
0001
0000
0010
0000
0100
1000
0100
00M0
0100
0001
0100
0010
2000
0000
,
0000
3001
0010
0200
0000
1300
0001
1000
,
0100
0000
1000
0000
0010
0000
0100
0001
0100
00M0
0100
1000
0100
0010
0002
0000
,
0000
1003
0100
2100
0000
3001
0100
0010
;

//---------------dance-single - ----------------
#NOTES:
     dance-single:
     :
     Hard:
     12:
     0.572651,0.637175,0.045040,0.720640,0.078820,356.000000,352.000000,4.000000,64.000000,0.000000,0.000000,0.572651,0.637175,0.045040,0.720640,0.078820,356.000000,352.000000,4.000000,64.000000,0.000000,0.000000:
0000
0000
0000
0000
,
0000
0000
0000
0000
,
0000
0000
0000
0000
,
0000
0000
0000
0000
,
0000
0000
0000
0000
0000
1000
0100
0010
,
0001
0100
0001
1000
0000
0010
0100
0001
,
0000
0010
0100
1000
0000
0001
0100
0001
,
0010
0100
1000
0001
0000
0100
0010
1000
,
0000
0001
0010
0001
0000
1000
0010
0100
,
0001
0000
1000
0000
0100
0000
0010
0001
0010
0000
0001
0010
0001
0000
2000
0000
,
0000
3010
0100
0002
0000
0013
0100
0000
,
1000
0000
0001
0000
0100
0000
0010
1000
0010
0000
1000
0010
1000
0000
0002
0000
,
0000
0023
0130
0000
,
2000
0000
0000
3001
0200
0000
0000
0310
,
2000
3002
0023
0230
,
2300
0000
0000
3002
0000
0000
0000
0103
,
0010
0000
1000
0000
0010
0000
1000
0000
0002
0000
0000
0023
0000
0000
0130
0000
,
2000
3020
2030
3002
,
0023
0230
2300
3002
,
0203
0000
0000
0310
2000
0000
3001
0010
,
0100
1000
0100
1000
0001
0100
0001
0100
,
0020
0000
1030
0100
2000
0000
3001
0100
,
0002
0023
0230
2300
,
3020
0000
0000
1030
0002
0000
0000
0000
,
0013
0000
0100
1000
0002
0000
0203
0000
,
0320
2030
3200
2300
,
3002
0000
0203
0000
0302
0000
0000
0013
,
0200
0000
0000
1300
0001
0100
0010
1000
,
0000
0001
0010
0001
0100
0001
1000
0100
,
1000
0001
0100
1000
0000
0001
0010
1000
,
0000
0001
0010
1000
0000
0001
0100
1000
,
0000
0001
0100
1000
0000
0001
0010
1000
,
0000
0001
0010
0100
0000
1000
0010
1000
,
0001
1000
0100
0001
0000
1000
0010
0001
,
0000
1000
0010
0001
0000
1000
0100
0001
,
0000
1000
0100
1000
0001
0100
0010
1000
,
0000
0001
1000
0100
0010
0100
1000
0100
,
0020
0000
0031
0100
0001
1000
0100
0010
,
0000
0001
0100
0001
1000
0100
0010
0100
,
1000
0000
0001
0100
0010
1000
0100
1000
,
0001
0100
0010
0000
1000
0100
1000
0010
,
0100
0000
0001
0010
0001
1000
0010
0100
,
0001
1000
0000
0100
0010
0001
0010
0100
,
2000
0000
3001
0100
0000
0001
0010
0100
,
1000
0000
0001
0000
1000
0000
0010
0000
0100
0000
0001
1000
0001
0000
0010
0000
,
0100
1000
0010
1000
0000
0001
0010
0100
,
0000
1000
0010
1000
0001
0100
0010
1000
,
0200
0320
0032
2003
,
3020
2030
3200
0320
,
0031
0101
1000
1100
,
0010
0110
0001
1001
,
2000
0000
3020
0000
,
0230
0000
0302
0000
,
1003
0100
0010
0000
0001
0100
0010
1000
,
0000
0001
0010
0001
0100
0010
1000
0001
,
1000
0000
0100
0000
1000
0000
0001
0100
0001
0000
0100
0001
0100
0000
0020
0000
,
0000
1030
0001
0020
0000
0130
1000
0000
,
0001
0000
0100
0000
0001
0000
1000
0100
1000
0000
0100
1000
0100
0000
0020
0000
,
0000
0031
1000
0020
0000
0130
0001
0000
,
1000
0000
0010
0000
1000
0000
0001
0010
0001
0000
0010
0001
0010
0000
0200
0000
,
0000
1300
0001
0200
0000
0310
1000
0000
,
0001
0000
0010
0000
0001
0000
1000
0010
1000
0000
0010
1000
0010
0000
0200
0000
,
0000
0301
1000
0200
0000
0310
0001
1000
;

//---------------dance-single - ----------------
#NOTES:
     dance-single:
     :
     Medium:
     9:
     0.439140,0.530979,0.000000,0.889539,0.000000,273.000000,273.000000,0.000000,79.000000,0.000000,0.000000,0.439140,0.530979,0.000000,0.889539,0.000000,273.000000,273.000000,0.000000,79.000000,0.000000,0.000000:
// measure 0
0000
0000
0000
0000
,  // measure 1
0000
0000
0000
0000
,  // measure 2
0000
0000
0000
0000
,  // measure 3
0000
0000
0000
0000
,  // measure 4
0000
0000
0000
0000
0000
1000
0002
0000
,  // measure 5
0103
0000
0010
1000
0000
0100
1000
0100
,  // measure 6
0000
0010
0001
0010
0000
0001
1000
0000
,  // measure 7
0010
0000
0100
0001
0000
1000
0100
2000
,  // measure 8
0000
0000
0000
0000
,  // measure 9
3001
0100
0001
0000
1000
0000
0001
0010
,  // measure 10
0000
0001
0100
0001
0000
1000
0010
0000
,  // measure 11
1000
0100
1000
0000
0001
0000
1000
0020
,  // measure 12
0000
0230
0302
0000
,  // measure 13
2003
0000
3200
0000
,  // measure 14
0320
0032
2003
3020
,  // measure 15
0230
0000
0000
0302
0000
0000
0000
0000
,  // measure 16
1003
0000
0100
0010
0002
0000
1003
0010
,  // measure 17
0200
0302
2003
3200
,  // measure 18
0320
0230
2300
3002
,  // measure 19
0203
0000
0000
0000
0320
0000
0130
0001
,  // measure 20
1000
0100
1000
0100
0010
0001
0010
0001
,  // measure 21
2000
0000
3001
0100
0002
0000
1003
0100
,  // measure 22
2000
3200
0320
0032
,  // measure 23
2003
0000
3010
0100
0020
0000
2030
0000
,  // measure 24
3002
0023
0230
2300
,  // measure 25
3020
2030
3002
0023
,  // measure 26
0230
2300
3002
0000
,  // measure 27
1003
0010
1000
0010
0100
0001
0100
0001
,  // measure 28
0000
2000
3200
0320
,  // measure 29
0031
0000
1000
0100
0000
1000
0010
1000
,  // measure 30
0000
0001
0010
0001
0000
0100
0001
0100
,  // measure 31
0000
0010
1000
0010
0000
1000
0100
1000
,  // measure 32
0000
0001
0010
0001
0000
0000
2000
0000
,  // measure 33
3001
0000
1000
0010
0000
1000
0100
1000
,  // measure 34
0000
0001
0100
0001
0000
0010
0001
0010
,  // measure 35
0000
0000
0200
0000
1300
0000
0001
1000
,  // measure 36
0000
0001
1000
0000
0020
0000
0230
0000
,  // measure 37
0302
0000
0013
0001
0000
0100
0001
0000
,  // measure 38
1000
0000
0100
0010
0100
0000
1000
0000
,  // measure 39
0001
0000
1000
0010
0000
1000
0100
0000
,  // measure 40
0010
0000
0001
0000
0100
0010
0100
0000
,  // measure 41
0001
0000
1000
0100
0000
1000
0001
0000
,  // measure 42
0100
0000
0010
1000
0010
0000
0200
0000
,  // measure 43
0302
2003
3200
0320
,  // measure 44
0032
0000
1003
0000
0010
0100
0010
0000
,  // measure 45
1000
0000
0001
0010
0000
0001
0100
0000
,  // measure 46
0010
0000
1000
0001
1000
0000
0100
0000
,  // measure 47
0020
0032
0203
0302
,  // measure 48
2003
3200
0320
0032
,  // measure 49
2003
3020
0230
0302
,  // measure 50
0023
0032
2003
3020
,  // measure 51
0230
0000
0302
0000
,  // measure 52
2003
0000
3200
0000
,  // measure 53
0310
0000
0001
0000
1000
0000
0001
0100
,  // measure 54
0000
0001
1000
0000
0200
0000
0000
0000
,  // measure 55
0310
0001
0010
0000
0100
0000
1000
0010
,  // measure 56
0000
1000
0001
1000
0000
0001
0010
0000
,  // measure 57
0100
1000
0100
0000
0010
0000
0001
0100
,  // measure 58
0000
0001
1000
0001
0000
1000
0010
0000
,  // measure 59
0100
0001
0100
0000
0010
0000
1000
0100
,  // measure 60
0000
1000
0001
1000
0000
0001
0100
0000
,  // measure 61
0010
1000
0010
0000
0100
0000
0001
0010
,  // measure 62
0000
0001
1000
0001
0000
1000
0010
1000
;
