#VERSION:0.83;
#TITLE:The Alphabeat;
#SUBTITLE:;
#ARTIST:David Guetta;
#TITLETRANSLIT:;
#SUBTITLETRANSLIT:;
#ARTISTTRANSLIT:;
#GENRE:;
#ORIGIN:;
#CREDIT:;
#BANNER:The Alphabeat.png;
#BACKGROUND:The Alphabeat-bg.png;
#PREVIEWVID:;
#JACKET:The Alphabeat-jacket.png;
#CDIMAGE:;
#DISCIMAGE:;
#LYRICSPATH:;
#CDTITLE:cdtitle.png;
#MUSIC:The Alphabeat.ogg;
#OFFSET:-0.026000;
#SAMPLESTART:25.612000;
#SAMPLELENGTH:15.620000;
#SELECTABLE:YES;
#BPMS:0.000=122.000;
#STOPS:50.000=0.500,
146.000=0.491;
#DELAYS:;
#WARPS:;
#TIMESIGNATURES:0.000=4=4;
#TICKCOUNTS:0.000=4;
#COMBOS:0.000=1;
#SPEEDS:0.000=1.000=0.000=0;
#SCROLLS:0.000=1.000;
#FAKES:;
#LABELS:0.000=Song Start;
#BGCHANGES:;
#KEYSOUNDS:;
#ATTACKS:
;

//---------------dance-single - XO FS-----------------
#NOTEDATA:;
#CHARTNAME:;
#STEPSTYPE:dance-single;
#DESCRIPTION:XO FS-;
#CHARTSTYLE:;
#DIFFICULTY:Challenge;
#METER:15;
#RADARVALUES:0.774417,0.701531,0.428207,0.245991,0.687864,595.000000,548.000000,47.000000,27.000000,13.000000,0.000000,0.000000,0.000000,0.000000,0.774417,0.701531,0.428207,0.245991,0.687864,595.000000,548.000000,47.000000,27.000000,13.000000,0.000000,0.000000,0.000000,0.000000;
#CREDIT:Pilgrimsito;
#NOTES:
// measure 0
0000
0000
0000
0000
,  // measure 1
0000
0000
0000
0000
,  // measure 2
0000
0000
0000
0000
2000
0000
3001
0010
0001
0000
2000
0000
3001
0100
0001
0000
,  // measure 3
2000
0000
3100
0010
0100
0000
2000
0000
3001
0010
0001
0000
2000
0000
3001
0100
,  // measure 4
0001
0000
2000
0000
3100
0010
0100
0000
2000
0000
3001
0010
0001
0000
2000
0000
,  // measure 5
3001
0100
0001
0000
2000
0000
3001
0010
0100
0000
0100
0010
0001
0000
0001
1000
,  // measure 6
0010
0000
0200
0000
0310
1000
0010
0000
2000
0000
3001
0010
0001
0000
2000
0000
,  // measure 7
3001
0100
0001
0000
2000
0000
3001
1000
0100
0000
0100
1000
0001
0000
0001
0010
,  // measure 8
0100
0000
2000
0000
3100
0010
0100
0000
2000
0000
3001
0100
0001
0000
2000
0000
,  // measure 9
3001
0010
0001
0000
2000
0000
3001
1000
0010
0000
0010
1000
0001
0000
0001
0100
,  // measure 10
0010
0000
2000
0000
3010
0100
0010
0000
2000
0000
3001
0100
0001
0000
2000
0000
,  // measure 11
3001
0010
0001
0000
2000
0000
3001
0100
0010
0000
0010
0100
0001
0000
0001
1000
,  // measure 12
0100
0000
0020
0000
0031
1000
0001
0000
M200
0300
0000
0000
0011
0000
0001
0100
,  // measure 13
0010
0000
0100
0000
0001
0010
0100
0000
0110
0000
0010
0001
1000
0000
1000
0001
,  // measure 14
0010
0000
0010
0100
1000
0000
0001
0000
1000
0010
1000
0000
1100
0000
0100
1000
,  // measure 15
0001
0000
0100
0000
0001
1000
0100
0000
0110
0000
0010
0001
0100
0000
0100
0001
,  // measure 16
0010
0000
0100
0000
1000
0100
0001
0000
0001
0100
1000
0000
1100
0000
1000
0010
,  // measure 17
0100
0000
0010
0000
1000
0100
0010
0000
0110
0000
0100
1000
0001
0000
0001
1000
,  // measure 18
0100
0000
0100
0010
0001
0000
1000
0000
0001
0100
0001
0000
0011
0000
0010
0001
,  // measure 19
1000
0000
0010
0000
1000
0001
0010
0000
0110
0000
0100
1000
0001
0000
1000
0100
,  // measure 20
0010
0100
1000
0000
1000
0010
0001
0000
0001
0010
1000
0000
1001
0000
1000
0100
,  // measure 21
0010
0000
1000
0000
0010
0100
1000
0000
0110
0000
0001
1000
0010
0000
0100
0001
,  // measure 22
0010
0000
0100
1000
0010
0000
0100
0000
0001
0010
0001
0000
1001
0000
0001
0100
,  // measure 23
0010
0000
0001
0000
0010
0100
0001
0000
0110
0000
1000
0001
0010
0000
0001
1000
,  // measure 24
0010
0000
0100
0000
0001
0010
1000
0000
0001
0100
1000
0000
1001
0000
0001
0010
,  // measure 25
0100
0000
0001
0000
0100
0010
0001
0000
0110
0000
1000
0001
0100
0000
0010
1000
,  // measure 26
0100
0000
0010
0001
0100
0000
0010
0000
1000
0100
1000
0000
1001
0000
1000
0010
,  // measure 27
0100
0000
1000
0000
0100
0010
1000
0000
0110
0000
0001
1000
0100
0000
1000
0010
,  // measure 28
0100
0010
1000
0000
1000
0100
0001
0000
1000
0010
0001
0000
0101
0000
0001
1000
,  // measure 29
0100
0000
1100
0000
1000
0001
0100
0000
0100
0001
0010
0000
0110
0000
0100
1000
,  // measure 30
0010
0000
1010
0000
1000
0100
0010
0000
0110
0000
0100
1000
0001
0000
0001
1000
,  // measure 31
0100
0000
0110
0000
0010
0001
1000
0000
1010
0000
0010
0000
0110
0000
0001
0010
,  // measure 32
1000
0000
1000
0010
0001
0000
0100
0000
0001
1000
0001
1000
0001
0000
1000
0001
,  // measure 33
0010
0000
0011
0000
0001
1000
0010
0000
0010
1000
0100
0000
0110
0000
0010
0001
,  // measure 34
0100
0000
0101
0000
0001
0010
0100
0000
0110
0000
0010
0001
1000
0000
1000
0001
,  // measure 35
0010
0000
0110
0000
0100
1000
0001
0000
0101
0000
0100
0000
0002
0000
0000
0000
,  // measure 36
0000
0000
0000
0000
0000
0000
0000
0000
0000
0000
0000
0000
0000
0000
2000
0000
0000
0000
0000
0000
0000
0000
0000
0000
0000
0000
0000
0000
0000
0000
0000
0000
0000
0000
0000
0000
0000
0000
0000
0000
0000
0000
0000
0000
0000
0000
0000
0000
0000
0000
0000
0000
0000
0000
0000
0000
0000
0000
0000
0000
0000
0000
0000
0000
0000
0000
0000
0000
0000
0000
0000
0000
0000
0000
0000
0000
0000
0000
0000
0000
0000
0000
0000
0000
0000
0000
0000
0000
0000
0000
0000
0000
0000
0000
0000
0000
3003
0000
0000
0000
0000
0000
0000
0000
0000
0000
0000
0000
0000
0000
0000
0000
0000
0000
0000
0000
0000
0000
0000
0000
0000
0000
0000
0000
0000
0000
0000
0000
0000
0000
0000
0000
0000
0000
0000
0000
0000
0000
0000
0000
0000
0000
0000
0000
0101
0000
0000
0000
0000
0000
0000
0000
0000
0000
0000
0000
0000
0000
0000
0000
0000
0000
0000
0000
0000
0000
0000
0000
1000
0000
0000
0000
0000
0000
0000
0000
0000
0000
0000
0000
0001
0000
0000
0000
0000
0000
0000
0000
0000
0000
0000
0000
,  // measure 37
0100
0000
0010
0000
0100
0001
1000
0000
0011
0000
0010
0001
0100
0000
010M
1000
,  // measure 38
0010
0000
M010
0001
0100
0000
0001
0000
0010
0100
0010
0000
0011
0000
0001
0100
,  // measure 39
1000
0000
0100
0000
0001
0010
1000
0000
0110
0000
0010
0001
0100
0000
0010
1000
,  // measure 40
0100
0000
0010
0000
0100
1000
0100
0000
M100
0001
0100
0000
1001
0000
1000
0100
,  // measure 41
0010
0000
1000
0000
0010
0100
1000
0000
1100
0000
0100
1000
0010
0000
M010
0001
,  // measure 42
0100
0000
010M
1000
0010
0000
1000
0000
0100
0010
0100
0000
1001
0000
0001
0100
,  // measure 43
0010
0000
0001
0000
0010
0100
0001
0000
0011
0000
0001
1000
0100
0000
1000
0010
,  // measure 44
0100
0010
1000
0000
0010
1000
0010
0000
M010
0001
0010
0000
0011
0000
1000
0001
,  // measure 45
0010
0000
0100
0000
0010
0001
1000
0000
0101
0000
0100
0001
0010
0000
001M
1000
,  // measure 46
0100
0000
M100
0001
0010
0000
0001
0000
0100
0010
0100
0000
0101
0000
0001
0010
,  // measure 47
1000
0000
0010
0000
0001
0100
1000
0000
0110
0000
0100
0001
0010
0000
0100
1000
,  // measure 48
0010
0000
0100
0000
0010
1000
0010
0000
M010
0001
0010
0000
1001
0000
1000
0010
,  // measure 49
0100
0000
1000
0000
0100
0010
1000
0000
1010
0000
0010
1000
0100
0000
M100
0001
,  // measure 50
0010
0000
001M
1000
0100
0000
1000
0000
0010
0100
0010
0000
1001
0000
0001
0010
,  // measure 51
0100
0000
0001
0000
0100
0010
0001
0000
0101
0000
0001
1000
0010
0000
1000
0100
,  // measure 52
0010
0100
1000
0000
0100
1000
0100
0000
M100
0001
0100
0000
0220
0000
0000
0000
,  // measure 53
0000
0000
0000
0000
,  // measure 54
0000
0000
0000
0000
,  // measure 55
0330
0000
0000
0000
;
