#TITLE:Supercar;
#SUBTITLE:;
#ARTIST:Max Coveri;
#TITLETRANSLIT:;
#SUBTITLETRANSLIT:;
#ARTISTTRANSLIT:;
#CREDIT:;
#BANNER:Supercar.png;
#BACKGROUND:Supercar-bg.png;
#LYRICSPATH:;
#CDTITLE:;
#MUSIC:Supercar.ogg;
#OFFSET:-0.014;
#SAMPLESTART:40.969;
#SAMPLELENGTH:12.000;
#SELECTABLE:YES;
#BPMS:0.000=158.000;
#STOPS:;
#BGCHANGES:;

//---------------dance-single - ----------------
#NOTES:
     dance-single:
     :
     Challenge:
     17:
     0.905,1.000,0.524,0.010,0.729: // measure 1
0000
0000
0000
0000
,  // measure 2
0000
0000
0000
0000
,  // measure 3
0000
0000
0000
0000
,  // measure 4
1000
0010
1000
0000
0001
0010
0001
1000
0010
0100
0001
1000
0100
0010
0100
1000
,  // measure 5
0001
0001
0100
0010
0100
0001
1000
0100
0010
0100
1000
0001
0100
0010
1000
0001
,  // measure 6
0010
0100
0010
1000
0010
0100
1000
0001
0100
0010
1000
0001
0100
0010
0100
0001
,  // measure 7
1000
0000
0000
0100
0000
0000
0010
0000
0000
0100
0000
0000
0001
0000
0000
0100
0000
0000
0010
0000
0000
0100
0000
0000
1000
0000
0000
0010
0000
0000
0100
0000
0000
0001
0000
0000
1000
0000
0001
0000
1000
0000
0001
0000
0000
0000
0000
0000
,  // measure 8
1000
0010
1000
0000
0001
0010
0001
1000
0010
0100
0001
1000
0100
0010
0100
1000
,  // measure 9
0001
0100
0010
0100
1000
0100
0010
0100
0001
1000
0100
0010
0100
1000
0100
0010
,  // measure 10
0001
1000
0010
1000
0001
0010
0100
1000
0001
0100
0010
0100
1000
0100
0001
1000
,  // measure 11
0001
0000
0000
0010
0000
0000
0100
0000
0000
0010
0000
0000
1000
0000
0000
0010
0000
0000
0100
0000
0000
0010
0000
0000
0001
0000
0000
1000
0000
0000
0010
0000
0000
0100
0000
0000
0001
0000
1000
0000
0001
0000
1000
0000
0000
0000
0000
0000
,  // measure 12
0001
0100
0010
1000
0100
0010
0011
0000
,  // measure 13
0001
1000
0010
0100
0001
0010
0110
0100
,  // measure 14
1000
0100
0001
0100
0010
0001
1000
0010
,  // measure 15
0100
0001
0000
0001
0010
0000
0010
0100
0000
0100
1000
0000
0010
0100
0001
1000
,  // measure 16
0100
0001
1000
0010
0001
0100
1100
0000
,  // measure 17
0100
0010
1000
0001
0010
0100
1001
1000
,  // measure 18
0001
0100
0010
1000
0100
0001
0100
0010
,  // measure 19
0001
0100
0000
0100
1000
0000
0001
0010
0000
0010
1000
0001
1000
0100
0001
0100
,  // measure 20
0010
0001
1000
0001
0100
0010
1000
1100
,  // measure 21
0000
0010
0001
1000
0010
0100
0001
0010
,  // measure 22
1000
0010
0100
1000
0001
0100
0010
0100
,  // measure 23
0001
0010
0000
0010
1000
0000
0001
0100
0000
0100
1000
0001
0100
0010
0100
1000
,  // measure 24
0100
0001
1000
1100
0000
0010
0001
0100
,  // measure 25
0010
0100
0001
0010
0100
1000
0010
0100
,  // measure 26
1000
0100
0001
0100
1000
0001
0010
1000
,  // measure 27
0001
0010
0001
1000
0010
0100
0001
1000
0100
0001
0100
0010
0001
1000
0010
0100
,  // measure 28
0001
0010
0100
1100
0000
1000
0001
0100
,  // measure 29
0010
1000
0100
1100
0000
0000
0001
0010
,  // measure 30
0011
0100
1000
0001
0000
0100
0010
0110
,  // measure 31
0000
0010
1000
0100
0110
0010
0011
0001
,  // measure 32
0101
0100
0010
1010
0000
1000
0100
0010
,  // measure 33
0001
0100
0010
0110
0000
0000
0010
1000
,  // measure 34
1001
0001
0010
1000
0000
0010
0100
0001
,  // measure 35
0100
0001
0100
0010
0100
1000
0001
1000
0010
0000
0010
0000
0011
0000
0010
0000
,  // measure 36
0110
0000
0100
0001
1000
0000
0100
0000
0010
0000
0001
0000
0100
0000
0010
0000
,  // measure 37
1010
0000
0001
0010
0100
0000
1000
0000
0001
0000
0100
0000
0010
0000
1000
0000
,  // measure 38
1001
0001
0100
0010
0000
1000
0100
0010
,  // measure 39
1000
0010
0100
0000
1000
0001
0100
0000
0010
0100
0001
0000
1000
0100
0010
0000
,  // measure 40
0011
0000
0001
0100
0010
0000
1000
0000
0100
0000
0010
0000
0001
0000
1000
0000
,  // measure 41
1010
0000
0010
0100
0001
0000
1000
0000
0100
0000
0010
0000
0100
0000
1000
0000
,  // measure 42
1010
0010
0100
0001
0010
0100
0001
0100
,  // measure 43
0101
0000
0000
0000
1100
1000
1010
0010
,  // measure 44
0011
0000
0010
0000
1000
0000
0001
0000
0100
0010
0100
0000
1000
0000
0100
0000
,  // measure 45
0001
0000
0010
0001
0000
1000
0010
0000
0100
0000
0001
1000
0100
1000
0001
0000
,  // measure 46
0001
0010
0001
0000
0100
0000
0010
1000
0010
0000
0010
0000
0100
0000
0001
0000
,  // measure 47
1000
0100
1000
0000
0001
0000
0101
0000
0000
0000
0110
0000
1010
0000
1000
0000
,  // measure 48
0100
0000
0010
0000
0100
1000
0010
1000
0100
1000
0010
1000
0100
0010
0001
1000
,  // measure 49
0010
0100
0001
0010
0100
0010
0001
0100
0010
0100
0001
0010
0100
1000
0001
0100
,  // measure 50
0010
0000
1000
0100
0000
0000
0000
0110
0000
0100
1000
0000
0100
0000
0010
0000
,  // measure 51
0001
1000
0001
0100
1000
0100
0010
0000
1010
0000
1000
0000
1100
0000
1000
0000
,  // measure 52
1002
0000
0103
0000
1000
0000
0001
0000
0010
1000
0100
0000
0010
0000
0100
0000
,  // measure 53
1000
0000
0010
0100
0000
0100
0001
0000
0000
0000
0001
0010
0001
0100
0001
0000
,  // measure 54
0001
0010
1000
0000
0010
0000
0100
1000
0010
0000
1000
0000
0001
0000
0100
0000
,  // measure 55
1000
0100
0010
0000
1000
0000
1100
0000
0000
0000
0110
0000
0011
0000
0001
0000
,  // measure 56
0101
0000
0100
0000
1000
0100
0001
0100
1000
0100
0001
0100
1000
0100
0010
0100
,  // measure 57
0001
1000
0100
0010
0100
1000
0001
0100
0010
0100
0001
0010
1000
0010
0100
1000
,  // measure 58
0001
0000
0100
0010
0000
0000
1000
0000
1100
0000
0100
0000
0010
0000
0001
0000
,  // measure 59
0101
0000
0000
0000
0110
1010
1100
0110
,  // measure 60
0011
0000
0001
0100
0000
0000
0100
0010
,  // measure 61
1010
0000
1000
0100
0000
0000
0100
0010
,  // measure 62
0011
0001
0100
0010
0000
1000
0000
0100
,  // measure 63
0000
0010
0100
1000
1001
0000
0101
0000
,  // measure 64
0110
0000
0010
1000
0000
0000
1000
0100
,  // measure 65
0110
0000
0010
0100
0000
0000
1000
0001
,  // measure 66
0101
0100
0010
1000
0000
0100
0000
0010
,  // measure 67
0000
0100
1000
0010
1010
0000
0110
0000
,  // measure 68
0101
0000
0000
0000
;

//---------------dance-single - ----------------
#NOTES:
     dance-single:
     :
     Hard:
     14:
     0.736,0.734,0.314,0.000,0.391: // measure 1
0000
0000
0000
0000
,  // measure 2
0000
0000
0000
0000
,  // measure 3
0000
0000
0000
0000
,  // measure 4
1000
0010
1000
0000
0001
0000
0010
0000
0100
0000
1000
0000
0001
0000
0100
0000
,  // measure 5
0010
0000
1000
0100
0000
0010
0100
0000
1000
0010
0000
0100
0010
0000
1000
0000
,  // measure 6
0001
0010
0001
0000
1000
0000
0010
0000
0100
0000
0001
0000
1000
0000
0010
0000
,  // measure 7
1000
0100
0000
0001
0100
0000
1000
0100
0000
0001
0100
0000
1000
0010
0100
0000
,  // measure 8
0001
0010
0001
0000
1000
0000
0010
0000
0100
0000
0001
0000
1000
0000
0001
0000
,  // measure 9
0010
0100
0000
0010
0001
0000
0100
0010
0000
0100
0001
0000
1000
0000
0001
0000
,  // measure 10
0010
0001
0010
0000
0100
0000
1000
0000
0001
0000
0100
0000
0010
0000
1000
0000
,  // measure 11
0100
0001
0000
0100
1000
0000
0100
0001
0000
0000
0100
1000
0001
0000
0000
0000
,  // measure 12
0001
0100
0010
0100
0001
1000
0001
0000
,  // measure 13
0001
0010
0100
1000
0001
1000
0010
0000
,  // measure 14
0010
1000
0100
0010
0100
1000
0001
0100
,  // measure 15
0010
1000
0000
1000
0100
0000
0010
0001
0000
0001
0100
0000
0010
0000
0010
0000
,  // measure 16
1000
0100
0001
1000
0010
0001
1000
0000
,  // measure 17
1000
0010
0100
1000
0100
0001
1000
0000
,  // measure 18
0100
0010
0001
1000
0010
0100
0001
0010
,  // measure 19
0100
1000
0000
1000
0010
0000
0100
0001
0000
0001
0010
0001
1000
0001
1000
0001
,  // measure 20
0100
0001
1000
0001
0010
0100
1000
0010
,  // measure 21
0000
0010
0100
0001
1000
0100
0010
0100
,  // measure 22
1000
0010
1000
0001
1000
0100
1000
0010
,  // measure 23
0100
0001
0000
0001
1000
0000
1000
0100
0000
0100
0010
0001
1000
0001
1000
0001
,  // measure 24
0100
0010
1000
0100
0010
0000
0001
1000
,  // measure 25
0010
0100
0000
0001
1000
0001
0010
0100
,  // measure 26
1000
0010
1000
0001
1000
0100
0010
0001
,  // measure 27
1000
0010
1000
0001
0010
0100
1000
0001
1000
0001
1000
0001
0100
0010
1000
0000
,  // measure 28
0001
0010
0100
1100
0000
0000
1000
0001
,  // measure 29
0100
0010
1000
1100
0000
0000
1000
0001
,  // measure 30
0010
0001
1000
0100
0000
0100
0010
1001
,  // measure 31
0000
1000
0001
0100
0010
0100
0001
1000
,  // measure 32
0100
0010
0001
0101
0000
0000
0010
1000
,  // measure 33
0100
0010
0001
0101
0000
0000
0100
0010
,  // measure 34
1000
0100
0010
0100
1000
0001
0000
0100
,  // measure 35
0010
1000
0001
0000
0010
0000
0100
0000
1100
0000
0100
0000
0110
0000
0100
0000
,  // measure 36
1100
1000
0001
0101
0000
0000
1000
0001
,  // measure 37
0010
0100
1000
1001
0000
0000
0100
0010
,  // measure 38
0001
0010
1000
0100
0000
0010
0001
1001
,  // measure 39
0000
1000
0010
0100
0001
0010
0100
0000
,  // measure 40
1000
0100
0010
0011
0000
0000
1000
0010
,  // measure 41
0100
0001
1000
1001
0000
0000
0001
0010
,  // measure 42
1000
0010
0100
1000
0000
0001
0100
0010
,  // measure 43
0110
0000
0000
0000
1010
1000
1100
1000
,  // measure 44
1001
0000
0001
0000
0100
0000
0010
0000
1000
0100
1000
0000
0010
0000
0100
0000
,  // measure 45
0001
0000
1000
0100
0000
0010
0001
0000
0000
0000
1000
0001
1000
0000
0010
0000
,  // measure 46
1000
0001
1000
0000
0010
0000
1000
0001
1000
0000
0100
0000
1000
0000
0001
0000
,  // measure 47
0100
0010
0100
0000
0000
0000
0110
0000
0000
0000
0100
0000
0001
0000
0001
0000
,  // measure 48
1000
0000
1000
0000
0001
0010
0001
0000
0010
0100
0010
0000
0100
1000
0100
0000
,  // measure 49
1000
0010
1000
0000
0010
0100
0010
0000
0100
0001
0100
0000
0001
1000
0001
1000
,  // measure 50
0001
0000
0000
0001
0000
0000
0000
0011
0000
0000
1000
0000
0010
0000
0100
0000
,  // measure 51
0010
1000
0010
0000
1000
0000
0001
0000
0100
0000
0010
0000
1000
0000
0100
0000
,  // measure 52
1100
0000
1000
0000
0100
0000
0010
0000
0001
0100
0001
0000
0010
0000
0100
0000
,  // measure 53
1000
0000
0010
1000
0000
0001
0010
0000
0000
0000
0001
1000
0001
0000
1000
0000
,  // measure 54
0001
0010
0001
0000
0100
0000
0001
0010
0001
0000
1000
0000
1000
0000
0010
0000
,  // measure 55
1000
0100
1000
0000
0001
0000
0101
0000
0000
0000
1010
0000
1000
0000
1000
0000
,  // measure 56
0001
0000
0010
0000
0100
0010
0100
0000
1000
0001
1000
0000
0010
0100
0010
0000
,  // measure 57
1000
0001
1000
0000
0100
0010
0100
0000
1000
0001
1000
0000
0010
0100
0010
0100
,  // measure 58
0001
0000
1000
0100
0000
0000
0000
0110
0000
0000
0001
0000
0100
0000
0010
0000
,  // measure 59
0110
0000
0000
0000
1010
1000
1001
0001
,  // measure 60
0011
0000
0010
0100
0000
0000
0100
1000
,  // measure 61
1010
0000
0010
0100
0000
0000
0100
0001
,  // measure 62
1001
1000
0100
0010
0000
0100
0000
1000
,  // measure 63
0000
1000
0001
1000
0010
0000
0100
0000
,  // measure 64
0101
0000
0001
1000
0000
0000
0100
0010
,  // measure 65
0110
0000
0010
0100
0000
0000
1000
0001
,  // measure 66
0101
0100
0010
1000
0000
0100
0000
0010
,  // measure 67
0000
0010
1000
0001
0100
0000
0010
0000
,  // measure 68
1001
0000
0000
0000
;

//---------------dance-single - ----------------
#NOTES:
     dance-single:
     :
     Medium:
     12:
     0.584,0.542,0.048,0.000,0.067: // measure 1
0000
0000
0000
0000
,  // measure 2
0000
0000
0000
0000
,  // measure 3
0000
0000
0000
0000
,  // measure 4
1000
0001
0000
0000
0001
0000
0100
0000
0010
0000
0100
0000
0001
0000
1000
0000
,  // measure 5
0100
0000
0010
0000
0001
0100
0010
0000
,  // measure 6
0010
1000
0001
1000
0100
0010
0001
1000
,  // measure 7
0001
0100
1000
0100
0001
0010
1000
0000
,  // measure 8
0010
0001
0000
0000
1000
0000
0010
0000
0100
0000
0010
0000
1000
0000
0100
0000
,  // measure 9
0010
0000
0001
0000
0100
0010
1000
0000
,  // measure 10
0001
0100
0010
0100
0001
1000
0100
0010
,  // measure 11
0001
0100
1000
0100
0001
0010
1000
0000
,  // measure 12
1000
0010
0100
0010
0001
1000
0001
0000
,  // measure 13
0001
0100
0010
1000
0100
0010
0100
0000
,  // measure 14
1000
0010
1000
0001
1000
0100
0010
0001
,  // measure 15
1000
0010
0100
0001
1000
0100
0010
0010
,  // measure 16
0001
1000
0010
0100
0010
1000
0100
0000
,  // measure 17
0010
0001
0100
0010
0100
0001
1000
0000
,  // measure 18
0100
0010
0001
1000
0010
0100
0001
1000
,  // measure 19
0001
0010
0100
1000
0010
1000
0100
0000
,  // measure 20
0010
0001
1000
0001
0100
0001
1000
0100
,  // measure 21
0010
0000
0001
0000
1000
0010
0100
0000
,  // measure 22
0001
0010
0001
1000
0001
0010
0100
1000
,  // measure 23
0010
0000
0100
0001
1000
0100
0000
0010
,  // measure 24
0001
1000
0010
0100
0000
0000
0001
0010
,  // measure 25
0100
1000
0000
0010
0000
1000
0100
0010
,  // measure 26
0001
1000
0001
0100
0010
1000
0100
0010
,  // measure 27
0001
0000
0000
0001
0010
0000
0000
0010
0100
0000
0000
0100
1000
0000
0000
1000
,  // measure 28
0010
0000
0100
0001
1000
0000
0100
0010
,  // measure 29
0001
0000
1000
0010
0100
0000
0001
1000
,  // measure 30
0010
1000
0100
0010
0000
0001
0100
0010
,  // measure 31
0000
0010
0100
0001
1000
0100
0001
0000
,  // measure 32
0100
0000
0010
0001
0100
0000
0010
0100
,  // measure 33
0001
0000
1000
0100
0010
0000
0100
1000
,  // measure 34
0001
0100
0010
0100
0000
0001
0000
1000
,  // measure 35
0100
0010
0100
1000
0001
0001
0100
0100
,  // measure 36
0010
1000
0100
0010
0000
0000
0001
1000
,  // measure 37
0010
0100
0001
0010
0000
0000
0100
1000
,  // measure 38
0010
1000
0001
0010
0000
0100
1000
0010
,  // measure 39
0000
0010
0100
0001
0010
0001
1000
0000
,  // measure 40
0010
0100
0001
0010
0000
0000
0100
1000
,  // measure 41
0001
0100
0010
0100
0000
0000
0001
1000
,  // measure 42
0100
0010
0100
1000
0000
0010
0000
0100
,  // measure 43
0101
0000
0000
0000
0001
0001
1000
1000
,  // measure 44
1100
0000
0100
0010
0000
0010
0001
1000
,  // measure 45
0010
0000
1000
0001
0000
1000
0001
0000
0000
0000
0010
0000
0010
0000
0001
0000
,  // measure 46
1000
1000
0010
0001
0001
0010
0100
0001
,  // measure 47
1000
1000
0100
0010
0000
0010
0100
0000
,  // measure 48
1000
0100
0010
0100
0001
0100
0010
0100
,  // measure 49
1000
0010
0100
0010
0001
0010
0100
0010
,  // measure 50
1000
0000
0000
1000
0000
0000
0000
0001
0000
0000
0010
0000
0100
0000
1000
0000
,  // measure 51
0001
0010
0001
0100
0010
0010
1000
0000
,  // measure 52
0001
0000
0010
0100
0000
0100
1000
0010
,  // measure 53
1000
0000
0001
1000
0000
0001
1000
0000
0000
0000
0100
0000
0100
0000
0010
0000
,  // measure 54
0001
0001
0100
1000
1000
0100
0001
1000
,  // measure 55
0100
0100
0010
0100
0000
0100
1000
1000
,  // measure 56
0001
0100
1000
0100
0010
0100
1000
0100
,  // measure 57
0001
0010
1000
0010
0100
0010
1000
0010
,  // measure 58
0001
0000
0000
0001
0000
0000
0000
0100
0000
0000
1000
0000
0100
0000
0010
0000
,  // measure 59
1000
0000
0000
0000
0100
0100
0010
0010
,  // measure 60
0110
0000
0010
0001
0000
0000
0001
0100
,  // measure 61
0010
0000
0010
1000
0000
0000
0100
0010
,  // measure 62
0001
0010
0100
1000
0000
0010
0000
0100
,  // measure 63
0000
0100
1000
0100
0010
0000
1000
0000
,  // measure 64
1010
0000
1000
0100
0000
0000
0100
0010
,  // measure 65
0001
0000
0001
0100
0000
0000
0100
0010
,  // measure 66
0100
0000
0100
0001
0000
0010
0000
0100
,  // measure 67
0000
0100
0001
0100
0010
0000
0001
0000
,  // measure 68
1001
0000
0000
0000
;

//---------------dance-single - ----------------
#NOTES:
     dance-single:
     :
     Beginner:
     3:
     0.154,0.223,0.029,0.000,0.000: // measure 1
0000
0000
0000
0000
,  // measure 2
0000
0000
0000
0000
,  // measure 3
0000
0000
0000
0000
,  // measure 4
1000
0000
0100
0000
,  // measure 5
0001
0000
0100
0000
,  // measure 6
0010
0000
0001
0000
,  // measure 7
0100
0100
0100
0000
,  // measure 8
1000
0000
0100
0000
,  // measure 9
0010
0000
0100
0000
,  // measure 10
0001
0000
1000
0000
,  // measure 11
0100
0100
0100
0000
,  // measure 12
0010
0000
0000
0000
,  // measure 13
0001
0000
0000
0000
,  // measure 14
0100
0000
0000
0000
,  // measure 15
0010
0000
0010
0000
,  // measure 16
1000
0000
0000
0000
,  // measure 17
0100
0000
0000
0000
,  // measure 18
0010
0000
0000
0000
,  // measure 19
0001
0000
0001
0000
,  // measure 20
0100
0000
0010
0000
,  // measure 21
0100
0000
0001
0000
,  // measure 22
1000
0000
1000
0000
,  // measure 23
0100
0000
0010
0000
,  // measure 24
0100
0000
0000
0000
,  // measure 25
1000
0000
0000
0000
,  // measure 26
0001
0000
0000
0000
,  // measure 27
0100
0000
0100
0000
,  // measure 28
0010
0000
0000
0000
,  // measure 29
1000
0000
0000
0000
,  // measure 30
0001
0000
0010
0000
,  // measure 31
1000
0000
0010
0000
,  // measure 32
0001
0000
0000
0000
,  // measure 33
1000
0000
0000
0000
,  // measure 34
0010
0000
0100
0000
,  // measure 35
1000
0000
0100
0000
,  // measure 36
0001
0000
0000
0000
,  // measure 37
1000
0000
0000
0000
,  // measure 38
0001
0000
0010
0000
,  // measure 39
1000
0000
0010
0000
,  // measure 40
0100
0000
0000
0000
,  // measure 41
1000
0000
0000
0000
,  // measure 42
0001
0000
0100
0000
,  // measure 43
1000
0000
0100
0100
,  // measure 44
0100
0000
0010
0000
,  // measure 45
0100
0000
0001
0000
,  // measure 46
1000
0000
0100
0000
,  // measure 47
0010
0000
0100
0000
,  // measure 48
1000
0000
1000
0000
,  // measure 49
0001
0000
0001
0000
,  // measure 50
0100
0000
0010
0000
,  // measure 51
0100
0000
0001
0000
,  // measure 52
1000
0000
0100
0000
,  // measure 53
0001
0000
0100
0000
,  // measure 54
1000
0000
0010
0000
,  // measure 55
0100
0000
0001
0000
,  // measure 56
1000
0000
0100
0000
,  // measure 57
0001
0000
0100
0000
,  // measure 58
1000
0000
0010
0000
,  // measure 59
0110
0000
0001
0001
,  // measure 60
1001
0000
0000
0000
,  // measure 61
1000
0000
0000
0000
,  // measure 62
0100
0000
0000
0000
,  // measure 63
0000
0000
0010
0010
,  // measure 64
0010
0000
0000
0000
,  // measure 65
0001
0000
0000
0000
,  // measure 66
0100
0000
0000
0000
,  // measure 67
0000
0000
0010
0010
,  // measure 68
0110
0000
0000
0000
;

//---------------dance-single - ----------------
#NOTES:
     dance-single:
     :
     Easy:
     7:
     0.332,0.319,0.143,0.029,0.000: // measure 1
0000
0000
0000
0000
,  // measure 2
0000
0000
0000
0000
,  // measure 3
0000
0000
0000
0000
,  // measure 4
1000
0100
0001
0100
,  // measure 5
0010
0001
1000
0010
,  // measure 6
0100
1000
0100
0001
,  // measure 7
1000
0000
0100
0000
0010
0000
0002
0003
,  // measure 8
1000
0010
0001
0010
,  // measure 9
0100
0001
1000
0100
,  // measure 10
0010
0100
1000
0001
,  // measure 11
0100
0000
0010
0000
1000
0000
0002
0003
,  // measure 12
1000
0100
0010
0000
,  // measure 13
1000
0100
0001
0000
,  // measure 14
1000
0100
0010
0001
,  // measure 15
0100
0100
0010
0100
,  // measure 16
0001
0100
1000
0000
,  // measure 17
0001
0010
1000
0000
,  // measure 18
0001
0100
0010
0100
,  // measure 19
0001
0001
1000
1000
,  // measure 20
0001
0000
0010
0000
0100
0000
1000
0100
,  // measure 21
0000
0000
0010
0001
,  // measure 22
1000
0010
0100
0001
,  // measure 23
1000
0000
0100
0000
,  // measure 24
0010
0100
1000
0000
,  // measure 25
0010
0100
0001
0100
,  // measure 26
0020
0000
0000
0000
,  // measure 27
0030
0000
0000
0000
,  // measure 28
1000
0100
0101
0000
,  // measure 29
1000
0010
0011
0000
,  // measure 30
0001
1000
0010
1000
,  // measure 31
0100
0001
0100
1000
,  // measure 32
0010
0100
1100
0000
,  // measure 33
0001
0010
1010
0000
,  // measure 34
1000
0001
0010
0100
,  // measure 35
1000
0100
0010
0001
,  // measure 36
0100
0010
0110
0010
,  // measure 37
1000
0001
1001
0000
,  // measure 38
0001
0010
0100
1000
,  // measure 39
0010
1000
0001
0010
,  // measure 40
0100
1000
1100
0001
,  // measure 41
0100
0010
1010
0000
,  // measure 42
0001
0010
1000
0010
,  // measure 43
0110
0000
0100
0100
,  // measure 44
1001
0000
0000
0001
0000
0000
0100
0000
,  // measure 45
0010
0010
1000
0100
,  // measure 46
0001
0100
1000
0010
,  // measure 47
0100
1000
0100
0001
,  // measure 48
1000
0100
0010
0100
,  // measure 49
0001
0100
0010
0100
,  // measure 50
1000
1000
0010
0100
,  // measure 51
0001
0010
0100
1000
,  // measure 52
1001
0000
0000
0001
0000
0000
0100
0000
,  // measure 53
0010
1000
0001
0010
,  // measure 54
1000
0010
0100
1000
,  // measure 55
0010
0001
0010
0100
,  // measure 56
0001
0010
0100
0010
,  // measure 57
1000
0010
0100
0010
,  // measure 58
0001
0001
1000
0010
,  // measure 59
1001
0000
0001
0001
,  // measure 60
1001
0000
0000
1000
0000
0000
0010
0000
,  // measure 61
0100
0000
0000
0100
0000
0000
0001
0000
,  // measure 62
0010
0000
0000
0100
0000
0100
0000
1000
,  // measure 63
0000
1000
0010
0000
0100
0000
0100
0000
,  // measure 64
0101
0000
0000
0001
0000
0000
0000
0000
,  // measure 65
1000
0000
0000
1000
0000
0000
0000
0000
,  // measure 66
0100
0000
0000
0100
0000
0010
0000
0001
,  // measure 67
0000
0001
0100
0000
0010
0000
1000
0000
,  // measure 68
1001
0000
0000
0000
;
