#VERSION:0.83;
#TITLE:Stratosphonic;
#SUBTITLE:;
#ARTIST:ZST "Photon Level";
#TITLETRANSLIT:;
#SUBTITLETRANSLIT:;
#ARTISTTRANSLIT:;
#GENRE:;
#ORIGIN:;
#CREDIT:;
#BANNER:Stratosphonic.png;
#BACKGROUND:Stratosphonic-bg.png;
#PREVIEWVID:;
#JACKET:Stratosphonic-jacket.png;
#CDIMAGE:;
#DISCIMAGE:;
#LYRICSPATH:;
#CDTITLE:;
#MUSIC:Stratosphonic.ogg;
#OFFSET:-0.021504;
#SAMPLESTART:77.434959;
#SAMPLELENGTH:15.000000;
#SELECTABLE:YES;
#BPMS:0.000=155.000;
#STOPS:164.250=1.161;
#DELAYS:;
#WARPS:;
#TIMESIGNATURES:0.000=4=4;
#TICKCOUNTS:0.000=4;
#COMBOS:0.000=1;
#SPEEDS:0.000=1.000=0.000=0;
#SCROLLS:0.000=1.000;
#FAKES:;
#LABELS:0.000=Song Start;
#BGCHANGES:;
#KEYSOUNDS:;
#ATTACKS:
;

//---------------dance-single - ----------------
#NOTEDATA:;
#CHARTNAME:;
#STEPSTYPE:dance-single;
#DESCRIPTION:;
#CHARTSTYLE:;
#DIFFICULTY:Hard;
#METER:14;
#RADARVALUES:0.699325,0.837512,0.448875,0.508160,0.614027,578.000000,525.000000,53.000000,60.000000,0.000000,0.000000,0.000000,0.000000,0.000000,0.699325,0.837512,0.448875,0.508160,0.614027,578.000000,525.000000,53.000000,60.000000,0.000000,0.000000,0.000000,0.000000,0.000000;
#CREDIT:;
#NOTES:
0000
0000
0000
0000
,
0000
0000
0000
0000
,
0000
0000
0000
0000
,
0000
0000
0000
0000
,
0000
0000
0000
0000
,
1000
0000
0100
0000
0010
0000
0010
0100
0000
0100
1000
0000
0010
0000
0100
0000
,
0001
0000
0010
0000
0100
0000
0100
0010
0000
0010
0001
0000
0100
0000
0010
0000
,
0100
0001
0100
0000
0001
0010
0001
0000
1000
0010
1000
0000
0100
1000
0100
0000
,
0010
0100
0010
0000
0001
1000
0001
0000
0100
0010
0100
0000
0001
0100
0010
1000
,
0002
0000
0000
0000
0103
0000
0001
1000
0020
0000
0000
0000
1030
0000
0010
1000
,
0002
0000
0000
0000
0013
0000
0200
0000
0000
0000
0310
0000
0000
0000
0010
0001
,
2000
0000
0000
0000
3100
0000
1000
0001
0020
0000
0000
0000
0031
0000
0010
0100
,
2000
0000
3001
0020
0000
0031
0100
1000
,
0100
0000
0001
0000
0010
0000
0010
0001
0000
0001
0100
0000
0010
0000
1000
0000
,
0100
0000
1000
0000
0010
0000
0010
1000
0000
1000
0100
0000
0010
0000
0001
0000
,
0010
0001
0010
0000
0001
0100
0001
0000
1000
0100
1000
0000
0010
1000
0010
1000
,
0001
1000
0100
0000
1000
0001
0010
0000
0100
0000
1000
0000
0001
0100
0010
1000
,
0010
0100
0101
1000
1010
0000
1001
0001
,
0010
0000
0100
0000
1100
0000
0010
0000
0011
0000
0000
0000
0010
0100
1000
0100
,
0010
0001
0101
1000
1200
0000
0310
0012
,
0000
0000
1003
0000
1020
0000
0000
0000
0130
0000
0100
0000
0001
1000
0100
0010
,
0001
1000
1100
0001
0011
0000
1001
0001
,
0100
0000
1000
0000
0100
0000
0010
0000
0110
0000
0000
0000
0010
1000
0001
1000
,
0100
1000
0010
0100
0102
0100
0003
0021
,
0000
0000
0130
0000
2001
0000
0000
0000
3001
0000
0001
0000
0001
1000
0001
0000
,
0010
0001
0000
2000
0000
0000
3100
0010
0000
2000
0000
0000
3010
0000
0001
0000
,
0100
0001
0000
2000
0000
0000
3010
0100
0000
2000
0000
0000
3100
0010
0100
0000
,
0010
1000
0000
0002
0000
0000
0013
0100
0000
0002
0000
0000
0103
0000
1000
0000
,
0010
0100
0000
0002
0000
0000
1003
0100
0000
0002
0000
0000
0103
0010
0100
0000
,
1000
0001
0000
0020
0000
0000
0130
1000
0000
0020
0000
0000
1030
0000
0001
0000
,
0100
0001
0000
0020
0000
0000
0031
1000
0000
0020
0000
0000
0130
0001
0100
0000
,
0001
0010
0000
0200
0000
0000
1300
0001
0000
0200
0000
0000
0310
0000
1000
0000
,
0100
1000
0000
0002
0000
0000
0103
0010
0000
2000
0000
0000
3001
0010
0001
0010
,
0100
0000
1000
0000
1001
0000
0001
0010
0000
0010
0100
0000
1001
0000
0001
0000
,
0100
0000
0001
0000
1001
0000
1000
0010
0000
0010
0100
0000
1001
0000
1000
0100
,
0010
0000
0001
0000
1100
0000
0100
1000
0000
1000
0010
0000
0101
0000
0100
0000
,
0010
0000
1000
0000
0101
0000
0100
0001
0000
0001
0010
0000
1100
0000
0100
1000
,
0100
0000
0010
0000
1000
0000
0010
0000
0100
0000
0010
0001
0000
0000
1000
0001
,
0100
0000
0010
0000
0001
0000
0010
0000
0100
0010
0000
1000
0000
1000
0001
1000
,
0100
0000
0010
0000
0001
0000
0100
0010
0100
0010
0000
1000
0000
1000
0001
0000
,
0010
0000
0001
0000
0100
0000
0100
0010
1000
0010
0100
0001
0010
0100
1000
0020
,
0000
2030
0000
0000
,
0000
3002
0000
0023
,
0000
0230
0000
0000
,
0000
0000
0000
0000
,
2300
0002
0000
0000
,
3003
0202
0303
2020
,
3030
0210
0301
0120
,
1030
0000
1010
1000
1100
0100
0110
0010
,
0010
0001
0010
0100
1000
0000
0000
1100
0000
0000
1002
0000
0000
0000
0100
0000
,
1003
0000
1000
0010
0100
0000
0001
0000
0101
0000
1000
0000
1010
0000
0100
0000
,
1001
0000
0000
0000
0021
0000
0000
0100
0000
0000
1000
0000
0000
0000
0100
0000
,
0031
0001
0100
0001
0011
0010
0100
1000
,
1010
0000
0010
0100
0001
0000
0000
0101
0000
0000
2100
0000
0000
0000
0100
0000
,
3001
0000
0001
0010
0002
0000
0010
0000
2003
0000
0100
0000
3002
0000
0100
0000
,
2003
0000
0010
0000
3001
0000
0001
0000
0001
0000
0100
0010
1000
0000
1000
0000
,
1000
0000
0100
0010
0001
0000
0010
0100
1000
0000
0001
1000
0001
0000
0100
0000
,
0100
0001
0100
0010
1000
0000
0000
0110
0000
0000
1002
0000
0000
0000
0010
0000
,
1003
0000
1000
0100
0010
0000
0001
0000
0011
0000
0010
0000
0100
0000
0100
1000
,
0000
1000
0010
0000
0200
0000
0300
0000
0100
0000
0010
0000
1010
0000
0000
0101
,
0000
0000
0011
0000
0000
1100
0000
0000
0100
0010
0000
1001
0000
0000
0110
0000
,
1000
0100
1000
0001
0010
0000
0001
0100
0000
0100
1000
0000
0100
0000
0001
0000
,
0010
2000
0000
3010
0200
0000
0320
0000
,
0031
0000
1000
0000
0001
0000
0100
0010
0000
0100
0002
0000
0100
0000
0000
0000
,
1000
0013
1100
1001
,
0011
0000
0000
0000
1000
0000
0010
0100
0000
0010
2000
0000
0001
0000
0000
0000
,
0100
0001
0010
3002
,
0003
0000
0100
0010
1000
0000
0010
0000
0100
0000
0100
0001
0000
0001
0010
0000
,
0100
0000
0010
0000
0001
0000
0010
0000
0100
0000
0100
1000
0000
1000
0010
0000
,
0100
0000
0010
0000
0100
0001
0100
0000
0001
0010
0001
0000
1000
0010
1000
0000
,
0100
1000
0100
0010
0001
0010
0001
0000
0100
0001
0100
0000
0010
0100
0010
0000
,
1000
0001
1000
0200
0020
0000
0000
0000
0000
0000
0000
0000
0000
0000
0000
0000
,
0000
0000
0000
0000
,
0000
0330
0000
0000
;

//---------------dance-single - ----------------
#NOTEDATA:;
#CHARTNAME:;
#STEPSTYPE:dance-single;
#DESCRIPTION:;
#CHARTSTYLE:;
#DIFFICULTY:Medium;
#METER:11;
#RADARVALUES:0.401689,0.527322,0.296427,0.601323,0.101632,332.000000,297.000000,35.000000,71.000000,0.000000,0.000000,0.000000,0.000000,0.000000,0.401689,0.527322,0.296427,0.601323,0.101632,332.000000,297.000000,35.000000,71.000000,0.000000,0.000000,0.000000,0.000000,0.000000;
#CREDIT:;
#NOTES:
0000
0000
0000
0000
,
0000
0000
0000
0000
,
0000
0000
0000
0000
,
0000
0000
0000
0000
,
0000
0000
0000
0000
,
1000
0100
0010
0000
0010
0100
1000
0000
,
0001
0100
0010
0000
0010
0100
0001
0000
,
1000
0100
0000
0000
0100
1000
0000
0000
1000
0010
0000
0000
0010
1000
0000
0000
,
1000
0001
0000
0000
0001
0010
0000
0000
0001
0000
0010
0000
0100
0000
1000
0000
,
0020
0000
0030
1000
0002
0000
0003
1000
,
0200
0000
0000
0320
0000
0000
0130
0000
,
0020
0000
0030
0001
2000
0000
3000
0001
,
0200
0000
0000
0320
0000
0000
0130
0000
,
0001
0000
0000
0100
0000
0000
0020
0000
0000
0000
0030
0000
1000
0000
0020
0000
,
0000
0000
0100
0000
1030
0000
1000
0200
,
0000
0010
1000
0001
,
1300
0000
1100
0000
1001
0000
0001
0100
,
0010
0000
0110
0000
1001
0000
1000
0100
,
0000
0100
0010
0000
0011
0000
0001
1000
,
0001
0000
1001
0000
0110
0000
0001
1000
,
0000
1000
0020
0000
0000
0000
0100
0000
,
1030
0000
0110
0000
1001
0000
0001
0100
,
0000
0100
0010
0000
1010
0000
1000
0001
,
1000
0000
1001
0000
0220
0330
0000
1000
,
0000
0001
0020
0000
0000
0000
0030
0000
,
0002
0000
2003
0000
3200
0000
1300
0001
,
0020
0000
0032
0000
2003
0000
3100
1000
,
0002
0000
0023
0000
0230
0000
0310
0001
,
2000
0000
3200
0000
0320
0000
0130
1000
,
2000
0000
3002
0000
0203
0000
0301
1000
,
0020
0000
2030
0000
3002
0000
0103
0001
,
2000
0000
3020
0000
0230
0000
0310
1000
,
0002
0023
0230
2300
,
3001
1100
0001
1010
,
0001
0000
0110
0000
0001
1000
0001
0000
,
1000
0101
1000
0011
,
1000
0000
0110
0000
1000
0001
0010
0000
,
0100
1001
0010
1001
,
0100
0000
1001
0000
0001
0100
1000
0100
,
0001
0110
1000
0110
,
1001
0000
1001
0000
1000
0100
0010
0002
,
0000
2003
0000
0000
,
0000
3020
0000
0230
,
0000
0302
0000
0000
,
0000
0000
0000
0000
,
0023
0230
0000
0000
,
0000
2300
0000
3002
,
0000
0203
0300
0200
,
0300
0000
0200
0000
0320
0000
0130
0001
,
1000
0000
0001
0000
0010
0000
0000
0001
0000
0000
0200
0000
0000
0000
0000
0000
,
0300
0001
1000
0000
1100
0000
1001
0000
,
0101
0000
0000
0000
0100
0000
0000
0010
0000
0000
2000
0000
0000
0000
3000
0000
,
0100
2000
0000
0000
3001
0000
1000
0100
,
0001
0000
0000
0000
0100
0000
0000
1000
0000
0000
0020
0000
0000
0000
0000
0000
,
0130
0010
1010
1001
,
0011
0000
2000
0000
3010
0100
0002
0000
,
1003
0100
0020
0000
0032
0000
2003
0000
,
3200
0000
0000
0000
0310
0000
0000
0001
0000
0000
0200
0000
0000
0000
0000
0000
,
0300
0001
0010
0000
1100
0000
0010
0000
,
0101
0000
0000
0000
0100
0000
0000
0000
0100
0000
0001
0000
1000
0000
0000
1000
,
0000
0000
0001
0000
0000
0001
0000
0000
0010
0000
0000
0100
0000
0000
0100
0000
,
0010
0001
1000
0000
0110
0000
0001
0000
,
0110
1000
0002
0203
,
0320
0000
0000
0000
1030
0000
0000
1000
0000
0000
0010
0000
0100
0000
0000
0100
,
0000
0010
2000
0000
0100
0000
0001
0000
,
0010
0000
0000
0000
3001
0000
0000
0001
0000
0000
0010
0000
0100
0000
0000
0100
,
0000
0010
0001
0000
0200
0000
0020
0000
,
0330
0000
1000
0010
0100
0000
0100
0010
,
1000
0000
0001
0010
0100
0000
0100
0010
,
0001
0000
0000
0000
0100
0001
0000
0000
0001
0100
0000
0000
0001
0010
0000
0000
,
0010
0001
0000
0000
1000
0010
0000
0000
0010
1000
0000
0000
1000
0000
0100
0000
,
0010
0001
0200
0000
0000
0000
0000
0000
,
0000
0000
0000
0000
,
0000
0300
0000
0000
;

//---------------dance-single - ----------------
#NOTEDATA:;
#CHARTNAME:;
#STEPSTYPE:dance-single;
#DESCRIPTION:;
#CHARTSTYLE:;
#DIFFICULTY:Easy;
#METER:7;
#RADARVALUES:0.283118,0.403246,0.076224,0.304896,0.012704,234.000000,225.000000,9.000000,36.000000,0.000000,0.000000,0.000000,0.000000,0.000000,0.283118,0.403246,0.076224,0.304896,0.012704,234.000000,225.000000,9.000000,36.000000,0.000000,0.000000,0.000000,0.000000,0.000000;
#CREDIT:;
#NOTES:
0000
0000
0000
0000
,
0000
0000
0000
0000
,
0000
0000
0000
0000
,
0000
0000
0000
0000
,
0000
0000
0000
0000
,
1000
0100
0001
0100
,
1000
0010
0001
0010
,
0100
0100
0001
0001
,
1000
1000
0010
0010
,
2000
3000
0002
0003
,
0200
0000
0000
0320
0000
0000
0030
0000
,
2000
3000
0002
0003
,
0020
0000
0000
0230
0000
0000
1300
0000
,
1000
0010
0001
0010
,
1000
0100
0001
0100
,
0010
0010
0001
0001
,
1000
1000
0100
0100
,
1000
0000
1000
0000
1001
0000
0000
0002
,
0000
0103
0110
0000
,
0001
0000
1000
0000
0001
0000
0000
0010
,
0000
0010
0200
0000
0300
0000
0010
0000
,
0001
0000
0001
0000
1001
0000
0000
2000
,
0000
3100
0110
0000
,
1000
0100
0010
0001
,
0100
0020
0000
0030
,
1000
0010
0100
0001
,
0100
0010
1000
0010
,
0100
0001
0100
0010
,
1000
0010
0200
0300
,
0001
0010
0100
1000
,
0100
0010
0001
0010
,
0100
1000
0100
0010
,
0001
0010
0200
0300
,
1000
0001
0010
0100
,
0010
0001
1000
0001
,
0100
0010
0100
0001
,
1000
0100
0020
0030
,
0100
0100
1000
0100
,
0010
0010
0001
0010
,
0001
0001
1000
0001
,
1000
0010
0100
0002
,
0003
2000
0000
0000
,
3000
0200
0300
0020
,
0030
0002
0000
0000
,
0000
0003
0000
0000
,
0000
2000
0000
0000
,
3000
0020
0030
0200
,
0300
0002
0003
0002
,
0003
0002
0023
0230
,
2300
3001
0100
0010
,
0100
0001
0010
0100
,
0010
0002
0003
2000
,
3000
0010
0010
0100
,
0010
1000
0100
0010
,
0100
1000
0010
0100
,
0010
2000
3000
0002
,
0003
0010
0001
1000
,
0100
1000
0001
0100
,
0001
1000
0010
1000
,
0100
0000
0000
0000
0010
0000
0000
0000
0100
0000
0000
0000
1000
0000
0000
0001
,
0000
0000
0001
0000
0000
1000
0000
0000
0010
0000
0000
0100
0000
0000
0000
0000
,
1001
0001
0100
1000
,
0010
0001
0001
1000
,
1000
0100
1000
0100
,
1000
0001
0010
0001
,
0010
0001
0100
0001
,
0100
0010
1000
0002
,
0003
1000
0100
0001
,
0100
1000
0010
0001
,
0010
0100
0101
0001
,
0011
0010
0110
0100
,
2100
3002
0000
0000
,
0000
0000
0000
0000
,
0000
0003
0000
0000
;

//---------------dance-single - ----------------
#NOTEDATA:;
#CHARTNAME:;
#STEPSTYPE:dance-single;
#DESCRIPTION:;
#CHARTSTYLE:;
#DIFFICULTY:Beginner;
#METER:2;
#RADARVALUES:0.124620,0.271548,0.067755,0.000000,0.000000,103.000000,95.000000,8.000000,0.000000,0.000000,0.000000,0.000000,0.000000,0.000000,0.124620,0.271548,0.067755,0.000000,0.000000,103.000000,95.000000,8.000000,0.000000,0.000000,0.000000,0.000000,0.000000,0.000000;
#CREDIT:;
#NOTES:
0000
0000
0000
0000
,
0000
0000
0000
0000
,
0000
0000
0000
0000
,
0000
0000
0000
0000
,
0000
0000
0000
0000
,
1000
0000
0000
0000
,
0100
0000
0000
0000
,
0010
0000
0000
0000
,
0001
0000
0000
0000
,
1000
0000
1000
0000
,
0001
0000
0000
0000
,
0001
0000
0001
0000
,
1000
0000
0000
0000
,
0001
0000
0000
0000
,
0100
0000
0000
0000
,
0010
0000
0000
0000
,
1000
0000
0000
0000
,
1000
0000
1000
0000
,
0001
0000
0000
0000
,
0010
0000
0010
0000
,
0100
0000
0000
0000
,
1000
0000
1000
0000
,
0001
0000
0000
0000
,
0100
0000
0100
0000
,
0010
0000
0000
0000
,
1000
0000
0000
0000
,
0010
0000
0000
0000
,
1000
0000
0000
0000
,
0100
0000
1000
0000
,
0001
0000
0000
0000
,
0100
0000
0000
0000
,
0001
0000
0000
0000
,
0010
0000
0001
0000
,
1000
0000
0000
0000
,
0100
0000
0000
0000
,
0001
0000
0000
0000
,
0100
0000
1000
0000
,
0001
0000
0000
0000
,
0100
0000
0000
0000
,
1000
0000
0000
0000
,
0100
0000
0001
0001
,
0000
1001
0000
0000
,
0000
0000
0000
0000
,
0000
0000
0000
0000
,
0000
0000
0000
0000
,
0000
1001
0000
0000
,
0000
0110
0000
0000
,
0000
1001
0000
1001
,
0000
0001
1000
1001
,
0000
1000
0000
0100
,
0000
0010
0000
0100
,
0000
1000
0000
1000
,
0000
1000
0000
0000
,
0000
0001
0000
0100
,
0000
0010
0000
0100
,
0000
0001
0000
0001
,
0000
0001
0000
0000
,
0000
0010
0000
0100
,
0000
1000
0000
0100
,
0000
0010
0000
0001
,
0000
0001
0000
0000
1000
0000
1000
0000
,
0000
0010
0000
0100
,
0000
0001
0000
0100
,
0000
0010
0000
0000
,
0000
1000
0000
0100
,
0000
0010
0000
0000
,
0000
0001
0000
1000
,
0000
1001
0000
0000
,
0000
0110
0000
0000
,
0000
0001
0000
0100
,
0000
0010
0000
1000
,
0000
0100
0000
0000
;
