#TITLE:Speedrun;
#SUBTITLE:;
#ARTIST:Ace Aura x Skybreak;
#TITLETRANSLIT:;
#SUBTITLETRANSLIT:;
#ARTISTTRANSLIT:;
#GENRE:;
#CREDIT:;
#BANNER:Speedrun.png;
#BACKGROUND:Speedrun-bg.png;
#LYRICSPATH:;
#CDTITLE:;
#MUSIC:Speedrun.ogg;
#OFFSET:-0.040000;
#SAMPLESTART:25.638592;
#SAMPLELENGTH:12.799999;
#SELECTABLE:YES;
#BPMS:0.000000=150.000000
;
#STOPS:
;
#BGCHANGES:;
#KEYSOUNDS:;
#ATTACKS:;

//---------------dance-single - ----------------
#NOTES:
     dance-single:
     :
     Hard:
     15:
     0.708022,0.955477,0.378081,0.295890,0.854792,603.000000,557.000000,46.000000,36.000000,0.000000,0.000000,0.708022,0.955477,0.378081,0.295890,0.854792,603.000000,557.000000,46.000000,36.000000,0.000000,0.000000:
// measure 0
0000
0000
0000
0000
,  // measure 1
0000
0000
0000
0000
,  // measure 2
0000
0000
0000
0000
,  // measure 3
0000
0000
0000
0000
,  // measure 4
0000
0000
0000
0000
,  // measure 5
0000
0000
0000
0000
,  // measure 6
0000
0000
0000
0000
,  // measure 7
0000
0000
0000
0000
,  // measure 8
0000
0000
1000
0010
1000
0010
0000
0000
0100
0001
0100
0001
1000
0000
0001
0010
,  // measure 9
0000
0000
0100
1000
0100
1000
0000
0000
0001
0010
0001
0010
0100
0000
0010
0001
,  // measure 10
0000
0000
0100
0001
0100
0001
0000
0000
1000
0010
1000
0010
0100
0000
0001
1000
,  // measure 11
0000
0000
0100
1000
0100
0010
0000
0001
0000
0000
0010
0000
1000
0000
0010
0001
,  // measure 12
0000
0000
1000
0100
1000
0001
0000
0000
0010
0001
0010
0100
0010
0000
0001
1000
,  // measure 13
0000
0000
0001
0100
0001
1000
0010
0000
0100
0000
0000
0100
0000
0001
0100
0010
,  // measure 14
2000
0000
0000
3100
0000
0000
0012
0000
0000
0103
0000
0000
0220
0000
0000
0000
,  // measure 15
0000
0000
0000
0330
,  // measure 16
1010
0000
1000
0001
0000
0000
0010
0001
0010
0100
1000
0001
1000
0000
0100
0000
,  // measure 17
0110
0000
0010
0100
0000
0000
1000
0010
1000
0001
0010
0100
0010
0000
0001
0000
,  // measure 18
0101
0000
0100
0001
0000
0000
0100
0010
0100
0001
1000
0100
0010
0000
0100
0000
,  // measure 19
1000
0100
0000
0010
0000
0001
0000
1000
0000
1000
0100
1000
0001
0100
0001
1000
,  // measure 20
0001
0000
0001
0010
0000
0000
0100
1000
0100
0010
0001
1000
0001
0000
0100
0000
,  // measure 21
0110
0000
0010
0100
0000
0000
0001
0010
0001
1000
0100
0010
0100
0000
1000
0000
,  // measure 22
1100
0000
0100
1000
0000
0000
0010
0100
0010
1000
0001
0100
0010
0000
0100
0000
,  // measure 23
1000
0000
0100
0000
0001
0000
1000
0001
0010
0001
1000
0001
0100
0001
1000
0010
,  // measure 24
2000
0100
0001
3001
,  // measure 25
0002
0100
1000
1003
,  // measure 26
2000
0010
0001
3001
,  // measure 27
0002
0000
0000
0000
0010
0000
0000
0000
0013
1000
0000
0010
0001
0000
1000
0000
,  // measure 28
0001
0000
0100
0001
0000
0100
0010
0000
1000
0000
0100
0010
0000
0100
1000
0000
,  // measure 29
0001
0000
1000
0010
0000
1000
0001
0000
0100
0000
0001
0010
0000
0001
1000
0000
,  // measure 30
0100
0000
0000
1000
0000
0000
0100
0000
0000
1000
0000
0000
0001
0000
0000
0010
0000
0000
0001
0000
0000
0010
0000
0000
0001
0000
0100
0000
0001
0000
0100
0000
0001
0000
0100
0000
0010
0000
1000
0000
0010
0000
1000
0000
0010
0000
1000
0000
,  // measure 31
0001
0001
0001
0001
,  // measure 32
1001
0000
0000
1000
0000
0000
0001
1000
0001
0000
0000
0001
0000
0000
0010
0000
,  // measure 33
2100
0000
0000
3001
0000
0000
0010
0000
0012
0000
0000
0103
0000
0000
0010
1000
,  // measure 34
0002
0000
0000
1003
0000
0000
0010
0000
2010
0000
0000
3100
0000
0000
0010
0001
,  // measure 35
0100
0000
0000
0101
0000
0001
1000
0000
1020
0000
0000
0032
0000
0000
2003
0000
,  // measure 36
3100
0000
0000
0000
0000
0000
0000
0000
0000
0001
0000
0000
0000
0000
0000
0000
0000
0000
0010
0000
0100
0000
0010
0000
0100
0000
0000
0000
0000
0000
0100
0000
0000
1000
0000
0000
0000
0000
0000
0000
0000
0000
0100
0000
0000
0000
0000
0000
,  // measure 37
0021
0000
0000
0130
0000
0000
1000
0000
1200
0000
0000
0001
0000
0000
0310
0100
,  // measure 38
0010
0000
0000
0001
0000
0000
0100
0000
0210
0000
0000
1000
0000
0000
0310
0100
,  // measure 39
0010
0000
0000
1000
0000
1000
0001
0000
0021
0000
0001
0000
0100
0000
0130
0000
,  // measure 40
1001
0000
0000
1000
0000
1000
0000
0000
0001
0000
1000
0001
1000
0010
0100
0001
,  // measure 41
1000
0000
0000
1000
0000
0000
0010
0000
0110
0000
0000
0100
0010
1000
0010
1000
,  // measure 42
0001
0000
0000
0010
0000
0000
0100
0000
0110
0000
0000
0100
0010
0000
0010
0000
,  // measure 43
0011
0000
0000
0001
0000
0001
1000
0000
1200
0000
0000
0302
0000
0000
2003
0000
,  // measure 44
3010
0000
0000
0000
0000
0000
0000
0000
0000
0001
0000
0000
0000
0000
0000
0000
0000
0000
1000
0000
0010
0000
1000
0000
0001
0000
0000
0000
0000
0000
0000
0000
0000
0100
0000
0000
0000
0000
0000
0000
0000
0000
0010
0000
0000
0000
0000
0000
,  // measure 45
2001
0000
0000
3010
0000
0000
0100
0000
0102
0000
0000
1003
0000
0000
0100
0010
,  // measure 46
0002
0000
0000
0103
0000
0000
0010
0000
2010
0000
0000
3001
0000
0000
0001
1000
,  // measure 47
0001
0000
0000
0010
0000
0010
0100
0010
0100
1000
0001
0100
0010
1000
0001
0000
,  // measure 48
1002
0100
0010
0010
,  // measure 49
2003
0100
0010
0010
,  // measure 50
3002
0010
1000
1003
,  // measure 51
2000
0000
0000
0000
0010
0000
0000
0000
3001
0010
0000
1000
0010
0000
0001
0000
,  // measure 52
1000
0100
0010
0010
0001
0100
0010
0010
,  // measure 53
1000
0000
0000
0100
0000
0000
1000
0000
0000
0100
0000
0000
0010
0000
0000
0001
0000
0000
0100
0000
0000
0001
0000
0000
0100
0000
0010
0000
0100
0000
0010
0000
0100
0000
0010
0000
1000
0000
0000
0000
0000
0000
0001
0000
0000
0000
0000
0000
,  // measure 54
0011
0000
0000
0001
0000
0000
0010
0100
0010
0001
1000
0010
0010
0000
0100
0000
,  // measure 55
0110
0000
0000
0100
0000
0000
0010
1000
0100
1000
0001
0000
1000
0000
0000
0000
,  // measure 56
1100
0100
0010
0100
0101
0000
0100
1000
,  // measure 57
1010
0010
0100
0010
0011
0000
0010
0100
,  // measure 58
0101
0000
0001
0000
0010
0000
0100
0000
0110
0000
0000
0100
0001
0000
0100
0000
,  // measure 59
1000
0001
0000
0100
0000
0010
0000
0001
0000
0010
1000
0001
0010
0100
0010
0001
,  // measure 60
1000
0000
0000
0000
0011
0000
0000
0000
0001
0100
0001
0100
0010
0100
0010
1000
,  // measure 61
0001
0010
0100
0000
0001
0000
0100
0000
1000
0100
0010
0001
2000
3000
0002
0003
,  // measure 62
1010
0000
0000
1000
0000
0000
0010
1000
0010
0100
0001
0010
0010
0000
0100
0000
,  // measure 63
0011
0000
0000
0001
0000
0000
0010
0001
0010
0100
1000
0000
0010
0000
0100
0000
,  // measure 64
1001
0001
0010
0001
0101
0000
0100
0010
,  // measure 65
0110
0000
0100
1000
1100
0000
0100
0010
,  // measure 66
1000
0000
0100
0000
0001
0000
0100
0000
0110
0000
0000
0100
0000
0000
0010
0000
,  // measure 67
0001
1000
0000
0010
0000
0100
0000
1000
0000
0100
0001
1000
0100
0010
0100
0010
,  // measure 68
0001
0000
0000
0000
1010
0000
0000
0000
1000
0100
1000
0100
0010
0100
0010
0001
,  // measure 69
1000
0010
0100
0000
1000
0000
0100
0000
0001
1000
0001
1000
0200
0300
0020
0030
,  // measure 70
0011
0000
0000
0001
0000
0000
0100
0001
0100
0010
1000
0100
0100
0000
0010
0000
,  // measure 71
1100
0000
0000
1000
0000
0000
0100
1000
0100
0010
0001
0100
0100
0000
0010
0000
,  // measure 72
2002
0000
0000
0000
,  // measure 73
0000
0000
0000
0000
,  // measure 74
0000
0000
0000
0000
,  // measure 75
3003
0000
0000
0000
;

//---------------dance-single - ----------------
#NOTES:
     dance-single:
     :
     Medium:
     12:
     0.506065,0.585615,0.312328,0.115068,0.291780,431.000000,393.000000,38.000000,14.000000,0.000000,0.000000,0.506065,0.585615,0.312328,0.115068,0.291780,431.000000,393.000000,38.000000,14.000000,0.000000,0.000000:
0000
0000
0000
0000
,
0000
0000
0000
0000
,
0000
0000
0000
0000
,
0000
0000
0000
0000
,
0000
0000
0000
0000
,
0000
0000
0000
0000
,
0000
0000
0000
0000
,
0000
0000
0000
0000
,
1000
0001
0100
0000
0001
1000
0100
1000
,
0001
1000
0100
0000
1000
0001
0100
0010
,
1000
0001
0010
0000
0001
1000
0010
1000
,
0001
0000
0000
0010
0000
0000
0010
0000
0001
0000
0000
0000
1001
0000
0000
0000
,
1000
0010
0100
0000
0001
0010
0100
0010
,
0001
0000
0100
0000
0010
0000
0000
0000
1000
0000
0000
1000
0000
0000
0100
0000
,
0010
0000
0000
0001
0000
0000
1000
0000
0000
0010
0000
0000
0220
0000
0000
0000
,
0000
0000
0000
0330
,
0010
0000
0000
0010
0000
0000
1000
0000
0001
0000
0010
0000
0100
0000
0100
0000
,
0010
0000
0000
0010
0000
0000
0001
0000
1000
0000
0010
0000
0100
0000
0100
0000
,
0001
0000
0000
0001
0000
0000
1000
0000
0010
0000
1000
0000
0100
0000
0010
0000
,
0100
0000
0100
0000
1000
0000
0000
0001
0000
0000
0001
0000
1000
0000
0010
0000
,
0100
0000
0000
0100
0000
0000
0001
0000
1000
0000
0100
0000
0010
0000
0010
0000
,
0100
0000
0000
0100
0000
0000
1000
0000
0001
0000
0100
0000
0010
0000
0010
0000
,
1000
0000
0000
1000
0000
0000
0010
0000
1000
0000
0001
0000
0100
0000
0010
0000
,
0100
0000
0010
0000
0100
0000
0000
0100
0000
0000
0001
0000
1000
0000
0000
0000
,
1001
0001
0100
0001
,
1000
0100
1000
1000
,
0010
1000
0010
0010
,
0100
0000
0000
0000
0100
0000
0000
0000
0001
1000
0000
0001
1000
0000
0100
0000
,
1000
0000
0000
1000
0000
0000
0010
0000
0001
0000
0000
0001
0000
0000
0010
0000
,
1000
0000
0000
1000
0000
0000
0100
0000
0001
0000
0000
0001
0000
0000
0100
0000
,
1000
0000
0010
0000
1000
0000
0010
0000
0100
0001
0100
0001
1000
0001
1000
0001
,
1000
1000
1000
1000
,
1100
0000
0000
1100
0000
0000
0000
0000
0011
0000
0000
0011
0000
0000
0000
0000
,
0001
0000
0000
0100
0000
0000
0001
0000
1002
0000
0000
1003
0000
0000
0000
0000
,
1000
0000
0000
0100
0000
0000
1000
0000
2001
0000
0000
3001
0000
0000
0100
0000
,
0101
0000
0000
0101
0000
0000
0000
0000
2000
0000
0000
3020
0000
0000
0032
0000
,
0013
0000
0000
0010
0000
0000
0000
0000
0100
0000
0000
0100
0000
0000
0000
0000
,
1001
0000
0000
1000
0000
0000
0001
0000
0021
0000
0000
0130
0000
0000
0000
0000
,
1001
0000
0000
0001
0000
0000
1000
0000
1020
0000
0000
0130
0000
0000
0000
0000
,
1010
0000
0000
1010
0000
0000
2000
0000
0001
0000
0001
0000
0001
0000
3001
0000
,
0101
0000
0000
0100
0000
0100
0000
0000
0010
0000
0000
0000
1000
0000
0100
0000
,
1000
0000
0000
1000
0000
0000
0100
0000
0011
0000
0000
0000
0001
0000
1000
0000
,
0001
0000
0000
0001
0000
0000
0100
0000
1010
0000
0000
0000
1000
0000
1000
0000
,
0001
0000
0000
0001
0000
0000
0010
0000
0100
0000
0000
0002
0000
0000
0203
0000
,
1300
0000
0000
0010
0000
0000
0001
0000
0010
0000
0000
0100
0000
0000
0000
0000
,
1010
0000
0000
0010
0000
0000
1000
0000
1001
0000
0000
0001
0000
0000
0010
0000
,
0011
0000
0000
0001
0000
0000
1000
0000
1100
0000
0000
0100
0000
0000
1000
0000
,
0001
0000
0000
0100
0000
0100
0001
0000
1000
0000
0010
0000
1000
0000
0100
0000
,
0010
0001
1000
1000
,
0010
1000
0001
0001
,
0100
0001
1000
1000
,
0100
0000
0000
0000
1000
0000
0000
0000
1000
0001
0000
1000
0001
0000
0100
0000
,
0001
0010
0001
0010
0100
1000
0001
1000
,
0010
0000
1000
0000
0010
0000
0100
0000
0001
1000
0001
1000
0001
0000
0100
0000
,
0010
0000
0000
0010
0000
0000
1000
0000
0010
0000
0100
0010
0100
0000
0001
0000
,
0010
0000
0000
0010
0000
0000
0001
0000
0010
0000
0100
0000
1000
0000
0000
0000
,
0010
1000
0001
1000
0010
0000
0100
0001
,
0010
0001
1000
0001
0010
0000
0110
0000
,
0100
0000
1000
0000
0001
0000
1000
0000
0010
0000
0000
0100
0010
0000
1000
0000
,
1100
0000
0000
1100
0000
0000
0000
0000
0101
0000
0000
0101
0000
0000
0000
0000
,
0001
0000
0110
0000
0010
1000
0100
0001
,
0100
1000
0001
0100
0001
0010
1000
0010
,
0001
0000
0000
0001
0000
0000
1000
0000
0100
0000
1000
0100
1000
0000
0010
0000
,
1000
0000
0000
1000
0000
0000
0001
0000
0100
0000
0001
0000
0010
0000
0000
0000
,
0110
0000
0010
0001
1000
0000
1000
0100
,
0001
0000
0001
0100
1000
0000
1001
0000
,
0001
0000
0010
0000
1000
0000
0010
0000
0001
0000
0000
0001
0000
0000
1000
0000
,
1010
0000
0000
1010
0000
0000
0000
0000
0011
0000
0000
0011
0000
0000
0000
0000
,
0100
0000
1001
0000
1000
0010
0100
0010
,
1000
0100
0001
0100
1000
0010
0001
0010
,
0100
0000
0000
0100
0000
0000
0001
0000
0010
0000
0001
0010
0001
0000
1000
0000
,
0100
0000
0000
0100
0000
0000
1000
0000
0010
0000
1000
0010
1000
0000
0001
0000
,
2002
0000
0000
0000
,
0000
0000
0000
0000
,
0000
0000
0000
0000
,
3003
0000
0000
0000
;

//---------------dance-single - ----------------
#NOTES:
     dance-single:
     :
     Easy:
     9:
     0.325244,0.431506,0.189041,0.041096,0.102739,277.000000,254.000000,23.000000,5.000000,0.000000,0.000000,0.325244,0.431506,0.189041,0.041096,0.102739,277.000000,254.000000,23.000000,5.000000,0.000000,0.000000:
0000
0000
0000
0000
,
0000
0000
0000
0000
,
0000
0000
0000
0000
,
0000
0000
0000
0000
,
0000
0000
0000
0000
,
0000
0000
0000
0000
,
0000
0000
0000
0000
,
0000
0000
0000
0000
,
1000
0000
0000
1000
0000
0000
1000
0000
,
0001
0000
0000
0001
0000
0000
0001
0000
,
0010
0000
0000
0010
0000
0000
0010
0000
,
0100
0000
0010
0000
0001
0000
1000
0001
,
1000
0000
0000
1000
0000
0000
1000
0000
,
0001
0000
0000
0001
0000
0000
0001
0000
,
0100
0000
0000
0001
0000
0000
1000
0000
0000
0100
0000
0000
0020
0000
0000
0000
,
0000
0000
0000
0030
,
1000
0000
0001
0000
1000
0100
1000
0000
,
0001
0000
1000
0000
0001
0100
0001
0000
,
1000
0000
0001
0000
1000
0100
1000
0000
,
0010
0010
0100
0100
,
0001
0000
1000
0000
0001
0010
0001
0000
,
1000
0000
0001
0000
1000
0010
1000
0000
,
0001
0000
0001
0000
0100
0010
0100
0000
,
0010
0000
0100
0000
0010
1000
0001
0000
,
1000
0000
0000
0000
,
0001
0000
0000
0000
,
1000
0000
0000
0000
,
0001
0000
0010
0100
,
0010
0010
0001
0001
,
1000
1000
0010
0010
,
1000
0001
1000
0001
0100
0010
0100
0010
,
0100
0100
0100
0100
,
0001
0000
0000
0001
0000
0000
0000
0000
0010
0000
0000
0010
0000
0000
0000
0000
,
0100
1000
1100
0100
,
1000
0010
1010
0010
,
1000
0000
0000
1000
0000
0000
0000
0000
0001
0000
0000
0001
0000
0000
0001
0000
,
1000
0000
0000
1000
0000
0000
0000
0000
0010
0000
0000
0010
0000
0000
0000
0000
,
0100
0001
0101
0100
,
0001
0010
0011
0001
,
0010
0000
0000
0010
0000
0000
0000
0000
0100
0000
0100
0000
0100
0000
0100
0000
,
1000
0000
0000
1000
0000
0000
0000
0000
0001
0000
0000
0000
1000
0000
0001
0000
,
1000
0010
0110
0100
,
0001
0000
0010
0000
0110
0000
0100
0010
,
0100
0000
0000
0100
0000
0000
0000
0000
1000
0000
0000
1000
0000
0000
1000
0000
,
0001
0000
0000
0001
0000
0000
0000
0000
0100
0000
0000
0100
0000
0000
0000
0000
,
0010
0100
0101
0001
,
0010
0100
1100
1000
,
0010
0000
0000
0010
0000
0000
0000
0000
0100
0000
0010
0000
1000
0000
0000
0000
,
0001
0000
0001
0000
,
1000
0000
1000
0000
,
0010
0000
0010
0000
,
0100
0000
0100
0010
,
1000
1000
0001
0001
,
0010
0001
0010
0001
1000
0100
1000
0000
,
1001
0000
0000
1001
0000
0000
0000
0000
0000
0000
0000
0000
0000
0000
0000
0000
,
0110
0000
0000
0110
0000
0000
0000
0000
0000
0000
0000
0000
0000
0000
0000
0000
,
1000
0000
0010
1000
0010
0000
0100
0010
,
0100
0000
0001
0100
0001
0000
1000
0000
,
0001
0000
0010
0001
0010
0000
0100
0000
,
1000
0000
0000
1000
0000
0000
0000
0000
0001
0000
0000
0001
0000
0000
0000
0000
,
1001
0000
0000
0000
1000
0001
1000
0001
,
1000
0001
1000
0000
0010
0000
0200
0300
,
0101
0000
0000
0101
0000
0000
0000
0000
0000
0000
0000
0000
0000
0000
0000
0000
,
1010
0000
0000
1010
0000
0000
0000
0000
0000
0000
0000
0000
0000
0000
0000
0000
,
1000
0000
0001
0100
0001
0000
0100
0010
,
0100
0000
0010
1000
0010
0000
1000
0000
,
0001
0000
1000
0100
1000
0000
0001
0000
,
1000
0000
0000
1000
0000
0000
0000
0000
0001
0000
0000
0001
0000
0000
0000
0000
,
1001
0000
0000
0000
0001
1000
0001
1000
,
0001
1000
0001
0000
0100
0000
0020
0030
,
1010
0000
0000
1010
0000
0000
0000
0000
0000
0000
0000
0000
0000
0000
0000
0000
,
0101
0000
0000
0101
0000
0000
0000
0000
0000
0000
0000
0000
0000
0000
0000
0000
,
2002
0000
0000
0000
,
0000
0000
0000
0000
,
0000
0000
0000
0000
,
3003
0000
0000
0000
;

//---------------dance-single - ----------------
#NOTES:
     dance-single:
     :
     Beginner:
     4:
     0.200782,0.295890,0.156164,0.000000,0.000000,171.000000,152.000000,19.000000,0.000000,0.000000,0.000000,0.200782,0.295890,0.156164,0.000000,0.000000,171.000000,152.000000,19.000000,0.000000,0.000000,0.000000:
0000
0000
0000
0000
,
0000
0000
0000
0000
,
0000
0000
0000
0000
,
0000
0000
0000
0000
,
0000
0000
0000
0000
,
0000
0000
0000
0000
,
0000
0000
0000
0000
,
0000
0000
0000
0000
,
1000
0000
0100
0000
,
1000
0000
0010
0000
,
0100
0000
0001
0000
,
0010
0010
0010
0000
,
0001
0000
1000
0000
,
0001
0000
0100
0000
,
0010
0000
0000
0100
0000
0000
1001
0000
,
0000
0000
0000
0000
,
1000
1000
0010
0000
,
1000
1000
0001
0000
,
1000
1000
0100
0000
,
0010
0000
0001
0000
,
0001
0001
0010
0000
,
0001
0001
0100
0000
,
0001
0001
1000
0000
,
0010
0010
0010
0000
,
1001
0000
0000
0000
,
1000
0000
0000
0000
,
0001
0000
0000
0000
,
0010
0000
0000
0000
,
0100
0000
0100
0000
,
0010
0000
0010
0000
,
0001
1000
0001
1000
,
0001
0000
0000
0000
,
0001
0000
1000
0000
,
0010
0000
0110
0000
,
0100
0000
0110
0000
,
1000
0000
0001
0000
,
0001
0000
0010
0000
,
0100
0000
0110
0000
,
0010
0000
0110
0000
,
0001
0000
1000
0000
,
1000
0000
0010
0000
,
0100
0000
1001
0000
,
0010
0000
1001
0000
,
1000
0000
0001
0000
,
0001
0000
0100
0000
,
0010
0000
1001
0000
,
0100
0000
1001
0000
,
0001
0000
1000
0000
,
0100
0000
0010
0000
,
0001
0000
1000
0000
,
0010
0000
1000
0000
,
0001
0000
0100
0000
,
0100
0100
0100
0000
,
0010
0010
0010
0000
,
1001
0000
1000
1000
,
1001
0000
0001
0001
,
1001
0000
0100
0100
,
0100
0000
0001
1000
,
0001
0000
0010
0010
,
0010
0000
0110
0000
,
1001
0000
1000
1000
,
0010
0010
0100
0100
,
0001
0000
1000
1000
,
1000
0000
0001
0001
,
0001
0000
0110
0100
,
0100
0000
1001
0001
,
0001
0000
0110
0010
,
0010
0000
0100
0000
,
1001
0000
0001
0001
,
0100
0100
0010
0000
,
1000
0000
0001
0001
,
0001
0000
1000
0001
,
1000
0000
0000
0000
;
