#TITLE:Souhait bleu;
#SUBTITLE:;
#ARTIST:しーけー;
#TITLETRANSLIT:;
#SUBTITLETRANSLIT:;
#ARTISTTRANSLIT:CK;
#GENRE:ALCHEMY POP;
#CREDIT:;
#MUSIC:Souhait bleu.ogg;
#BANNER:Souhait bleu.png;
#BACKGROUND:Souhait bleu-bg.png;
#CDTITLE:./CDTitles/SDVX EXCEED GEAR.png;
#SAMPLESTART:61.322;
#SAMPLELENGTH:15.000;
#SELECTABLE:YES;
#OFFSET:0.000;
#BPMS:0.000=225.000;
#STOPS:;
#BGCHANGES:;
#FGCHANGES:;

//--------------- dance-single - forcednature ----------------
#NOTES:
     dance-single:
     forcednature:
     Beginner:
     3:
     0,0,0,0,0:
0000
0000
0000
0000
,
0000
0000
0000
0000
,
0000
0000
0000
0000
,
0000
0000
0000
0000
,
0000
0000
0000
0000
,
0000
0000
0000
0000
,
0000
0000
0000
0000
,
0000
0000
0000
0000
,
1000
0000
0000
0000
,
1000
0000
0000
0001
,
0000
0000
0000
0001
,
0000
0000
0100
0000
,
0000
0000
0100
0000
,
0000
0010
0000
0000
,
0000
0010
0000
0000
,
1000
0000
0000
0000
,
0100
0000
0000
0010
,
0000
0000
0000
0001
,
0000
0000
0001
0000
,
0000
0000
0100
0000
,
0000
0010
0000
0000
,
0000
1000
0000
0000
,
0001
0000
0000
0000
,
0000
0000
0000
0000
,
1000
0000
0000
0000
,
0010
0000
0000
0000
,
0100
0000
0000
0000
,
0001
0000
0000
0000
,
1000
0000
0000
0000
,
0001
0000
0000
0000
,
0010
0000
0000
0000
,
0100
0000
0000
0000
,
1000
0000
0000
0000
,
0000
0000
0000
0000
,
0010
0000
0000
0000
,
0100
0000
0000
0000
,
0001
0000
0000
0000
,
0010
0000
0000
0000
,
0001
0000
0000
0000
,
0100
0000
0000
0000
,
0010
0000
0000
0000
,
0000
0000
0000
0000
,
1000
0000
0001
0000
,
0000
0000
0010
0000
,
0000
0000
0001
0000
,
0000
0000
0100
0000
,
0000
0000
0010
0000
,
0000
0000
1000
0000
,
0000
0000
0100
0000
,
0000
0000
1000
0000
,
0010
0000
0000
0000
,
1000
0000
0000
0000
,
0001
0000
0000
0000
,
0010
0000
0000
0000
,
0100
0000
0000
0000
,
1000
0000
0000
0000
,
0001
0000
1000
0000
,
0001
0000
0000
0000
,
0100
0000
0000
0000
,
0010
0000
1000
0000
,
0010
0000
0000
0000
,
0100
0000
0001
0000
,
0100
0000
0000
0000
,
0001
0000
0000
0000
,
1000
0000
1000
0000
,
1000
0000
0000
0000
,
0100
0000
0000
0000
,
0010
0000
0001
0000
,
0010
0000
0000
0000
,
0001
0000
0100
0000
,
0001
0000
0000
0000
,
1000
0000
0000
0000
,
0010
0000
0000
0000
,
1000
0000
0001
0000
,
1000
0000
0000
0000
,
0100
0000
0000
0000
,
0010
0000
0000
0000
,
0001
0000
0000
0000
,
0100
0000
0000
0000
,
0001
0000
0000
0000
,
1000
0000
0010
0000
,
1000
0000
0000
0000
,
0001
0000
0001
0000
,
0001
0000
0001
0000
,
0010
0000
0010
0000
,
0010
0000
0010
0000
,
0100
0000
0000
0000
,
1000
0000
0001
0000
,
1000
0000
0000
0000
,
0010
0000
0100
0000
,
0010
0000
0000
0000
,
0000
0000
0000
0000
,
1000
0000
0000
0000
,
0000
0000
0000
0000
,
0001
0000
0000
0000
,
0010
0000
0000
0001
,
0000
0000
0000
0100
,
0000
0000
0010
0000
,
0000
0000
1000
0000
,
0000
0100
0000
0000
,
0000
1000
0000
0000
,
0001
0000
0000
0000
,
0100
0000
0000
0010
,
0000
0000
0000
1000
,
0000
0000
0100
0000
,
0000
0000
0010
0000
,
0000
0001
0000
0000
,
0000
1000
0000
0000
,
0010
0000
0000
0000
,
0000
0000
0100
0000
;

//--------------- dance-single - forcednature ----------------
#NOTES:
     dance-single:
     forcednature:
     Easy:
     7:
     0,0,0,0,0:
0000
0000
0000
0000
,
0000
0000
0000
0000
,
0000
0000
0000
0000
,
0000
0000
0000
0000
,
0000
0000
0000
0000
,
0000
0000
0000
0000
,
0000
0000
0000
0000
,
0000
0000
0000
0000
,
1000
0000
0001
0000
,
0100
0000
0100
0020
,
0000
2030
0000
3100
,
0000
0100
0010
0000
,
0001
0000
1000
0000
,
1000
0020
0000
0230
,
0000
0301
0000
0001
,
0020
0000
0130
1000
,
0100
0010
0000
0002
,
0000
0103
0001
0100
,
0010
0000
2000
0000
,
3100
1000
0001
0100
,
0000
0020
0000
0130
,
0001
1000
0100
0000
,
0010
0000
0000
0000
,
0000
0000
0000
0000
0000
0000
0000
2002
,
0000
0000
0000
3003
,
0100
0000
0000
0100
0000
0000
0000
0000
,
0001
0000
1000
0100
,
1000
0000
0001
0000
,
0010
0000
0100
1000
,
0100
0000
0010
0000
,
0001
0000
0100
0001
,
0100
0000
0010
0000
,
1000
0000
0100
0010
,
0100
0000
1000
0000
,
1001
0000
0001
0100
,
0001
0000
1000
0000
,
0020
0000
1030
0100
,
1000
0000
0001
0000
,
0100
0000
0001
1000
,
0001
0000
0010
0000
,
0100
0000
0000
0000
1000
0000
0000
0010
,
0000
0020
0000
0000
,
0130
0000
0002
0000
,
1003
0000
0200
0000
,
0310
0000
0002
0000
,
0000
0003
0200
0000
,
0320
0000
0030
1000
,
0002
0000
0023
0000
,
0230
0000
2300
0000
,
0010
0010
3010
0000
,
1000
0100
1000
0000
,
0001
0100
0001
0000
,
0020
0000
0230
0000
,
1300
0001
1000
0000
,
0010
0100
0010
0100
,
0001
1000
0001
1000
,
0100
0000
0000
0010
0000
0000
0000
0110
,
0000
0000
0001
1000
,
0002
0000
0103
0000
,
0010
0000
1000
0001
,
2000
0000
3100
0000
,
0020
0000
0032
0000
,
0203
0000
0310
1000
,
0010
0000
0100
0000
,
0001
0000
0000
1000
0000
0000
0000
1001
,
0000
0000
1000
0100
,
0020
0000
0031
0000
,
1000
0000
0010
0100
,
0020
0000
1030
0000
,
0001
0000
1000
0100
,
2000
0000
3001
0100
,
0002
0000
0013
0000
,
0110
0000
0100
0000
,
1000
0001
2000
0000
,
3010
0000
0100
0001
,
0100
0010
1000
0000
,
0200
0000
0320
0000
,
0031
1000
0001
0000
,
0200
0000
0310
0000
,
1000
0000
0001
0000
,
0010
0000
0000
0100
0000
0000
0000
0110
,
0000
0000
0200
0000
,
1300
0001
1000
0001
,
0100
0010
0100
0010
,
1000
0001
1000
0001
,
0010
0100
0010
0100
,
2000
0000
3001
0100
,
0001
1000
0010
0000
,
1002
0000
1003
0100
,
0010
0001
0200
0000
,
0310
0000
0000
0000
,
0000
0000
0000
0000
0000
0000
0000
2002
,
0000
0000
0000
0000
,
0000
0000
0000
3003
,
1000
0000
0001
0000
,
0100
0000
0010
2000
,
0000
3002
0000
0013
,
0000
0100
0020
0000
,
0031
0000
1000
0000
,
0010
0200
0000
0302
,
0000
1003
0000
0100
,
0010
0000
0010
0001
,
0010
0000
0010
0100
,
0000
0100
1000
0100
,
0000
0100
1000
0000
,
1000
0010
1000
0000
,
1000
0010
0000
0010
,
0100
0010
0000
0010
,
0100
0000
0000
0000
,
0000
0000
1001
0000
;

//--------------- dance-single - forcednature ----------------
#NOTES:
     dance-single:
     forcednature:
     Medium:
     13:
     0,0,0,0,0:
0000
0000
0000
0000
,
0000
0000
0000
0000
,
0000
0000
0000
0000
,
0000
0000
0000
0000
,
0000
0000
0000
0000
,
0000
0000
0000
0000
,
0000
0000
0000
0000
,
0000
0000
0000
1001
,
0001
0000
0100
0001
0000
1000
0000
0010
,
0000
1000
0000
0001
0000
0010
0200
0000
,
0000
2300
0000
0000
0000
0000
0000
0000
,
3000
0000
0000
0001
0200
0000
0300
0000
,
0010
0000
1000
0001
0000
0010
0000
0001
,
0000
0100
0020
0000
1000
0000
0000
0000
,
1000
0000
0000
0000
0130
0000
0000
0001
,
2000
0000
0100
0000
,
0010
0000
0000
3002
0000
0000
0203
0000
,
0000
0010
0000
0301
,
1000
0000
0010
0000
0100
0000
0001
0010
,
0002
1000
0000
1003
,
1000
0020
0100
0000
,
0130
0000
0000
0001
1000
0000
1000
0000
,
0100
0000
0000
0010
0000
0000
0001
0000
,
0000
0000
0100
0000
0000
0000
0000
2002
,
0000
0000
0000
3003
,
0100
0000
0000
0010
0000
0000
1001
0000
,
1000
0000
0001
0010
0000
0100
0000
1000
,
0000
0001
0100
0000
0010
0000
1000
0000
,
0001
0000
0010
0000
0100
0010
0100
0000
,
1000
0001
0200
0000
,
0310
0000
1000
0001
0000
0010
0000
0100
,
0000
0000
0010
0000
0001
1000
0001
0000
,
0100
0010
1000
0010
,
0100
0000
0001
0000
2000
0000
3100
0010
,
0100
0000
1000
0001
0000
0010
0000
0100
,
0000
0010
0001
1000
,
0010
0100
0001
0100
0010
1000
0000
0000
,
0001
1000
0100
0010
,
0001
0000
0000
0000
0100
0000
0010
1000
,
0000
0001
0000
0010
0000
0000
0100
0000
,
1000
0000
0010
1000
0010
0000
0100
0010
,
0000
0010
2000
3000
,
1000
0002
0203
0320
,
0000
2030
3200
0320
,
0000
0230
2300
3002
,
0000
0003
0200
0320
,
0000
0000
0030
2000
,
3002
0023
0230
2300
,
0000
0000
3000
0010
0200
0000
0000
0000
,
0001
0000
0010
0310
,
1000
0000
0001
0010
0000
0100
1000
0000
,
0001
0100
0010
1000
,
0200
0000
0000
0320
0000
0000
0030
0000
,
0001
0000
0100
0001
0000
1000
0010
0000
,
1000
1100
0001
0101
,
1000
1010
0001
0011
,
1000
0001
0000
0100
0000
0010
0000
0110
,
0000
1001
0002
2003
,
3010
0000
0100
0000
0001
0010
0001
0010
,
0200
2300
3002
0203
,
0310
0000
1000
0000
0100
0010
0100
0010
,
0000
0001
0000
1000
0000
0010
0000
0200
,
0000
0000
0000
0000
0301
1000
0001
0000
,
0020
0230
2300
3020
,
1030
0001
0000
0010
0000
0100
0000
0220
,
0000
0330
0002
2003
,
3010
0000
0100
0000
0001
0100
0001
0100
,
0020
2030
3002
0023
,
0130
0000
1000
0000
0010
0100
0010
2000
,
0000
3001
0020
0230
,
1300
0000
1010
0000
1010
0000
0001
0100
,
0000
0001
0010
0000
0100
2000
0100
0000
,
3010
0000
0100
0001
0000
0010
0000
0220
,
0000
0330
0000
2002
0000
0000
3003
0000
,
1000
0000
0100
1000
0000
0001
0100
0000
,
0010
0000
1000
0001
0000
0010
0001
0000
,
0200
0000
0300
0020
0000
0030
2000
0000
,
0000
3000
0001
0000
0010
0100
0010
0000
,
0200
0000
0000
0300
1000
0001
1000
0000
,
0020
0230
0302
0023
,
0130
1000
0000
0001
0000
0100
0000
2002
,
0000
3003
2000
3002
,
0103
0001
0100
0000
0100
0010
0100
0000
,
0100
1000
0100
0000
0100
0010
0100
0000
,
0010
1000
0010
0000
0010
0100
0010
0000
,
0010
0001
0010
0000
0010
0100
0010
0000
,
1001
0000
1000
0100
0000
0010
0001
0000
,
1000
0010
1000
0000
0001
0010
0001
0000
,
0100
0000
0010
1000
0000
0100
0000
0110
,
0000
0010
0001
0000
0100
0000
0100
0000
,
0020
0000
0030
2000
0000
3000
0002
0000
,
0000
0000
0000
0000
0000
0000
0003
0000
0020
0000
0000
0030
0000
0000
2002
0000
,
0000
0000
0000
0000
,
0000
0000
0000
3003
,
1000
0000
0100
0010
0000
0001
0000
0100
,
0000
0010
0000
1000
0000
0001
0020
0000
,
0000
0230
0000
0000
1000
0000
0000
0000
,
0310
0000
0000
0001
2000
0000
3000
0000
,
0001
0000
0100
0010
0000
1000
0000
0001
,
0000
0010
0200
0000
1000
0000
0000
0000
,
1000
0000
0000
0000
0310
0000
0100
0010
,
0001
0000
0001
0100
0001
0000
0001
1000
,
0001
0000
0001
0010
0001
0000
1000
0000
,
1000
0100
1000
0000
1000
0001
1000
0000
,
1000
0010
1000
0000
0100
0000
0100
0001
,
0100
0000
0100
0010
0100
0000
0100
1000
,
0100
0000
0010
0000
0010
1000
0010
0000
,
0010
0100
0010
0000
0010
0001
0010
0000
,
0100
0000
0000
0000
,
0000
0000
0000
0000
1000
0001
0000
0000
;

//--------------- dance-single - forcednature ----------------
#NOTES:
     dance-single:
     forcednature:
     Hard:
     16:
     0,0,0,0,0:
0000
0000
0000
0000
,
0000
0000
0000
0000
,
0000
0000
0000
0000
,
0000
0000
0000
0000
,
0000
0000
0000
0000
,
0000
0000
0000
0000
,
0000
0000
0000
0000
,
0000
0000
0000
0110
,
1000
0100
1000
0001
0000
0010
0100
1000
,
0000
0001
0100
0010
0000
1000
0002
0000
,
0013
0200
0000
0301
0100
1000
0000
1000
,
0010
0001
0000
0010
0020
0000
0130
0001
,
1000
0001
0010
0100
0000
0010
0001
1000
,
0000
0010
0200
0000
0001
0000
0310
0100
,
0001
0100
0000
0010
1000
1000
0001
0010
,
0200
1000
0010
0001
,
0310
0000
0100
1000
0100
1000
0020
0000
,
1000
0000
0100
0000
0001
0000
0130
0010
,
1000
0001
0010
0001
1000
0000
0010
0100
,
0001
0100
0010
1000
0000
0001
0010
0100
,
0010
0100
1000
0000
0010
0100
0001
0100
,
0010
1000
0000
0100
0010
0010
0100
0100
,
1000
0001
0000
0010
0000
0001
0100
0000
,
0000
0000
0010
1000
0001
0010
0000
2002
,
0000
0000
0000
3003
,
1000
1000
0000
0001
0001
0000
1001
0000
,
1000
0010
0100
0010
0000
1000
0001
0010
,
0000
0100
1000
0000
0001
0100
0001
0010
,
0100
0000
0110
0000
0010
0001
1000
0010
,
0000
0100
0001
0000
1000
0000
0110
0000
,
0001
0010
0001
0100
0000
0010
1000
0001
,
0000
0010
0100
0000
1000
0001
0100
0010
,
1000
0000
1001
0000
0002
0000
0103
0020
,
0000
0000
0000
0000
0000
0000
2030
0000
0000
0000
0000
0000
3001
0000
0010
0000
0001
0000
0010
0000
0000
0100
0000
0000
,
0000
1000
0001
0100
0001
0010
0100
1000
,
0000
0010
0100
0000
0001
0010
0001
0100
,
0000
0001
0010
1000
0001
0100
1000
0010
,
0000
0100
0001
1000
0200
0000
0310
0010
,
0001
0000
1001
0000
1000
0010
0100
0010
,
0000
1000
0001
0020
0000
0130
0010
0000
,
0001
0100
0010
0100
1000
0100
0001
1001
,
0000
1000
0100
0000
0010
0000
0010
0000
,
1001
0002
0203
0320
,
1000
0230
0302
2003
,
0100
3020
0230
0302
,
1000
0003
0010
0020
,
0100
0100
0031
0020
,
0230
0000
0000
1300
0010
0100
0002
0000
0000
0010
0000
0000
,
1000
0000
0003
1000
0200
0000
0010
0000
,
0000
0310
0110
0110
,
1000
0001
0100
0001
0000
0010
0100
1000
,
0001
1000
0010
0100
0001
0010
0001
0100
,
0010
0000
0010
2000
0000
0100
0100
0000
,
3001
1000
0010
0200
0000
0301
0010
0100
,
1100
0101
1100
0101
,
1010
0011
1010
0011
,
0001
1000
0000
1100
0000
0101
0000
0110
,
0000
1001
2000
3002
,
0103
0010
1000
0010
0100
0001
1000
0001
,
0010
0100
0000
0000
0100
1000
0000
0000
1000
0010
0000
0000
0010
0100
0000
0000
,
0001
0010
0001
0100
0010
1000
0001
0010
,
0100
1000
0000
1010
0000
0101
0000
0012
,
0000
0100
0100
0000
0013
0001
0010
0100
,
1000
0001
0100
0000
0010
1000
0001
0000
,
1000
1100
0000
0101
0000
0110
0000
1001
,
0000
0010
0110
0000
0002
0000
2003
0000
,
3001
0010
0100
0010
0001
1000
0010
0100
,
0001
1000
0000
0000
1000
0100
0000
0000
0100
0010
0000
0000
0010
0001
0000
0000
,
1000
0010
1000
0001
0100
1000
0100
0001
,
0010
0001
0000
0000
0001
0100
0000
0000
0100
0010
0000
0000
0010
1000
0000
0000
,
0001
0010
0001
1000
0001
0100
0001
1001
,
0000
0100
0110
0000
1000
0001
0001
0010
,
0100
1000
0001
0101
0000
1100
0000
1001
,
0000
0100
0010
0110
0000
1000
0001
0001
,
1000
0010
0100
0010
1000
0001
0010
0100
,
0010
0001
0100
0001
0000
1000
0010
1000
,
0002
0000
0013
0200
0000
1300
0002
0000
,
0100
0000
0000
0000
0000
0000
0013
0000
0000
0001
0000
0000
1000
0000
0010
0000
1000
0000
0001
0000
0100
0000
0001
0000
,
0020
0000
0130
1000
0001
1000
0010
0200
,
0001
0320
2030
3002
,
0013
0011
0000
1010
0000
0110
0000
1001
,
0000
1000
0001
0000
0200
0000
0320
0000
,
1030
0100
0010
0100
0001
0100
0010
0100
,
1000
0010
1000
0010
0100
0010
0100
0001
0100
0001
1000
0001
,
1000
0010
0100
0010
0001
0010
0100
0010
,
1000
0100
1000
0100
0010
0100
0010
0001
0010
0001
1000
0001
,
0200
0000
0310
1000
0001
0010
0001
0100
,
0010
0000
0001
0000
0010
0000
1000
0010
1000
0000
0001
0000
0010
0000
0100
0000
,
1000
0010
0010
0100
0000
0101
0000
1100
,
0000
0010
1001
0000
1000
1000
0001
0001
,
0200
0000
0300
0002
0000
0003
2000
0000
,
0000
0000
0000
0000
0000
0000
3000
0000
0020
0000
0000
0030
0000
0000
2002
0000
,
0000
0000
0000
0000
,
0000
0000
0000
3003
,
0001
0100
0001
1000
0010
0100
0001
1000
,
0000
0001
0010
0100
0000
0010
0002
0000
,
0103
0020
0000
1030
0100
0001
0000
1000
,
0010
0000
0001
0000
0000
0000
0010
0001
0020
0000
0000
0000
0130
0000
1000
0000
,
0001
1000
0010
0100
0000
0001
0010
0001
,
0000
0100
0020
0000
0001
0000
1030
0010
,
0100
0001
0000
0010
0100
0100
1000
0100
,
0010
0001
0010
0001
0100
1000
0100
0001
,
1000
0010
1000
0010
1000
0100
0001
0100
,
0010
0100
1000
0001
1000
0010
0100
0001
,
0100
1000
0100
0001
0020
0000
0130
0010
,
0001
0010
0100
1000
0010
1000
0001
0100
,
0010
0001
0020
0000
1000
0000
0130
0010
,
1000
0000
0001
0000
0010
0000
0100
0000
0010
0000
0001
0000
1000
0000
0001
1000
,
0001
0000
0000
0000
,
0000
0000
0000
0000
0100
1001
0000
0000
;

//--------------- dance-double - forcednature ----------------
#NOTES:
     dance-double:
     forcednature:
     Easy:
     7:
     0,0,0,0,0:
00000000
00000000
00000000
00000000
,
00000000
00000000
00000000
00000000
,
00000000
00000000
00000000
00000000
,
00000000
00000000
00000000
00000000
,
00000000
00000000
00000000
00000000
,
00000000
00000000
00000000
00000000
,
00000000
00000000
00000000
00000000
,
00000000
00000000
00000000
00000000
,
00001000
00000000
00010000
00000000
,
00000100
00000000
00000000
00002000
,
00000000
00003002
00000000
00000103
,
00000000
00000000
00000010
00000000
,
00010000
00000000
00001000
00000000
,
00000000
00200000
00000000
00320000
,
00000000
01030000
00000000
00000000
,
00200000
00000000
10300000
00100000
,
10000000
00000000
00000000
02000000
,
00000000
03100000
01000000
00100000
,
00000000
00000000
00002000
00000000
,
00013000
00001000
00010000
00000000
,
00000000
00000020
00000000
00001030
,
00000010
00001000
00000000
00000000
,
00000001
00000000
00000000
00000000
,
00000000
00000000
00000000
00000000
00000000
00000000
00000000
00002002
,
00000000
00000000
00000000
00003003
,
00000010
00000000
00000000
00000010
00000000
00000000
00000000
00000000
,
00001000
00000000
00000100
00000000
,
00010000
00000000
00001000
00000000
,
00010000
00000000
00001000
00000000
,
01000000
00000000
00010000
00000000
,
10000000
00000000
00010000
00000000
,
00100000
00000000
00010000
00000000
,
00100000
00000000
00001000
00000000
,
00010000
00000000
00001000
00000000
,
00011000
00000000
00010000
00000000
,
00000100
00000000
00001000
00000000
,
00000020
00000000
00001030
00000000
,
00000010
00000000
00000100
00000000
,
00000001
00000000
00001000
00000000
,
00000100
00000000
00001000
00000000
,
00000100
00000000
00000000
00000000
00010000
00000000
00000000
00001000
,
00000000
00002000
00000000
00000000
,
01003000
00000000
00020000
00000000
,
00030000
00000000
20000000
00000000
,
30000000
00000000
02000000
00000000
,
03000000
00000000
00200000
00000000
,
00320000
00000000
00030000
00000000
,
02000000
00000000
03002000
00000000
,
00023000
00000000
00030020
00000000
,
00001000
00000000
00001030
00000000
,
00000110
00000000
00000100
00000000
,
00000001
00000000
00001000
00000000
,
00000200
00000000
00002300
00000000
,
00003100
00000000
00010000
00000000
,
00001000
00010000
00001000
00010000
,
00001000
01000000
00001000
01000000
,
00010000
00000000
00000000
10000000
00000000
00000000
00000000
10010000
,
00000000
00000000
20000000
00000000
,
30020000
00000000
01030000
00000000
,
00001000
00000000
00010000
00000000
,
00000200
00000000
00001300
00000000
,
00000200
00000000
00000320
00000000
,
00000032
00000000
00000013
00000000
,
00000100
00000000
00001000
00000000
,
00000001
00000000
00000000
00001000
00000000
00000000
00000000
00001001
,
00000000
00000000
00002000
00000000
,
00003200
00000000
00010300
00000000
,
00001000
00000000
01000000
00000000
,
00020000
00000000
10030000
00000000
,
00010000
00000000
00100000
00000000
,
02000000
00000000
13000000
00000000
,
02000000
00000000
03100000
00000000
,
01100000
00000000
00100000
00000000
,
00001000
00000000
00020000
00000000
,
00030010
00000000
00001000
00000000
,
00000010
00000000
00000100
00000000
,
00000002
00000000
00002003
00000000
,
00003100
00000000
00001000
00000000
,
00000200
00000000
00010300
00000000
,
00001000
00000000
00010000
00000000
,
00001000
00000000
00000000
00010000
00000000
00000000
00000000
00011000
,
00000000
00000000
02000000
00000000
,
03010000
00000000
10000000
00010000
,
10000000
00000000
00010000
00000000
,
01000000
00000000
00001000
01000000
,
00001000
00000000
01000000
00000000
,
00020000
00000000
00130000
00000000
,
00001000
00010000
00001000
00000000
,
00022000
00000000
00033000
00000000
,
00001000
00000000
00020000
00000000
,
00030100
00000000
00000000
00000000
,
00000000
00000000
00000000
00000000
00000000
00000000
00000000
00002002
,
00000000
00000000
00000000
00000000
,
00000000
00000000
00000000
00003003
,
00001000
00000000
00000100
00000000
,
00010000
00000000
00000000
00002000
,
00000000
00023000
00000000
00031000
,
00000000
00000000
02000000
00000000
,
03010000
00000000
10000000
00000000
,
00000000
02000000
00000000
03200000
,
00000000
01300000
00000000
00000000
,
00100000
00000000
00010000
00100000
,
00010000
00000000
00000000
00100000
,
00000000
00001000
00100000
00001000
,
00000000
00000000
00010000
00000000
,
00001000
00010000
00001000
00000000
,
00000000
00010000
00000000
00000010
,
00010000
00000010
00000000
00000000
,
00001000
00000000
00000000
00000000
,
00000000
00000000
00001001
00000000
;

//--------------- dance-double - forcednature ----------------
#NOTES:
     dance-double:
     forcednature:
     Medium:
     13:
     0,0,0,0,0:
00000000
00000000
00000000
00000000
,
00000000
00000000
00000000
00000000
,
00000000
00000000
00000000
00000000
,
00000000
00000000
00000000
00000000
,
00000000
00000000
00000000
00000000
,
00000000
00000000
00000000
00000000
,
00000000
00000000
00000000
00000000
,
00000000
00000000
00000000
00000000
00000000
00010000
00001000
00000000
,
00010000
00000000
00000100
00001000
00000000
00000001
00000000
00000100
,
00000000
00000010
00000000
00010000
00000000
00001000
00200000
00000000
,
00000000
00320000
00000000
00000000
00000000
00000000
00000000
00000000
,
00030000
00000000
02000000
03000000
,
00100000
00000000
10000000
00010000
00000000
00100000
00000000
00001000
,
00000000
00010000
00000020
00000000
00001000
00000000
00000000
00000000
,
00001000
00000000
00000130
00000000
,
00000002
00000000
00000010
00000000
,
00000010
00000000
00000000
00002003
00000000
00000000
00003200
00000000
,
00000000
00010000
00000000
00001300
,
00000100
00000000
00010000
00000000
00001000
00000000
01000000
00010000
,
02000000
00100000
00000000
03100000
,
00100000
20000000
00010000
00000000
,
30010000
00000000
00000000
10000000
01000000
00000000
01000000
00000000
,
00100000
00000000
00000000
00001000
00000000
00000000
00010000
00000000
,
00000000
00000000
00000010
00000000
00000000
00000000
00000000
00002002
,
00000000
00000000
00000000
00003003
,
00000100
00000000
00000000
00000100
00000000
00000000
00000110
00000000
,
00001000
00000000
00000100
00010000
00000000
00001000
00000000
00100000
,
00000000
00001000
00010000
00000000
00000010
00000000
00001000
00000000
,
00000010
00000000
00010000
00000000
00001000
01000000
00001000
00000000
,
00010000
00001000
00200000
00000000
,
01300000
00000000
10000000
00010000
00000000
10000000
00000000
00100000
,
00000000
00000000
01000000
00000000
00010000
10000000
00010000
00000000
,
00100000
00001000
00010000
00000010
,
00001000
00000000
00000010
00000000
00000200
00000000
00000301
00000100
,
00000001
00000000
00000010
00000001
00000000
00001000
00000000
00000010
,
00000000
00010000
00001000
00100000
,
00010000
01000000
00001000
00010000
00000010
00001000
00000000
00000000
,
00000100
00010000
00001000
01000000
,
00010000
00000000
00000000
00000000
00100000
00000000
01000000
10000000
,
00000000
00010000
00000000
01000000
00000000
00000000
00001000
00000000
,
00010000
00000000
00000100
00000000
00001000
00000000
00000001
00000100
,
00000000
00000100
00000020
00000030
,
00010000
00002000
00203000
00320000
,
00000000
02030000
03002000
00203000
,
00000000
02300000
23000000
30020000
,
00000000
00030000
02000000
03002000
,
00000000
00000000
00003000
00020000
,
00030200
00000320
00000032
00000203
,
00000000
00000000
00000300
00000010
00002000
00000000
00000000
00000000
,
00000001
00000000
00000100
00003100
,
00010000
00000000
00001000
01000000
00000000
00010000
01000000
00000000
,
00100000
10000000
00010000
10000000
,
02000000
00000000
00000000
03200000
00000000
00000000
00300000
00000000
,
00010000
00000000
01000000
00010000
00000000
01000000
00001000
00000000
,
00100000
00100000
00010000
00010000
,
00001000
00001000
00000100
00000100
,
00001000
00000001
00000000
00000100
00000000
00001000
00000000
00010000
,
00000000
00011000
00002000
00023000
,
00031000
00000000
01000000
00000000
00010000
10000000
00010000
10000000
,
02000000
03200000
00320000
02030000
,
03001000
00000000
00010000
00000000
00000100
00001000
00000100
00001000
,
00000000
00000001
00000000
00000100
00000000
00000010
00000000
00002000
,
00000000
00000000
00000000
00000000
00003100
00001000
00000100
00000000
,
00020000
00032000
02003000
03020000
,
00130000
01000000
00000000
10000000
00000000
00100000
00000000
02200000
,
00000000
03300000
02000000
03020000
,
00130000
00000000
00001000
00000000
00010000
00000010
00010000
00000010
,
00002000
00003020
00000230
00000302
,
00001003
00000000
00000100
00000000
00010000
00001000
00010000
00000020
,
00000000
00001030
00000200
00020300
,
00031000
00000000
00001000
00000000
00001000
00000000
00001000
01000000
,
00000000
01000000
00001000
00000000
00200000
00000000
00010000
00000000
,
00310000
00000000
00100000
01000000
00000000
10000000
00000000
20020000
,
00000000
30030000
00000000
02200000
00000000
00000000
03300000
00000000
,
10000000
00000000
01000000
10000000
00000000
00010000
00100000
00000000
,
00001000
00000000
00010000
00000010
00000000
00001000
00000010
00000000
,
00000200
00000000
00000300
00000002
00000000
00000003
00002000
00000000
,
00000000
00003000
00000100
00000000
00001000
00000100
00001000
00000000
,
00000020
00000000
00000000
00000030
00010000
00000010
00010000
00000000
,
00002000
00203000
00320000
02030000
,
03100000
10000000
00000000
00010000
00000000
00100000
00000000
02200000
,
00000000
03300000
00020000
02030000
,
03001000
00010000
00001000
00000000
00001000
00100000
00001000
00000000
,
00001000
00010000
00001000
00000000
00001000
01000000
00001000
00000000
,
00010000
00001000
00010000
00000000
00010000
00000010
00010000
00000000
,
00010000
00001000
00010000
00000000
00010000
00000100
00010000
00000000
,
00011000
00000000
00001000
01000000
00000000
00010000
01000000
00000000
,
00100000
10000000
00100000
00000000
10000000
01000000
10000000
00000000
,
01000000
00000000
00010000
00001000
00000000
00010000
00000000
00011000
,
00000000
00001000
00010000
00000000
00000200
00000000
00000000
00000000
,
00002300
00000000
00003000
00000002
00000000
00000003
00000200
00000000
,
00000000
00000000
00000000
00000000
00000000
00000000
00000300
00000000
00000020
00000000
00000000
00000030
00000000
00000000
00002002
00000000
,
00000000
00000000
00000000
00000000
,
00000000
00000000
00000000
00003003
,
00001000
00000000
00000100
00010000
00000000
00001000
00000000
00100000
,
00000000
00001000
00000000
00010000
00000000
00000010
00002000
00000000
,
00000000
00003002
00000000
00000000
00000010
00000000
00000000
00000000
,
00000103
00000000
00000000
00000001
00002000
00000000
00003000
00000000
,
00000100
00000000
00010000
00001000
00000000
01000000
00000000
00010000
,
00000000
10000000
00200000
00000000
10000000
00000000
00000000
00000000
,
10000000
00000000
01300000
01000000
,
00001000
00000000
00001000
01000000
00001000
00000000
00001000
00010000
,
00001000
00000000
00001000
00100000
00001000
00000000
00010000
00000000
,
00010000
00000100
00010000
00000000
00010000
00001000
00010000
00000000
,
00010000
00000010
00010000
00000000
00001000
00000000
00001000
00100000
,
00001000
00000000
00001000
00010000
00001000
00000000
00001000
00000100
,
00001000
00000000
00010000
00000000
00010000
00000010
00010000
00000000
,
00010000
00001000
00010000
00000000
00010000
01000000
00010000
00000000
,
00001000
00000000
00000000
00000000
,
00000000
00000000
00000000
00000000
00010000
00001000
00000000
00000000
;

//--------------- dance-double - forcednature ----------------
#NOTES:
     dance-double:
     forcednature:
     Hard:
     16:
     0,0,0,0,0:
00000000
00000000
00000000
00000000
,
00000000
00000000
00000000
00000000
,
00000000
00000000
00000000
00000000
,
00000000
00000000
00000000
00000000
,
00000000
00000000
00000000
00000000
,
00000000
00000000
00000000
00000000
,
00000000
00000000
00000000
00000000
,
00000000
00000000
00000000
00000000
00000000
00001000
00010000
00000000
,
00100000
10000000
01000000
10000000
00000000
00100000
01000000
00001000
,
00000000
00010000
00000010
00000100
00000000
00000001
00002000
00000000
,
00003100
00020000
00000000
00031000
00100000
01000000
00000000
00100000
,
00001000
00000000
01000000
00000000
00000000
00000000
00100000
10000000
00200000
00000000
00000000
00000000
01300000
00000000
00000000
00000000
,
00001000
00010000
00000100
00001000
00000000
00000010
00010000
00001000
,
00000000
00000010
00000002
00000000
00001000
00000000
00000103
00000001
,
00000100
00001000
00000000
00001000
00010000
00010000
00001000
01000000
,
00020000
10000000
00100000
10000000
,
01030000
00000000
00010000
01000000
00010000
01000000
00002000
00000000
,
00010000
00000000
00100000
00000000
00010000
00000000
01003000
00001000
,
00010000
00000010
00010000
00001000
00100000
00000000
00010000
01000000
,
00100000
01000000
00010000
10000000
00000000
01000000
00010000
00001000
,
00010000
00001000
00000010
00000000
00000100
00001000
00000010
00010000
,
00001000
00000010
00000000
00000001
00000001
00000001
00000001
00000001
,
00000100
00001000
00000000
00010000
00000000
00001000
00010000
00000000
,
00000000
00000000
00100000
10000000
00010000
10000000
00000000
20020000
,
00000000
00000000
00000000
30030000
,
10000000
01000000
00000000
00010000
01000000
00000000
01100000
00000000
,
00100000
00001000
01000000
00010000
00000000
00100000
01000000
10000000
,
00000000
00100000
10000000
00000000
01000000
00010000
00001000
00010000
,
00001000
00000000
00010100
00000000
00000100
00001000
00000010
00010000
,
00000000
00001000
00000010
00000000
00000002
00000000
00000100
00000000
,
00000013
00000001
00001000
00000010
00000000
00010000
00001000
00100000
,
00000000
01000000
10000000
00000000
00010000
01000000
00001000
00010000
,
00000010
00000000
00001001
00000000
00002000
00000000
00003100
00020000
,
00000000
00000000
00000000
00000000
00000000
00000000
00032000
00000000
00000000
00000000
00000000
00000000
01003000
00000000
00010000
00000000
01000000
00000000
00010000
00000000
00000000
00100000
00000000
00000000
,
00000000
01000000
10000000
01000000
00010000
00001000
00010000
00000010
,
00000000
00001000
00000100
00000000
00000010
00000001
00001000
00000001
,
00000000
00000100
00001000
00010000
01000000
00010000
00001000
00100000
,
00000000
00010000
01000000
00000000
00200000
00000000
10300000
01000000
,
00100000
00000000
10010000
00000000
00010000
00100000
01000000
00100000
,
00000000
00001000
00010000
00000020
00000000
00001030
00000010
00000000
,
00000100
00001000
00000100
00000001
00000010
00000001
00000010
00001000
,
00000000
00010000
00001000
00000000
01000000
00000000
01000000
00000000
,
10010000
00020000
02030000
03002000
,
00100000
00023000
00030020
00002030
,
00000100
00003002
00000203
00002300
,
00010000
00003000
00100000
00200000
,
00010000
00000000
01300000
20000000
,
30020000
00000000
00000000
01030000
00010000
01000000
00002000
00000000
00000000
00010000
00000000
00000000
,
00100000
00000000
00003000
00010000
00000020
00000000
00001000
00000000
,
00000000
00001030
00000110
00000110
,
00000100
00000001
00001000
00000001
00000000
00000010
00000100
00010000
,
00001000
00100000
01000000
00100000
00010000
10000000
00100000
10000000
,
01000000
00000000
01000000
00020000
00000000
00001000
00001000
00000000
,
00030100
00001000
00000010
00020000
00000000
00031000
01000000
00100000
,
10000000
00010000
00001000
00000001
,
00000001
00001000
00010000
10000000
,
01000000
00010000
00000000
00101000
00000000
00010010
00000000
00011000
,
00000000
00000110
00002000
00003002
,
00000103
00000001
00000010
00000001
00001000
00000010
00010000
00000010
,
00001000
00000100
00000000
00000000
00000100
00010000
00000000
00000000
00010000
00001000
00000000
00000000
00001000
01000000
00000000
00000000
,
00010000
10000000
00100000
10000000
01000000
00100000
00010000
00100000
,
00001000
00010000
00000000
00010010
00000000
00001010
00000000
00001200
,
00000000
00000010
00000010
00000000
00010300
00000100
00001000
00000100
,
00010000
00000010
00001000
00000000
00010000
01000000
00001000
00000000
,
00100000
00110000
00000000
00011000
00000000
00001100
00000000
00010010
,
00000000
01000000
01001000
00000000
00020000
00000000
20030000
00000000
,
31000000
00100000
00010000
00100000
00001000
00010000
00000010
00010000
,
00001000
00100000
00000000
00000000
00100000
00010000
00000000
00000000
00010000
10000000
00000000
00000000
10000000
00100000
00000000
00000000
,
01000000
00010000
01000000
00001000
00100000
00010000
00100000
01000000
,
10000000
00100000
00000000
00000000
00100000
01000000
00000000
00000000
01000000
00001000
00000000
00000000
00001000
00010000
00000000
00000000
,
00000100
00001000
00000100
00000010
00000100
00010000
00001000
00011000
,
00000000
01000000
01100000
00000000
00010000
10000000
10000000
01000000
,
00100000
00001000
00010000
00010100
00000000
01001000
00000000
00011000
,
00000000
00000100
00000010
00000110
00000000
00000001
00001000
00001000
,
00000010
00000100
00001000
00000200
00000000
00000301
00000010
00000001
,
00001000
00000010
00001000
00000200
00000000
00010300
00001000
00010000
,
00200000
00000000
01300000
00020000
00000000
10030000
02000000
00000000
,
00100000
00000000
00000000
00000000
00000000
00000000
13000000
00000000
00000000
01000000
00000000
00000000
00100000
00000000
00010000
00000000
00100000
00000000
00001000
00000000
00010000
00000000
00001000
00000000
,
02000000
00000000
03010000
01000000
00001000
00010000
00000100
00020000
,
00001000
00030020
00002030
00003002
,
00000013
00000011
00000000
00000110
00000000
00010100
00000000
00011000
,
00000000
00001000
01000000
00000000
00020000
00000000
20030000
00000000
,
31000000
00010000
00001000
00010000
00000010
00010000
00001000
00010000
,
00000100
00001000
00000100
00010000
00001000
00100000
00002000
00000000
,
00003100
00001000
00010000
00001000
00100000
00001000
00010000
00001000
,
01000000
00010000
01000000
00001000
00010000
00000010
00010000
00001000
,
00000020
00000000
00000130
00001000
00000100
00000010
00000002
00000000
,
00000013
00000000
00000100
00000000
00001000
00000000
00000100
00010000
00000100
00000000
00010000
00000000
00001000
00000000
01000000
00000000
,
00010000
10000000
10000000
01000000
00000000
01100000
00000000
00110000
,
00000000
00001000
00011000
00000000
00010000
00000100
00010000
00000100
,
00002000
00000000
00003000
00000002
00000000
00000003
00000200
00000000
,
00000000
00000000
00000000
00000000
00000000
00000000
00000300
00000000
00002000
00000000
00000000
00003000
00000000
00000000
00022000
00000000
,
00000000
00000000
00000000
00000000
,
00000000
00000000
00000000
00033000
,
00010000
00100000
01000000
00100000
00000000
10000000
00010000
00100000
,
00000000
01000000
00010000
00001000
00000000
00100000
00020000
00000000
,
00031000
00000200
00000000
00010300
00001000
00000100
00000000
00000001
,
00000010
00000000
00001000
00000000
00000000
00000000
00000010
00000001
00000020
00000000
00000000
00000000
00000130
00000000
00000000
00000000
,
00000010
00000100
00010000
00000100
00000000
00001000
00000010
00001000
,
00000000
00010000
02000000
00000000
00100000
00000000
03010000
01000000
,
00100000
10000000
00000000
00010000
10000000
10000000
01000000
10000000
,
00100000
01000000
00100000
01000000
00001000
00010000
00001000
00010000
,
00000010
00000100
00000010
00000100
00001000
00010000
01000000
00100000
,
01000000
00100000
00001000
00010000
00001000
00010000
00000100
00000010
,
00000100
00000010
00001000
00010000
00200000
00000000
10300000
00010000
,
10000000
01000000
00010000
00001000
00010000
00000100
00001000
00000100
,
00010000
00000010
00002000
00000000
00000001
00000000
00003100
00001000
,
00000010
00000000
00010000
00000000
00001000
00000000
00100000
00000000
00010000
00000000
01000000
00000000
00001000
00000000
00010000
00001000
,
00010000
00000000
00000000
00000000
,
00000000
00000000
00000000
00000000
00000100
01000000
00000000
00000000
;
