#TITLE:空に触れる;
#ARTIST:BEMANI Sound Team "あさき";
#TITLETRANSLIT:Sora ni fureru;
#ARTISTTRANSLIT:Asaki;
#BANNER:Sora ni fureru.png;
#BACKGROUND:Sora ni fureru-bg.png;
#JACKET:Sora ni fureru-jacket.png;
#CDTITLE:./CDTITLES/GITADORA.PNG;
#MUSIC:Sora ni fureru.ogg;
#SAMPLESTART:55.352;
#SAMPLELENGTH:15;
#BPMS:0=142;

//---------------dance-single - t7r----------------
#NOTES:
     dance-single:
     t7r:
     Beginner:
     1:
     :
0000
0000
0000
0000
,
0000
0000
0000
0000
,
0000
0000
0000
0000
,
0000
0000
0000
0000
,
0000
0000
0000
0000
,
0000
0000
0000
0000
,
0001
0000
0000
0000
,
0100
0000
0000
0000
,
0010
0000
0000
0000
,
1000
0000
0000
0000
,
0100
0000
0100
0000
,
0100
0000
0000
0000
,
0010
0000
0000
0000
,
0001
0000
1000
0000
,
0001
0000
0000
0000
,
0100
0000
0000
0000
,
0000
0000
0000
0000
,
0010
0000
0000
0000
,
1000
0000
0000
0000
,
0001
0000
0000
0000
,
0000
0000
0000
0000
,
0010
0000
0000
0000
,
0100
0000
0000
0000
,
1000
0000
0000
0000
,
1000
0000
0000
0000
,
0001
0000
0000
0000
,
0001
0000
0000
0000
,
0100
0000
0000
0000
,
0100
0000
0000
0010
,
0010
0000
0000
0000
,
0010
0000
0000
0000
,
1000
0000
0000
0000
,
0001
0000
0000
0000
,
0010
0000
0000
0000
,
0100
0000
0000
0000
,
1000
0000
0000
0000
,
0010
0000
0000
0000
,
0100
0000
0000
0000
,
0001
0000
0000
0000
,
0010
0000
0000
0000
,
0100
0000
0000
0000
,
1000
0000
1000
0000
,
1000
0000
0000
0000
,
0001
0000
0001
0000
,
0001
0000
0000
0000
,
0100
0000
0100
0000
,
0100
0000
0000
0000
,
0010
0000
0010
0000
,
0010
0000
0000
0000
,
1001
0000
0000
0000
,
0000
0000
0000
0000
,
1000
0000
0000
0000
,
0000
0000
0000
0000
,
0001
0000
0000
0000
,
1000
0000
0000
0000
,
0100
0000
0000
0000
,
0010
0000
0000
0000
,
0001
0000
0001
0000
,
0001
0000
0000
0000
,
1000
0000
1000
0000
,
1000
0000
0000
0000
,
0010
0000
0010
0000
,
0010
0000
0000
0000
,
0100
0000
0000
0000
,
0001
0000
1000
0000
;

//---------------dance-single - t7r----------------
#NOTES:
     dance-single:
     t7r:
     Easy:
     8:
     :
0000
0000
0000
0000
,
0000
0000
0000
0000
,
0000
0000
0000
0000
,
0000
0000
0000
0000
,
0000
0000
0000
0000
,
0000
0000
0000
1000
,
0001
0000
0000
0001
0000
0000
0001
0000
0000
0001
0000
0000
0001
0000
0000
0000
,
1000
0000
0000
1000
0000
0000
1000
0000
0000
1000
0000
0000
1000
0000
0000
0000
,
0010
0000
0000
0010
0000
0000
0010
0000
0000
0010
0000
0000
0010
0000
0000
0000
,
1000
0000
0100
0010
0002
0000
0003
0000
,
1000
0000
0010
0100
0002
0000
0013
0000
,
0001
0000
0000
0100
0000
0000
0010
0000
0000
0000
2000
0000
0000
0000
0000
0000
,
3001
0000
0000
0010
0000
0000
0200
0000
0000
0000
0000
0000
0000
0000
0000
0000
,
2300
3010
0001
0010
,
0220
0000
0000
0330
,
0001
0010
0200
0300
,
1000
0000
0010
0000
1000
0100
1000
0000
,
0001
0000
0000
0100
0000
0000
0020
0000
0000
0000
0000
0000
0030
0000
0000
0000
,
1000
0000
0000
0100
0000
0000
0020
0000
0000
0000
0000
0000
0030
0000
0000
0000
,
0001
0000
0000
1000
0000
0000
0020
0000
0000
0000
0000
0000
0030
0000
0000
0000
,
1000
0000
0001
0000
0100
0001
0100
0000
,
0010
1001
0100
0110
,
0001
0000
1000
0020
0000
0000
1030
0000
,
0100
1000
0100
0000
1000
0100
1000
0000
,
0001
0100
0001
0000
0100
0001
0100
0000
,
0001
0000
0000
1000
0000
0000
0020
0000
0000
0000
0000
0000
0000
0000
0000
0000
,
1030
0000
0000
0001
0000
0000
0100
0000
0020
0000
0000
0000
2030
0000
0000
0000
,
3001
0000
0010
0000
0000
0001
0000
0000
2000
0000
0000
0000
3100
0000
0000
0000
,
1000
0000
0010
0000
0000
1000
0000
0000
0002
0000
0000
0000
0103
0000
0000
0000
,
0010
0000
0000
0100
0000
0000
0002
0000
0000
0000
0013
0000
0100
0000
0000
0000
,
1000
0001
0100
0000
0001
1000
0100
0000
,
1000
0000
0000
0001
0000
0000
0100
0000
0000
0010
0000
0000
1000
0000
0001
0000
,
1000
0100
1000
0100
0010
0000
0001
0000
,
1002
0000
0103
0010
,
2000
0000
0000
0000
3100
0000
0000
0010
,
0002
0000
0000
0000
0103
0000
0000
0010
,
2000
0000
3001
0010
,
0200
0000
0000
0310
0001
0000
0000
0000
,
0200
0000
0000
0310
1000
0000
0000
0000
,
0001
0100
1000
0100
,
0001
0000
0000
0010
0000
0000
0100
0000
1000
0000
0000
0000
0001
0000
0000
0000
,
1000
0000
0100
1000
0000
0001
1000
0000
,
0001
0000
0100
0001
0000
1000
0001
0000
,
1000
0000
0010
1000
0000
0001
1000
0000
,
0001
0000
0010
0001
0000
1000
0001
0000
,
1000
0000
0100
0010
0100
0000
0010
0000
,
0001
0000
0100
0010
0100
0000
0001
0000
,
1000
0010
0001
0010
,
1000
0000
0100
0010
0002
0000
0003
0000
,
2002
0000
0000
0000
,
0000
0000
0000
0000
,
3003
0000
0000
0000
,
0000
0000
0000
0000
,
1000
0000
0000
0100
0000
0000
0010
0000
0000
0001
0000
0000
1001
0000
0000
0000
,
0001
0000
0000
0100
0000
0000
0010
0000
0000
1000
0000
0000
1001
0000
0000
0000
,
1000
0000
0000
0010
0000
0000
0100
0000
0000
0001
0000
0000
0011
0000
0000
0000
,
0001
0000
0000
0010
0000
0000
0100
0000
2000
0000
0000
0000
3000
0000
0000
0000
,
0001
0010
0001
0010
0001
0000
1000
0000
,
0001
0000
0100
0010
0100
0000
0010
0000
,
1000
0000
0000
0100
0000
0000
0010
0000
0000
0001
0000
0000
1000
0000
0000
0000
,
0001
0000
1000
0001
0100
0000
0010
0000
,
2000
0000
0100
0000
3001
1000
0001
0000
,
0200
0000
0000
0000
0010
0000
0000
0000
0301
0000
0000
0010
0000
0000
0100
0000
,
1000
0000
0000
0010
0000
0000
0002
0000
0000
0000
0000
0000
0000
0000
0000
0000
,
0013
0000
0000
0000
1000
0000
0000
0000
0001
0000
0000
1000
0000
0000
1001
0000
;

//---------------dance-single - t7r----------------
#NOTES:
     dance-single:
     t7r:
     Medium:
     14:
     :
0000
0000
0000
0000
,
0000
0000
0000
0000
,
0000
0000
0000
0000
,
0000
0000
0000
0000
,
0000
0000
0000
0000
,
0000
0000
0000
0110
,
0001
0000
0010
0001
0000
0010
0001
0000
0010
0001
0000
1000
0001
0000
1000
0000
,
1000
0000
0010
1000
0000
0010
1000
0000
0010
1000
0000
0001
1000
0000
1000
0000
,
0010
0000
0100
0010
0000
0100
0010
0000
0100
0010
0000
0100
0010
0000
0100
0000
,
0100
0001
0010
0100
1000
0010
0100
0001
,
2000
0000
0000
3100
0000
0000
0010
0000
0002
0000
0000
0103
0000
0000
0010
0000
,
2000
0000
0000
3001
0000
0000
0010
0000
0000
0000
0200
0000
0000
0000
1300
0000
,
0010
0000
0000
0100
0010
0000
2000
0000
0100
0000
0000
0000
3001
0000
0000
0000
,
0020
0000
0031
0000
0100
0010
1000
0000
,
0002
0000
0000
0000
0010
0000
0000
0000
0103
0000
0010
0100
0010
0000
0000
0000
,
1000
0000
0000
0100
1000
0000
0100
0000
0000
0100
0000
0000
0110
0000
0000
0000
,
0001
0000
0100
0000
0001
1000
0000
0001
0000
0001
0000
0000
0110
0000
0000
0000
,
0010
0000
0000
1000
0100
0000
0020
0000
0000
0000
0031
0000
1000
0000
0000
0000
,
0001
0000
0000
0100
0010
0000
0200
0000
0000
0000
0310
0000
1000
0000
0001
0000
,
1000
0000
0100
1000
0000
0100
1000
0000
0001
1000
0000
0000
1001
0000
0000
0000
,
0001
0000
0100
0001
0000
0100
0000
0001
1000
0000
0010
0000
0001
0000
0010
0000
,
0100
0000
0000
0010
1000
0000
0100
0000
0000
0100
0000
0100
0010
0000
0000
0000
,
0002
0000
0000
1003
0100
0000
2000
0000
0010
0000
0000
0000
3001
0000
0000
0000
,
1000
0000
0100
1000
0100
0000
1000
0100
1000
0000
0001
1000
0001
0000
1000
0000
,
0001
0000
0100
0001
0100
0000
0001
0100
0001
0000
1000
0001
1000
0000
0001
0000
,
1000
0000
0000
0010
0001
0000
0020
0000
0100
0000
0000
0000
1030
0000
0000
0000
,
0001
0000
0000
0010
1000
0000
0010
0000
0100
0000
1000
0000
0001
0000
0000
0000
,
1000
0000
0010
0000
0001
0010
0000
0000
2000
0000
0000
3100
0010
0000
0100
0000
,
1000
0000
0010
0000
0100
1000
0000
0000
0200
0000
0000
0310
1000
0000
0001
0000
,
0010
0000
0000
0100
0010
0000
0011
0000
0000
0000
0001
0000
1000
0010
0000
0000
,
0100
0001
0010
0100
1000
0010
0100
0001
,
1000
0000
0100
1000
0000
0001
1000
0000
0001
0100
0000
0001
1000
0000
0100
0000
,
1000
0001
1000
0001
1000
0001
1000
0001
1000
0001
1000
0001
1000
0000
0000
0000
,
2010
0000
0000
0100
0000
0000
0001
0000
3010
0000
0000
0000
0100
0000
0000
0000
,
0102
0000
0000
0010
0000
0000
1000
0000
0103
0000
0000
0000
0000
0000
0010
0000
,
2000
0000
0000
0010
0000
0000
0001
0000
3100
0000
0010
0000
0000
0000
0001
0000
,
0200
0000
0000
1000
0000
0000
0010
0000
0301
1000
0001
0000
1000
0000
0000
0000
,
0200
0000
0000
0001
0000
0000
0010
0000
1300
0000
0000
0010
0000
0000
0100
0000
,
0002
0000
0000
0010
0000
0000
1000
0000
0103
0000
0000
0010
0000
0000
1000
0000
,
0020
0000
0000
0001
0000
0000
0100
0000
2030
0000
0000
0100
0000
0000
0001
0000
,
3010
0000
0000
0110
0000
0000
0100
0000
0001
1000
0000
0100
0010
0000
0100
0000
,
2000
0000
3010
1000
0000
0010
0100
0001
,
0000
0000
0010
0000
0001
0000
1000
0000
0100
1000
0000
0001
1000
0000
0100
0000
,
0010
0000
0000
0001
0100
0000
0010
0000
1000
0000
0000
0100
0010
0000
0001
0000
,
1000
0000
0000
0010
0100
0000
0010
0000
1000
0100
0000
1000
0001
0000
1000
0000
,
0001
0000
0100
0001
0100
0000
0010
0000
0100
0000
0001
0000
1000
0000
0001
0000
,
1000
0000
0100
1000
0100
0000
0010
0000
0100
0000
1000
0000
0001
0000
0100
0000
,
0010
0000
0000
0100
0001
0000
0010
0000
0100
0000
0000
1000
0010
0000
0100
0000
,
0001
1000
0001
1000
0001
1000
0001
1000
0001
0000
0000
0000
0000
0000
0000
0000
,
0200
0000
0000
0000
1000
0000
0310
0100
0000
0001
0100
0000
0001
0000
1000
0000
,
0200
0000
0000
0000
0001
0000
0310
0100
0000
1000
0100
0000
2000
0010
0000
0000
,
3002
0000
0000
0000
0100
0000
1003
0010
0000
0100
0010
0000
1000
0100
0000
0000
,
2000
0000
0000
0000
0010
0000
3001
0100
0000
0010
0100
0000
0001
1000
0001
1000
,
0001
0000
0000
0101
0000
0000
0110
0000
0000
1010
0000
0000
1001
0000
0000
0000
,
1000
0000
0000
1100
0000
0000
0110
0000
0000
0011
0000
0000
1001
0000
0000
0000
,
0001
0000
0000
0101
0000
0000
1010
0000
0000
1100
0000
0000
0011
0000
0001
0000
,
1001
0000
0000
0110
0000
0000
2002
0000
0000
0000
0000
0000
3003
0000
0000
0000
,
1000
0010
0001
0010
1000
0100
0010
0001
,
1000
0000
0100
1000
0100
0000
1000
0001
1000
0000
0100
1000
0100
0000
1000
0000
,
0001
0000
0100
1000
0000
0100
0001
0000
0100
0010
0000
0100
0001
0000
1000
0000
,
0001
0000
0010
0001
0010
0000
0001
0000
1000
0001
1000
0000
0001
1000
0001
0000
,
0100
0000
0000
0000
1010
0000
0000
0000
1000
0100
0000
0010
0100
0000
1000
0000
,
0001
0000
0000
0000
0101
0000
0100
0000
0001
0010
0000
0100
1000
0001
1000
0001
,
2000
0000
0000
3010
0100
0000
0002
0000
0010
0000
0000
0000
1003
0000
0000
0000
,
0010
0100
0010
0100
0010
0100
0010
0100
0010
0000
0000
0110
0000
0000
1001
0000
;

//---------------dance-single - t7r----------------
#NOTES:
     dance-single:
     t7r:
     Hard:
     16:
     :
0000
0000
0000
0000
,
0000
0000
0000
0000
,
0000
0000
0000
0000
,
0000
0000
0000
0000
,
0000
0000
0000
0000
,
0000
0000
0000
0110
,
0001
0000
0001
0010
0000
0010
0001
0000
0001
1000
0000
1000
0001
0000
0010
0001
,
1000
0000
1000
0010
0000
0010
1000
0000
1000
0001
0000
0001
1000
0000
1000
0001
,
0010
0000
0010
0001
0000
0001
1000
0000
1000
0010
0000
0010
1000
0000
0010
1000
,
0001
0010
0001
1000
0010
1000
0001
1000
0002
0000
0100
0000
1003
0010
0100
0001
,
2000
0000
0000
3020
0000
0000
0031
0010
0200
0000
0000
0302
0000
0000
0013
1000
,
0020
0100
0000
2030
0000
0000
3010
0000
0000
0000
0002
0000
0000
0000
1003
0010
,
0200
0000
0000
0301
0000
0000
0020
0000
0000
0100
0000
0130
1000
0000
0001
1000
,
0001
0100
0010
1000
0001
0010
0100
0000
1000
0010
0100
0001
2000
0000
0000
3001
,
0020
0000
0000
0000
1000
0000
0000
0000
0130
1000
0100
1000
0002
0000
0000
0000
,
0103
0000
0000
0010
0100
0000
0001
0000
0000
0001
0000
0100
0010
0000
0000
0000
,
1000
0000
0100
0000
0010
0001
0000
1000
0000
1000
0000
0010
1000
0000
0001
0000
,
1000
0000
0100
0010
0000
0001
0200
0000
0000
1000
0000
1300
0100
0000
0010
0000
,
1000
0000
0001
0010
0000
0100
0020
0000
0000
1000
0000
1030
0010
0000
0100
0000
,
1000
0000
0001
0100
0000
0010
0100
0000
0000
1000
0000
0100
0010
0000
0100
0000
,
0001
0000
1000
0000
0100
0010
0000
0100
0000
0001
0000
0100
0010
0100
1000
0000
,
0001
0000
1000
0010
0000
0100
0010
0000
1000
0100
0000
0010
0001
0000
0100
0001
,
2000
0000
0000
3010
0100
0010
2000
0000
3001
0010
0100
1000
0001
0100
0010
0000
,
1000
0100
1000
0001
1000
0000
0001
0100
0001
1000
0001
0010
0100
0000
1000
0000
,
0001
0100
0001
1000
0001
0010
0001
1000
0001
0100
0000
0001
0010
0100
1000
0000
,
0100
0000
0010
0100
0000
0001
0200
0000
1300
0002
0000
0103
0010
1000
0001
0000
,
0100
0000
0010
0100
0000
1000
0200
0000
0301
2000
0000
3100
0010
0001
1000
0000
,
0001
0000
0010
0000
1000
0010
0000
0100
0010
0000
1000
0010
0000
0100
0010
0001
,
1000
0000
0010
0000
0001
0010
0000
0100
0010
0000
0100
0001
1000
0001
1000
0000
,
1001
0000
1000
0010
0100
0000
0102
0000
0000
1003
0100
0010
0001
2000
0000
0000
,
3001
1000
0001
1000
0010
0100
0010
0100
0001
0010
0100
1000
0010
0100
0001
0000
,
1000
0100
1000
0001
0100
0001
1000
0010
1000
0001
0010
0001
1000
0100
0010
0001
,
0100
0000
0110
0000
1000
0010
0100
0000
0001
0010
0100
1000
0001
0000
0000
0000
,
2100
0000
0000
0100
0000
0000
3100
0010
0001
0000
0000
0000
0200
0000
0010
0000
,
0302
0000
0000
0100
0000
0000
0103
0010
1000
0000
0000
0000
0000
0000
0001
0000
,
0012
0000
0000
0010
0000
0000
0013
0001
1000
0000
0010
0000
0000
0000
1000
0000
,
2010
0000
0000
0010
0000
0000
3010
0000
1000
0100
0010
0001
1000
0000
0010
0100
,
0002
0000
0000
0010
0000
0000
1003
0000
1001
0000
0000
0000
0000
0000
0001
0000
,
2001
0000
0000
0010
0000
0000
3001
0000
1001
0000
0000
0000
0000
0000
1000
0000
,
1100
0000
0000
0100
0010
0000
0001
0000
0101
0000
0000
0100
0010
0000
1000
0001
,
0100
0000
0000
0101
0000
0000
0001
0000
1000
0010
0000
0010
0100
0001
1000
0100
,
0020
0000
0000
0000
0130
0000
0001
0000
0000
0100
0000
0100
0010
0000
0100
0000
,
1000
0000
0010
0100
0001
0000
0010
0100
0000
1000
0000
1000
0010
0000
1000
0001
,
0100
0000
0000
0010
0100
0000
1000
0000
0100
0010
0000
0010
0100
0000
0001
0000
,
0010
0000
0000
0001
1000
0000
0010
0000
1000
0000
0100
0010
0001
1000
0010
0000
,
1000
0000
0100
0010
0100
0000
0001
0100
0010
0100
1000
0001
1000
0000
0001
0010
,
0001
0000
0100
0010
0100
0000
1000
0100
0010
0100
0001
1000
0001
0000
0010
0100
,
1000
0000
0000
0010
0100
0000
0010
0000
1000
0100
0010
0001
1000
0000
0010
0100
,
0001
0000
0010
0000
0001
0000
1000
0000
0010
0000
1000
0000
0001
0000
0100
0000
0001
1000
0000
0000
0000
0000
0000
0000
0000
0000
0000
0000
0010
0000
0000
0000
,
1000
0010
1000
0010
0100
0000
1000
0100
0000
0100
0010
1000
0001
0010
0100
1000
,
0001
0010
0001
0010
0100
0000
0001
0100
0000
0100
0010
0001
2000
0010
0000
3001
,
1000
0100
1000
0100
0010
0000
1000
0010
0000
0010
0100
1000
0001
0100
0010
1000
,
0002
0100
0000
1003
0010
0000
0001
0010
0200
0000
0000
0301
1000
0001
1000
0001
,
1000
0000
0001
0100
0000
0100
1000
0000
0001
0010
0000
0010
1000
0000
0000
0000
,
0001
0000
1000
0100
0000
0100
0001
0000
1000
0010
0000
0010
0001
0000
0000
0000
,
1000
0000
0000
0000
0000
0000
0001
0000
0000
0100
0000
0000
0000
0000
0000
0100
0000
0000
1000
0000
0000
0000
0000
0000
0001
0000
0000
0010
0000
0000
0000
0000
0000
0010
0000
0000
1000
0000
0000
0000
0000
0000
0001
0000
0100
0000
0010
0000
,
0100
0000
0000
0110
0000
0000
1001
0000
0001
0010
0100
1000
0001
0100
0010
1000
,
0001
0000
0010
1000
0010
0000
0001
0010
0001
0000
1000
0010
0100
0001
1000
0000
,
0001
0100
0001
1000
0100
1000
0001
0100
0010
1000
0100
0010
0001
0100
0010
1000
,
0001
0000
0010
0100
0000
0010
1000
0000
0010
0001
0000
0001
1000
0000
0001
0000
,
0100
1000
0100
0010
0100
0001
1000
0100
0010
0100
0001
1000
0010
0100
0010
0001
,
1000
0010
0200
0000
1000
0000
0310
0100
0001
0000
0010
0100
2000
0000
0010
0000
,
3002
0000
0013
0000
0001
0100
0010
0000
2000
0000
0000
3001
0010
0001
1000
0001
,
1000
0000
0001
0010
0000
1000
0020
0000
0000
0100
0000
0130
1000
0010
0100
0001
,
1000
0100
0100
0001
1000
0010
0010
0001
1001
0000
0000
0110
0000
0000
1001
0000
;

//---------------dance-double - t7r----------------
#NOTES:
     dance-double:
     t7r:
     Easy:
     9:
     :
00000000
00000000
00000000
00000000
,
00000000
00000000
00000000
00000000
,
00000000
00000000
00000000
00000000
,
00000000
00000000
00000000
00000000
,
00000000
00000000
00000000
00000000
,
00000000
00000000
00000000
10000000
,
00010000
00000000
00000000
00010000
00000000
00000000
00010000
00000000
00000000
00010000
00000000
00000000
00010000
00000000
00000000
00000000
,
10000000
00000000
00000000
10000000
00000000
00000000
10000000
00000000
00000000
10000000
00000000
00000000
10000000
00000000
00000000
00000000
,
00100000
00000000
00000000
00100000
00000000
00000000
00100000
00000000
00000000
00100000
00000000
00000000
00100000
00000000
00000000
00000000
,
00010000
00001000
00000010
00000100
,
00001000
00000000
00000001
00000100
00000002
00000000
00001003
00000000
,
00000100
00000000
00000000
00010000
00000000
00000000
00001000
00000000
00000000
00000000
00020000
00000000
00000000
00000000
00000000
00000000
,
00031000
00000000
00000000
01000000
00000000
00000000
00200000
00000000
00000000
00000000
00000000
00000000
00000000
00000000
00000000
00000000
,
20300000
31000000
00100000
00010000
,
00002000
00000000
00000000
00003000
,
00000001
00000010
00000200
00000300
,
00001000
00000000
00000010
00000000
00000100
00000001
00000100
00000000
,
00000001
00000000
00000000
00000010
00000000
00000000
00000200
00000000
00000000
00000000
00000000
00000000
00000300
00000000
00000000
00000000
,
00010000
00000000
00000000
00001000
00000000
00000000
02000000
00000000
00000000
00000000
00000000
00000000
03000000
00000000
00000000
00000000
,
00100000
00000000
00000000
10000000
00000000
00000000
00020000
00000000
00000000
00000000
00000000
00000000
00030000
00000000
00000000
00000000
,
10000000
00000000
01000000
00000000
00100000
00010000
00100000
00000000
,
00001000
00011000
00000010
00000110
,
00000001
00000000
00001000
00000020
00000000
00000000
00001030
00000000
,
00000001
00000010
00000001
00000000
00001000
00000100
00001000
00000000
,
00000100
00010000
00000100
00000000
00010000
00001000
00010000
00000000
,
00001000
00000000
00000000
00010000
00000000
00000000
02000000
00000000
00000000
00000000
00000000
00000000
00000000
00000000
00000000
00000000
,
13000000
00000000
00000000
00100000
00000000
00000000
01000000
00000000
00010000
00000000
00000000
00000000
10000000
00000000
00000000
00000000
,
01000000
00000000
00010000
00000000
00000000
00001000
00000000
00000000
00010000
00000000
00000000
00000000
00000100
00000000
00000000
00000000
,
00001000
00000000
00000010
00000000
00000000
00000100
00000000
00000000
00000001
00000000
00000000
00000000
00001000
00000000
00000000
00000000
,
00000001
00000000
00000000
00000010
00000000
00000000
00000200
00000000
00000000
00000000
00001300
00000000
00000001
00000000
00000000
00000000
,
00000100
00000000
00001000
00000000
00010000
00001000
00010000
00000000
,
01000000
00000000
00000000
00100000
00000000
00000000
00010000
00000000
00000000
10000000
00000000
00000000
00100000
00000000
00000000
00000000
,
00010000
00001000
00010000
00001000
00010000
00000000
00001000
00000000
,
00021000
00000000
00030100
00001000
,
00000002
00000000
00000000
00000000
00000103
00000000
00000000
00000010
,
00002000
00000000
00000000
00000000
00003100
00000000
00000000
00010000
,
00002000
00000000
00103000
00010000
,
20000000
00000000
00000000
30100000
01000000
00000000
00010000
00000000
,
00200000
00000000
00000000
01300000
10000000
00000000
00100000
00000000
,
00010000
00001000
00000100
00000001
,
00001000
00000000
00000000
00000100
00000000
00000000
00010000
00000000
00001000
00000000
00000000
00000000
00010000
00000000
00000000
00000000
,
00000010
00000000
00001000
00000001
00000000
00001000
00000100
00000000
,
00010000
00000000
00001000
00010000
00000000
00001000
00100000
00000000
,
00010000
00000000
10000000
00100000
00000000
10000000
00010000
00000000
,
10000000
00000000
01000000
00100000
00000000
00001000
00010000
00000000
,
00001000
00000000
00000100
00000000
00000010
00000100
00000010
00000000
,
00001000
00000000
00000100
00000000
00010000
00001000
00010000
00000000
,
00001000
00000000
00010000
00000000
01000000
00100000
01000000
00000000
,
00100000
00001000
00010000
00000000
,
00022000
00000000
00000000
00000000
,
00000000
00000000
00000000
00000000
,
00033000
00000000
00000000
00000000
,
00000000
00000000
00000000
00000000
,
00100000
00000000
00000000
00010000
00000000
00000000
10000000
00000000
00000000
00100000
00000000
00000000
01000000
00000000
00000000
00000000
,
00010000
00000000
00000000
00100000
00000000
00000000
00001000
00000000
00000000
00010000
00000000
00000000
00000010
00000000
00000000
00000000
,
00001000
00000000
00000000
00000100
00000000
00000000
00000010
00000000
00000000
00000001
00000000
00000000
00001000
00000000
00000000
00000000
,
00000001
00000000
00000000
00000100
00000000
00000000
00001000
00000000
00020000
00000000
00000000
00000000
00030000
00000000
00000000
00000000
,
01000000
10000000
01000000
10000000
01000000
00000000
10000000
00000000
,
00100000
00000000
01000000
00000000
00010000
10000000
00010000
00000000
,
10000000
00000000
00000000
00100000
00000000
00000000
00010000
00000000
00001000
00000000
00000000
00000000
00100000
00000000
00000000
00000000
,
00001000
00000000
00010000
00000000
00000100
00001000
00000100
00000000
,
00000010
00001001
00000001
00000100
,
00000001
00000000
00000000
00000010
00000000
00000000
00001000
00000000
00010000
00000000
00000000
00001000
00000000
00000000
00100000
00000000
,
00010000
00000000
00000000
10000000
00000000
00000000
00200000
00000000
00000000
00000000
00000000
00000000
00000000
00000000
00000000
00000000
,
00310000
00000000
00000000
00000000
00001000
00000000
00000000
00000000
00000100
00000000
00000000
00000001
00000000
00000000
00001001
00000000
;

//---------------dance-double - t7r----------------
#NOTES:
     dance-double:
     t7r:
     Medium:
     14:
     :
00000000
00000000
00000000
00000000
,
00000000
00000000
00000000
00000000
,
00000000
00000000
00000000
00000000
,
00000000
00000000
00000000
00000000
,
00000000
00000000
00000000
00000000
,
00000000
00000000
00000000
00000110
,
00000001
00000000
00000010
00000001
00000000
00000010
00000001
00000000
00000010
00000001
00000000
00001000
00000001
00000000
00000000
00000000
,
00000100
00000000
00001000
00010000
00000000
00001000
00010000
00000000
00001000
00010000
00000000
00001000
00100000
00000000
00000000
00000000
,
00010000
00000000
10000000
00100000
00000000
10000000
00100000
00000000
10000000
00100000
00000000
10000000
00010000
00000000
00000000
00000000
,
10000000
00000000
01000000
00010000
00001000
00000000
00000100
00000000
,
00000020
00000000
00000000
00001030
00000000
00000000
00000001
00000000
00000020
00000000
00000000
00000031
00000000
00000000
00000100
00000000
,
00002000
00000000
00000000
00013000
00000000
00000000
00001000
00000000
00000000
00000000
00020000
00000000
00000000
00000000
01030000
00000000
,
10000000
00000000
00000000
00100000
01000000
00000000
00020000
00000000
00100000
00000000
00000000
00000000
10030000
00000000
00000000
00000000
,
02000000
00000000
03010000
00000000
00001000
00000010
00000001
00000000
,
00002000
00000000
00000000
00000000
00000010
00000000
00000000
00000000
00003001
00000000
00000100
00000010
00000100
00000000
00000000
00000000
,
00000001
00000000
00000000
00000010
00000100
00000000
00000010
00000000
00000000
00000010
00000000
00000000
00000110
00000000
00000000
00000000
,
00000001
00000000
00000100
00000000
00001000
00010000
00000000
00001000
00000000
00001000
00000000
00000000
00011000
00000000
00000000
00000000
,
00010000
00000000
00000000
01000000
00100000
00000000
02000000
00000000
00000000
00000000
13000000
00000000
00010000
00000000
00000000
00000000
,
10000000
00000000
00000000
00100000
01000000
00000000
00200000
00000000
00000000
00000000
10300000
00000000
00010000
00000000
00000000
00000000
,
10000000
00000000
00010000
01000000
00000000
00010000
10000000
00000000
00010000
10000000
00000000
00000000
00010000
00000000
00000000
00000000
,
10000000
01000000
00100000
00000000
00001000
00010000
00000010
00000100
,
00000001
00000000
00000000
00000010
00000100
00000000
00001000
00000000
00000000
00001000
00000000
00001000
00000010
00000000
00000000
00000000
,
00000200
00000000
00000000
00000301
00001000
00000000
00000200
00000000
00001000
00000000
00000000
00000000
00010300
00000000
00000000
00000000
,
00001000
00000000
00010000
00000000
01000000
00000000
10000000
00000000
00100000
00000000
00100000
00000000
00010000
00001000
00010000
00000000
,
00001000
00000000
00000100
00000000
00000001
00000000
00000010
00000000
00001000
00000000
00001000
00000000
00010000
00001000
00010000
00000000
,
00011000
00000000
00000000
00001000
01000000
00000000
00020000
00000000
00100000
00000000
00000000
00000000
10030000
00000000
00000000
00000000
,
00100000
00000000
00000000
00010000
00001000
00000000
00010000
00000000
00000010
00000000
00000000
00000000
00000110
00000000
00000000
00000000
,
00000001
00000000
00000010
00000000
00001000
00010000
00000000
00000000
00000200
00000000
00000000
00001300
00000001
00000000
00000100
00000000
,
00001000
00000000
00010000
00000000
00100000
01000000
00000000
00000000
00020000
00000000
00000000
00130000
00010000
00000000
10000000
00000000
,
00010000
00000000
00000000
10000000
01000000
00000000
01100000
00000000
00000000
00000000
00100000
00000000
00001000
00010000
00000000
00000000
,
00001000
00000010
00000001
00000100
00001000
00010000
00100000
10000000
,
01000000
00000000
00010000
00001000
00000000
01000000
00010000
00000000
00001000
00000100
00000000
00010000
00001000
00000000
00000100
00000000
,
00000001
00000000
00000001
00000000
00000010
00000000
00000010
00000000
00001000
00010000
00001000
00010000
00001000
00000000
00000000
00000000
,
00021000
00000000
00000000
00001000
00000000
00000000
00000100
00000000
00031000
00000000
00000000
00000000
00010000
00000000
00000000
00000000
,
02000000
00000000
00000000
00010000
00000000
00000000
00100000
00000000
13000000
00000000
00000000
00000000
00000000
00000000
00100000
00000000
,
20000000
00000000
00000000
00100000
00000000
00000000
00100000
00000000
30010000
00000000
10000000
00000000
00000000
00000000
01000000
00000000
,
00200000
00000000
00000000
00010000
00000000
00000000
00001000
00000000
00310000
00000000
00100000
00000000
00001000
00000000
00010000
00000000
,
00010020
00000000
00000000
00000100
00000000
00000000
00000100
00000000
00001030
00000000
00000000
00000001
00000000
00000000
00000100
00000000
,
00000002
00000000
00000000
00000010
00000000
00000000
00001000
00000000
00000103
00000000
00000000
00000010
00000000
00000000
00001000
00000000
,
00000100
00000000
00000000
00010000
00001000
00000000
00000000
00000000
01000000
00000000
00000000
00010000
00000000
00000000
10000000
00000000
,
01000000
00000000
00000000
00100000
00000000
00000000
00010000
00000000
00001000
00000010
00000000
00000100
00000010
00000000
00001000
00000000
,
00000002
00000000
00000013
00000001
00000000
00000100
00000010
00001000
,
00000000
00000000
00010000
00000000
00100000
00000000
00010000
00000000
10000000
01000000
00000000
10000000
00010000
00000000
10000000
00000000
,
00100000
00000000
00000000
01000000
00010000
00000000
00100000
00000000
00001000
00000000
00000000
00010000
00000010
00000000
00001000
00000000
,
00000001
00000000
00000000
00000010
00000100
00000000
00001000
00000000
00000001
00000100
00000000
00000001
00001000
00000000
00000001
00000000
,
00000100
00000000
00001000
00010000
00001000
00000000
00000100
00000000
00000001
00000000
00000100
00000000
00001000
00000000
00010000
00000000
,
01000000
00000000
00010000
00001000
00010000
00000000
01000000
00000000
10000000
00000000
01000000
00000000
00010000
00000000
00001000
00000000
,
00000100
00000000
00000000
00000010
00001000
00000000
00000001
00000000
00000010
00000000
00000000
00001000
00010000
00000000
00100000
00000000
,
00010000
00001000
00010000
00001000
00010000
00001000
00010000
00001000
00010000
00000000
00000000
00000000
00000000
00000000
00000000
00000000
,
00200000
00000000
00000000
00000000
00010000
00000000
01300000
00100000
00000000
01000000
00010000
00000000
10000000
00000000
01000000
00000000
,
00020000
00000000
00000000
00000000
00001000
00000000
00030100
00001000
00000000
00000001
00000100
00000000
00000002
00000010
00000000
00000000
,
00002003
00000000
00000000
00000000
00000010
00000000
00003001
00000100
00000000
00000010
00000100
00000000
00001000
00000000
00010000
00000000
,
00002000
00000000
00000000
00000000
00010000
00000000
00103000
00010000
00000000
01000000
00010000
00000000
10000000
00010000
10000000
00010000
,
10000000
00000000
00000000
11000000
00000000
00000000
01100000
00000000
00000000
00101000
00000000
00000000
00011000
00000000
00000000
00000000
,
00000010
00000000
00000000
00001010
00000000
00000000
00000110
00000000
00000000
00000101
00000000
00000000
00001001
00000000
00000000
00000000
,
00000001
00000000
00000000
00000011
00000000
00000000
00000110
00000000
00000000
00010100
00000000
00000000
00011000
00000000
00001000
00000000
,
01000000
00000000
00000000
00010000
00000000
00000000
20020000
00000000
00000000
00000000
00000000
00000000
30030000
00000000
00000000
00000000
,
10000000
00100000
00010000
00001000
00100000
00010000
00001000
00000100
,
00001000
00000000
00000010
00000100
00000010
00000000
00001000
00000000
00000001
00000000
00000100
00000000
00000010
00000000
00001000
00000000
,
00000001
00000000
00000010
00001000
00000000
00010000
00001000
00000000
00000100
00000010
00000000
00000000
00001000
00000000
00000100
00000000
,
00010000
00000000
00001000
00000000
01000000
00000000
00010000
00000000
00100000
01000000
00100000
00000000
00010000
00000000
10000000
00000000
,
00100000
00000000
00000000
00000000
10010000
00000000
00000000
00000000
10000000
01000000
00000000
00100000
00010000
00000000
00001000
00000000
,
00000010
00000000
00000000
00000000
00001001
00000000
00001000
00000000
00000001
00000010
00000000
00000100
00010000
00001000
00010000
00001000
,
00010000
00000000
00000000
00001000
01000000
00000000
00020000
00000000
00100000
00000000
00000000
00000000
10030000
00000000
00100000
00000000
,
00010000
00001000
00010000
00001000
00010000
00001000
00010000
00001000
00010000
00000000
00000000
00000100
00000000
00000000
01000000
00000000
;

//---------------dance-double - t7r----------------
#NOTES:
     dance-double:
     t7r:
     Hard:
     16:
     :
00000000
00000000
00000000
00000000
,
00000000
00000000
00000000
00000000
,
00000000
00000000
00000000
00000000
,
00000000
00000000
00000000
00000000
,
00000000
00000000
00000000
00000000
,
00000000
00000000
00000000
00000110
,
00000001
00000000
00000001
00000010
00000000
00000010
00000001
00000000
00000001
00001000
00000000
00001000
00000010
00000000
00001000
00000001
,
00001000
00000000
00000001
00000100
00000000
00000100
00001000
00000000
00010000
01000000
00000000
01000000
10000000
00000000
00100000
10000000
,
00100000
00000000
00100000
01000000
00000000
01000000
00010000
00000000
00010000
00100000
00000000
00100000
00010000
00000000
10000000
00100000
,
10000000
00000000
01000000
00100000
01000000
00000000
00010000
00001000
00010000
00000000
00001000
00000000
00000100
00000001
00001000
00000000
,
00000002
00000000
00000000
00000023
00000000
00000000
00000130
00001000
00000002
00000000
00000000
00000203
00000000
00000000
00001300
00010000
,
00002000
01000000
00000000
00023000
00000000
00000000
01030000
00000000
00000000
00000000
20000000
00000000
00000000
00000000
30100000
01000000
,
00020000
00000000
00000000
10030000
00000000
00000000
00200000
00000000
00000000
01000000
00000000
01300000
00010000
00000000
10000000
00010000
,
10000000
00000000
01000000
00100000
00010000
00000000
00001000
00000010
00000100
00000001
00001000
00000100
00000020
00000000
00000000
00000031
,
00000200
00000000
00000000
00000000
00001000
00000000
00000000
00000000
00000310
00001000
00000010
00001000
00000002
00000000
00000000
00000000
,
00000013
00000000
00000000
00000100
00001000
00000000
00000010
00000000
00000000
00000010
00000000
00000100
00000001
00000000
00001000
00000000
,
00000100
00000000
00010000
00000000
00001000
00010000
00000000
00001000
00000000
00001000
01000000
00000000
00010000
00000000
10000000
00000000
,
00010000
00000000
00100000
01000000
00000000
10000000
00200000
00000000
00000000
01000000
00000000
01300000
00010000
00000000
10000000
00000000
,
01000000
00000000
00100000
00010000
00000000
00001000
00000020
00000000
00000000
00000100
00000000
00000130
00000001
00000000
00001000
00000000
,
00000001
00000000
00000010
00000100
00000000
00000010
00001000
00000000
00000000
00000010
00000000
00000001
00000100
00000000
00001000
00000000
,
00010000
00000000
00100000
00000000
01000000
00010000
00000000
10000000
00000000
00010000
00000000
10000000
01000000
10000000
00010000
00000000
,
10000000
00000000
01000000
00100000
00000000
01000000
00010000
00000000
00001000
00000100
00000000
00000010
00000100
00000000
00000001
00000010
,
00000200
00000000
00000000
00000310
00000100
00000010
00000002
00000000
00001003
00000010
00000100
00000001
00001000
00000000
00000001
00000000
,
00001000
00000000
00000100
00001000
00000100
00000000
00010000
00000100
00010000
00000000
00001000
00010000
00001000
01000000
00010000
00000000
,
10000000
00000000
00100000
10000000
00100000
00000000
01000000
00010000
01000000
00000000
00010000
00100000
00001000
00010000
00001000
00000000
,
00010000
00000000
00000010
00001000
00000000
00000010
00000200
00000000
00001300
00000100
00000000
00000010
00000100
00000000
00000001
00000000
,
00000010
00000000
00001000
00010000
00000000
00000100
00002000
00000000
00003010
00000200
00000000
00000301
00001000
00000000
00000100
00001000
,
00000001
00000000
00000100
00000000
00000010
00001000
00000000
00000001
00001000
00000000
00000001
00000010
00000000
00001000
00010000
00001000
,
00100000
00000000
00010000
00000000
10000000
00100000
00000000
00010000
00100000
00000000
01000000
00010000
10000000
00010000
01000000
00000000
,
01010000
00000000
01000000
00010000
10000000
00000000
21000000
00000000
00000000
31000000
00100000
00010000
10000000
00200000
00000000
00000000
,
10300000
01000000
10000000
01000000
00100000
00001000
00010000
00000000
00000010
00001000
00000010
00001000
00000001
00000010
00000100
00000000
,
00001000
00000000
00000001
00000100
00000000
00001000
00010000
00000000
01000000
10000000
00000000
00100000
01000000
00000000
00010000
10000000
,
00010000
00000000
10000000
01000000
00100000
00000000
00001000
00010000
00001000
00000000
00000010
00000100
00001000
00000010
00000100
00000000
,
00000102
00000000
00000000
00000100
00000000
00000000
00000103
00000010
00001000
00000000
00000000
00000000
00000001
00000000
00000010
00000000
,
00002000
00000000
00000000
01000000
00000000
00000000
00013000
00001000
00100000
00000000
00000000
00000000
00000000
00000000
00010000
00000000
,
20000000
00000000
00000000
01000000
00000000
00000000
31000000
00100000
00010000
00000000
00000000
00000000
10000000
00000000
00100000
00000000
,
00020000
00000000
00000000
00000100
00000000
00000000
00031000
00010000
00000010
00000100
00000010
00000000
00001000
00000100
00000010
00000000
,
00000012
00000000
00000000
00000100
00000000
00000000
00001003
00000000
00001001
00000000
00000000
00000000
00000000
00000000
00000100
00000000
,
00020100
00000000
00000000
00001000
00000000
00000000
01030000
00000000
01100000
00000000
00000000
00000000
00000000
00000000
00010000
00000000
,
10010000
00000000
00000000
10000000
00100000
00000000
01000000
00000000
01010000
00000000
00000000
10000000
01000000
00000000
00100000
00001000
,
00010000
00000000
00000000
00010010
00000000
00000000
00000010
00000000
00000100
00000001
00000000
00000001
00001000
00000001
00000010
00000000
,
00000002
00000000
00000000
00000000
00000103
00000000
00000010
00000000
00000000
00000100
00000000
00000100
00001000
00000000
00010000
00000000
,
00001000
00000000
00100000
00010000
10000000
00000000
00010000
10000000
00000000
00100000
00000000
00100000
00010000
00000000
00100000
00000000
,
10000000
00000000
00000000
01000000
00100000
00000000
01000000
00000000
00010000
00001000
00000000
00001000
00010000
00000000
00001000
00000000
,
00000100
00000000
00000000
00000010
00001000
00000000
00000001
00000000
00000010
00000000
00000001
00000100
00000010
00001000
00000001
00001000
,
00000010
00000000
00001000
00000100
00000010
00000000
00000001
00000100
00000000
00001000
00010000
00001000
01000000
00000000
00010000
00100000
,
01000000
00000000
10000000
00100000
01000000
00000000
00100000
10000000
00000000
00010000
00100000
01000000
00100000
00000000
00001000
00010000
,
00001000
00000000
00000000
00000100
00000001
00000000
00001000
00000000
00000100
00010000
00001000
00010000
00000100
00000000
00010000
00001000
,
00010000
00000000
00000000
00000000
01000000
00000000
10000000
00000000
00100000
00000000
01000000
00000000
00010000
00000000
10000000
00000000
00100000
01000000
00000000
00000000
00000000
00000000
00000000
00000000
00000000
00000000
00000000
00000000
00001000
00000000
00000000
00000000
,
00010000
00000100
00010000
00000100
00010000
00000000
00001000
01000000
00000000
01000000
00001000
00010000
00001000
00000000
00010000
00001000
,
00010000
00000010
00010000
00000010
00010000
00000000
00001000
00100000
00000000
00100000
00001000
00010000
00002000
01000000
00000000
00013000
,
00001000
00100000
00001000
00100000
00001000
00000000
00010000
00001000
00000000
00001000
00010000
00000010
00001000
00000000
00000001
00000100
,
00000020
00001000
00000000
00000130
00000001
00000000
00000010
00000100
00020000
00000000
00000000
00031000
00010000
00001000
00010000
00001000
,
00010000
00000000
01000000
10000000
00000000
10000000
00010000
00000000
10000000
00100000
00000000
00100000
00010000
00000000
00000000
00000000
,
00001000
00000000
00000100
00000001
00000000
00000001
00001000
00000000
00000001
00000010
00000000
00000010
00001000
00000000
00000000
00000000
,
00010000
00000000
00000000
00000000
00000000
00000000
01000000
00000000
00000000
10000000
00000000
00000000
00000000
00000000
00000000
10000000
00000000
00000000
00100000
00000000
00000000
00000000
00000000
00000000
00010000
00000000
00000000
00001000
00000000
00000000
00000000
00000000
00000000
00001000
00000000
00000000
00010000
00000000
00000000
00000000
00000000
00000000
00000100
00000000
00001000
00000000
00000001
00000000
,
00001000
00000000
00000000
00000110
00000000
00000000
00001001
00000000
00000001
00000000
00000010
00000000
00000100
00000000
00001000
00000000
,
00000001
00000100
00000001
00000100
00000010
00001000
00000010
00001000
00000001
00000000
00000010
00001000
00010000
00000000
00000100
00000000
,
00001000
00000001
00000100
00000000
00001000
00010000
00001000
00100000
00010000
00000000
10000000
00010000
01000000
00000000
00100000
10000000
,
00010000
00000000
00100000
10000000
00000000
10000000
00010000
00000000
01000000
00100000
00000000
00100000
00010000
00000000
10000000
00000000
,
00100000
00000000
00010000
00001000
00000100
00000000
00000010
00001000
00000001
00000010
00000100
00001000
00000001
00000100
00001000
00010000
,
00001000
00010000
00000200
00000000
00001000
00000000
00000310
00000100
00001000
00000000
00000001
00000100
00000002
00000000
00001000
00000000
,
00000023
00000000
00000031
00000000
00000100
00000000
00001000
00010000
00002000
00000000
00000000
01003000
00010000
10000000
00010000
10000000
,
00100000
00000000
00010000
00001000
00000000
00000010
00000002
00000000
00000000
00000100
00000000
00000103
00000010
00000000
00001000
00000001
,
00001000
00000100
00000010
00000001
00000100
00001000
00010000
00100000
10000000
00000000
00000000
00011000
00000000
00000000
00001001
00000000
;
