#TITLE:Someone;
#SUBTITLE:Furious F. Radio Edit;
#ARTIST:DHT feat. Edmee;
#TITLETRANSLIT:;
#SUBTITLETRANSLIT:;
#ARTISTTRANSLIT:;
#GENRE:;
#CREDIT:Braeden;
#MUSIC:Someone.ogg;
#BANNER:BR2023-bn.png;
#BACKGROUND:BR2023-bg.png;
#CDTITLE:;
#SAMPLESTART:92.298;
#SAMPLELENGTH:14.500;
#SELECTABLE:YES;
#OFFSET:0.060;
#BPMS:0.000=140.000
,131.000=69.990
,163.000=139.980
;
#STOPS:;
#BGCHANGES:;
#FGCHANGES:;

//--------------- dance-single - ----------------
#NOTES:
     dance-single:
     :
     Beginner:
     3:
     0,0,0,0,0:
0000
0000
0000
0000
,
0000
0000
0000
0000
,
0000
0000
0000
0000
,
0000
0000
0000
0000
,
0000
0000
0000
1000
,
0000
0000
0000
0001
,
0000
0000
0000
0100
,
0000
0000
0000
0010
,
0000
0000
0000
1001
,
0000
0000
0000
0001
,
0000
0000
0000
2000
,
0000
3000
0000
0002
,
0000
0003
0000
0100
,
0000
0000
0000
0010
,
0000
0000
0000
1000
,
0000
0000
0000
0001
,
0000
0000
0000
1001
,
0000
1000
0000
1000
,
0000
0001
0000
0100
,
0000
0010
0000
0000
,
0000
0000
0000
1000
,
0000
0001
0000
0100
,
0000
0001
0000
0100
,
0000
0000
0000
0010
,
0000
0000
0000
1001
,
0000
0000
0000
1000
,
0000
0000
0000
0001
,
0000
0000
0000
0100
,
0000
0000
0000
0010
,
0000
0000
0000
1000
,
0000
0000
0000
0001
,
0000
1000
0000
0010
,
0000
0100
0000
1001
,
0000
0000
0000
0001
,
0000
0100
0000
0010
,
0000
1000
0000
0001
,
0000
0010
0000
1001
,
0000
1000
0000
0100
,
0000
1000
0000
0001
,
0000
0010
0000
0001
,
0000
1000
0000
1001
,
0000
0000
0000
0001
,
0000
0000
0000
0100
,
0000
0000
0000
0001
,
0000
0000
0000
1000
,
0000
0000
0000
0001
,
0000
0000
0000
0100
,
0000
0000
0000
0010
,
0000
0000
0000
1001
,
0000
0000
0000
1000
,
0000
0000
0000
0001
,
0000
0000
0000
0010
,
0000
0000
0000
1001
,
0000
0000
0000
1000
,
0000
0000
0000
1001
,
0000
1000
0000
0010
,
0000
1000
0000
1001
,
0000
0001
0000
0100
,
0000
0010
0000
1000
,
0000
0100
0000
0010
,
0000
0001
0000
0100
,
0000
0001
0000
1000
,
0000
0010
0000
0100
,
0000
0001
0000
0100
,
0000
0010
0000
1001
;

//--------------- dance-single - ----------------
#NOTES:
     dance-single:
     :
     Easy:
     5:
     0,0,0,0,0:
0000
0000
0000
0000
,
0000
0000
0000
0000
,
0000
0000
0000
0000
,
0000
0000
0000
0000
,
0000
0000
0000
1000
,
0001
0000
0100
0010
,
1000
0100
0010
0001
,
1000
0000
0001
0100
,
0010
1000
0000
1001
,
0002
0003
0100
0010
,
2000
3000
0001
0200
,
0000
0320
0000
2030
,
0001
0001
3001
0100
,
0020
0030
1000
0001
,
0010
0001
1000
0010
,
0200
0300
0001
0010
,
0100
1000
0000
1001
,
0001
0100
0001
0100
,
0010
1000
0001
0100
,
0010
2000
0000
3001
,
0000
0100
0000
1001
,
0001
1000
0010
1000
,
0100
0010
0001
1000
,
0000
0001
0000
0000
0100
0000
0110
0000
,
0000
0010
1000
1001
,
0001
0200
0000
0300
,
0000
0010
0000
0000
1000
0000
1001
0000
,
0001
0000
0100
0110
,
0000
0000
0010
1010
,
1000
0001
0020
0000
,
0000
0031
0000
0000
1000
0000
0002
0000
,
0000
0203
0000
0320
,
0000
2030
3000
1001
,
1000
0001
0100
0010
,
1000
0100
0010
0001
,
1000
0010
0100
0001
,
0010
0100
1000
1001
,
0001
0100
0010
1000
,
0100
0010
0100
0010
,
0100
1000
0001
0100
,
0010
1000
0001
1001
,
0000
1000
0001
0100
,
0000
0010
1000
0001
,
0000
0100
0010
1000
,
0000
0100
0010
0001
,
0000
0100
0010
1000
,
0000
0001
0100
0001
,
0000
1000
0010
1000
,
0000
0001
1000
1001
,
0000
0001
0100
0001
,
0000
0100
0010
1000
,
0000
0001
0100
0010
,
0000
1000
0001
1001
,
1000
0100
1000
0001
,
0100
0001
0100
1001
,
1000
0010
1000
0001
,
0100
0010
1000
0001
,
1000
0010
0100
0001
,
0010
0100
1000
0001
,
0100
0001
0010
0001
,
1000
0010
0100
0001
,
1000
0100
0010
0001
,
1000
0010
0100
0001
,
0010
0100
0010
0001
,
1000
0010
0100
0002
,
0000
0003
0000
0000
;

//--------------- dance-single - ----------------
#NOTES:
     dance-single:
     :
     Medium:
     9:
     0,0,0,0,0:
0000
0000
0000
0000
,
0000
0000
0000
0000
,
0000
0000
0000
0000
,
0000
0000
0000
0000
,
0000
0000
0000
1001
,
1000
0010
0000
1000
0010
0000
1000
0000
,
0100
0000
0010
0001
0010
0000
0001
0000
,
0100
0001
0000
0100
0010
0000
1000
0000
,
0001
0010
0100
1001
,
0001
0100
0000
1000
0100
0000
0001
0000
,
1000
0010
0000
0001
0010
0000
2000
0000
,
0000
3100
0010
0001
,
1000
0000
0010
1000
0010
0000
1000
0000
,
0001
0100
0000
1000
0100
0000
0001
0000
,
1000
0000
0001
0100
0001
0000
1000
0000
,
0001
0100
0000
1000
0100
0000
0010
0000
,
1000
0001
0100
0101
,
0001
1000
0002
0000
1003
0010
0200
0000
,
0301
0100
0020
0000
0130
0010
0200
0000
,
0301
0010
0100
1000
,
0001
0100
0001
1001
,
1000
0100
2000
0000
3001
0100
0020
0000
,
1030
0001
1000
0100
0010
0001
0020
0000
,
0000
0032
0000
0000
1003
0000
1001
0000
,
0001
0100
0010
1010
,
1000
0000
0001
0100
0001
0000
1000
0000
,
0001
0020
0000
0031
1000
0000
1100
0000
,
0100
0010
0000
0001
1000
0000
1001
0000
,
0001
0000
0100
0010
1000
0000
1001
0000
,
0001
0010
0100
1000
,
0001
0100
0000
0010
1000
0000
0001
0010
,
0001
0010
0100
1000
0100
1000
0002
0000
,
0203
0320
1030
1M01
,
1000
0000
0001
0100
0010
1000
0001
0000
,
0010
0000
0100
1000
0001
0100
0010
0000
,
1000
0100
0010
0000
0100
1000
0001
0000
,
0100
0010
0100
0000
0001
0000
1001
0000
,
1000
0000
0002
0000
0103
0010
1000
0000
,
0001
1000
0100
0010
0001
0100
0001
0000
,
1000
1000
0010
0000
0100
0001
1000
0000
,
0001
1000
0001
0000
0100
0000
20M2
0000
,
3003
0000
0000
0000
1000
0000
0000
0000
0001
0000
0000
0000
1000
0000
0000
0100
,
0000
0000
1000
0000
0100
0000
0000
0000
0010
0000
0000
0000
0001
0000
0000
1000
,
0000
0000
0001
0000
1000
0000
0000
0000
0001
0000
0000
0000
0100
0000
0000
0010
,
0000
0000
0100
0000
0001
0000
0000
0000
1000
0000
0000
0000
0100
0000
0000
0010
,
0000
0000
0001
0000
0100
0000
0000
0000
0001
0000
0000
0000
1000
0000
0000
0010
,
0000
0000
1000
0000
0001
0000
0000
0000
0100
0000
0000
0000
0010
0000
0000
1000
,
0000
0000
0100
0000
1000
0000
0000
0000
0001
0000
0000
0000
0010
0000
0000
0100
,
0000
0000
1000
0000
0001
0000
0000
0000
0100
0000
0000
0000
1001
0000
0000
0001
,
0000
0000
1000
0000
0010
0000
0000
0000
1000
0000
0000
0000
0001
0000
0000
0010
,
0000
0000
0100
0000
1000
0000
0000
0000
0001
0000
0000
0000
0100
0000
0000
0010
,
0000
0000
0100
0000
0001
0000
0000
0000
1000
0000
0000
0000
0010
0000
0000
1000
,
0000
0100
1000
0000
0001
0000
1000
0100
,
1000
0100
1000
0100
0010
0001
1000
0010
,
1000
0010
0100
0001
0010
0100
1000
0001
,
1000
0001
0100
0010
1000
0100
0010
0001
,
0010
0000
0001
0000
1000
0000
0010
0000
1000
0000
0001
0000
1000
0000
0000
0100
,
0000
0000
0010
0000
0001
0000
0000
0000
1001
0000
0000
0000
1000
0000
0000
0010
,
0000
0000
0100
0000
0001
0000
0000
0000
0011
0000
0000
0000
0010
0000
0000
0100
,
0000
0000
1000
0000
0001
0000
0000
0000
1001
0000
0000
0000
1000
0000
0000
0010
,
0000
0000
0100
0000
0001
0000
0000
0000
0101
0000
0000
0000
0001
0000
0000
0010
,
0000
0000
0100
0000
1000
0000
0000
0000
1001
0000
0000
0000
1000
0000
0000
0010
,
0000
0000
0100
0000
0001
0000
0000
0000
1001
0000
0000
0000
1000
0000
0000
0010
,
0000
0000
0100
0000
0001
0000
0000
0000
0101
0000
0000
0000
0100
0000
0000
0010
,
0000
1000
0100
0000
0010
0000
0200
0000
,
0000
0300
0000
0000
;

//--------------- dance-single - XMOD XO FS- ----------------
#NOTES:
     dance-single:
     XMOD XO FS-:
     Hard:
     12:
     0,0,0,0,0:
0000
0000
0000
0000
,
0000
0000
0000
0000
,
0000
0000
0000
0000
,
0000
0000
0000
0000
,
0000
0000
0000
0000
0000
0000
1000
0001
,
0100
1000
0000
0100
0001
0100
0001
0010
,
0001
0010
0100
1000
0100
1000
0001
0100
,
0010
0001
0000
0010
0100
0001
1000
0100
,
1000
0010
1000
0001
0100
0100
0001
1000
,
0100
0001
0000
0100
1000
0010
0100
0001
,
0100
1000
0000
0100
0010
1000
0002
0000
,
0103
0000
0020
0000
1030
0100
0010
0001
,
1000
0010
0100
0001
0010
0001
1000
0001
,
0100
1000
0000
0100
0010
1000
0001
0100
,
0001
0010
0001
1000
0010
1000
0001
0100
,
0010
0001
0000
0010
0100
0001
1000
0100
,
1000
0100
0010
0000
0001
1000
1001
0000
,
0001
0100
2000
0000
3001
0010
2000
0000
,
3001
0100
2000
0000
3001
0010
2000
0000
,
3001
0100
0001
0000
1000
0010
1000
0000
,
0001
0100
0010
0000
0010
0000
1010
0000
,
1000
0100
0002
0000
1003
0010
0002
0000
,
1003
0001
0010
1000
0010
0100
2000
0000
,
3001
0100
0010
1000
0001
0000
1001
0000
,
1000
0000
0001
0000
0100
0000
0010
0000
1000
0100
0000
0000
1100
0000
0000
0000
,
1000
0100
0010
0001
0100
0010
1000
0001
,
1000
2001
0000
3001
0100
0010
1020
0000
,
1030
0001
0000
0100
0010
1000
1010
0000
,
0010
0100
0001
0010
0100
1000
1002
0000
,
0103
0010
0100
0001
0020
0000
0032
0000
,
1003
1001
0000
0001
0100
0010
1000
0100
,
1000
0010
0100
0001
0100
0010
1000
0100
,
0010
0001
1000
0010
0100
0001
10M1
1000
,
0010
0000
1000
0000
0020
0000
0130
0001
0010
0001
1000
0010
1000
0000
0000
0000
,
0100
0000
0000
0000
0010
0001
0010
0001
1000
0010
1000
0000
1001
0000
0000
0000
,
0001
0010
0100
1000
0001
0000
0000
0000
1000
0000
0001
0100
0001
0000
0000
0000
,
1000
0100
0010
0001
1000
0000
0000
0000
0010
0000
0000
0000
0110
0000
0000
0000
,
0100
0000
0001
1000
0002
0000
0013
0100
0010
0001
1000
0010
0100
0000
0000
0000
,
0101
0000
0001
0010
0100
0000
1000
0010
1000
0100
0010
0001
1000
0000
0000
0000
,
0001
0000
0100
0010
0100
0000
0000
0000
0001
0000
1000
0100
0010
0000
0000
0000
,
0001
0100
0010
1000
0001
0000
0000
0000
0010
0000
0000
0000
0M11
0000
0000
0001
,
0000
0000
0100
0000
0010
1000
0000
1000
0010
0000
1000
0000
0100
0000
0000
0010
,
0000
0000
0001
0000
1000
0010
0000
0010
1000
0000
0100
0000
0001
0000
0000
0100
,
0000
0000
1000
0000
0001
0100
0000
0001
0100
0000
0001
0000
0010
0000
0000
0100
,
0000
0000
1000
0000
0100
0010
0000
0100
0010
0000
0001
0000
0100
0000
0000
0001
,
0000
0000
1000
0000
0001
0100
0000
0001
0100
0000
0010
0000
0001
0000
0000
0010
,
0000
0000
0100
0000
0001
1000
0000
0001
1000
0000
0100
0000
0001
0000
0000
0100
,
0000
0000
1000
0000
0001
0100
0000
0001
0100
0000
0010
0000
1000
0000
0000
0100
,
0000
0000
0010
0000
0001
1000
0000
0001
1000
0000
0010
0000
1010
0000
0000
1000
,
0000
0000
0001
0000
0100
0010
0000
0100
0010
0000
1000
0000
0001
0000
0000
0010
,
0000
0000
0100
0000
1000
0001
0000
1000
0001
0000
0100
0000
1000
0000
0000
0100
,
0000
0000
0010
0000
1000
0001
0000
1000
0001
0000
0100
0000
0001
0000
0000
0010
,
0000
0000
0100
0000
1000
0001
0000
1000
0001
0000
1000
0000
1010
0000
0010
0000
,
0100
0001
0100
0010
1000
0100
0001
0100
,
0010
0001
1000
0100
0010
0100
0001
0100
,
1000
0010
0100
0001
1000
0001
1000
0100
,
1000
0000
0100
0000
0010
0000
0001
0000
0010
0000
0001
0000
1000
0010
0000
1000
,
0000
0010
1000
0000
0001
0100
00M0
0100
1000
0000
0001
0000
1000
0100
0000
1000
,
0000
0010
1000
0000
0001
0010
0M00
0010
1000
0000
0100
0000
1000
0001
0000
1000
,
0000
0010
1000
0000
0001
0100
00M0
0100
1000
0000
0100
0000
1000
0001
0000
0100
,
0000
0001
0010
0000
0001
0100
M000
0100
0010
0000
0100
0000
1000
0010
0000
1000
,
0000
0001
0010
0000
0001
0010
0M00
0010
1000
0000
0100
0000
0010
0001
0000
0010
,
0000
0001
1000
0000
0010
0100
000M
0100
1000
0000
0001
0000
1000
0010
0000
1000
,
0000
0001
0100
0000
0001
0100
00M0
0100
1000
0000
0001
0000
1000
0100
0000
0010
,
0000
0001
1000
0000
0010
0000
0100
0000
0001
1000
0001
1000
0200
0000
0000
0000
,
0000
0300
0000
0000
;

//--------------- dance-single - XMOD STR XO FS- ----------------
#NOTES:
     dance-single:
     XMOD STR XO FS-:
     Challenge:
     15:
     0.736045,1.065747,0.085753,0.114337,1.018315,721,709,12,16,0,0,0.736045,1.065747,0.085753,0.114337,1.018315,721,709,12,16,0,0:
0000
0000
0000
0000
,
0000
0000
0000
0000
,
0000
0000
0000
0000
,
0000
0000
0000
0000
,
0000
0000
0000
0000
0000
0000
0001
1000
,
0010
0001
0000
0010
1000
0001
0010
0100
,
1000
0010
0001
0010
0100
0001
1000
0001
,
0010
1000
0000
0010
0001
0100
0010
1000
,
0001
0000
0100
0000
0010
0000
1000
0000
0010
0000
0010
0000
1010
0000
1000
0001
,
0100
0000
0010
0000
0000
0000
1000
0001
1000
0000
0010
0000
0100
0000
0010
1000
,
0010
0000
1000
0000
0000
0000
0100
0010
0001
0000
0010
0000
0200
0000
0000
0000
,
1300
0010
0200
0000
0301
1000
0001
0010
,
0001
0000
0010
0000
1000
0000
0010
0000
0001
0000
0100
0000
0010
0000
1000
0001
,
1000
0000
0010
0000
0000
0000
0010
0000
0100
0000
0001
0000
1000
0000
0010
1000
,
0010
0000
0100
0000
1000
0000
0100
0000
0010
0000
1000
0001
1000
0000
0001
0000
,
0010
1000
0010
0001
0100
0010
1000
0010
,
0100
0000
0010
0000
0001
0000
0010
0000
1000
0000
0010
0000
1010
0000
0000
1000
,
0001
0000
0100
0010
0200
0000
0000
0000
0301
0000
1000
0100
0020
0000
0000
0000
,
0031
0000
1000
0001
2000
0000
0000
0000
3001
0000
0100
0000
0010
0000
1000
0001
,
1000
0000
0001
0010
0001
0000
1000
0010
1000
0000
0001
0010
0001
0000
1000
0100
,
0010
0000
0001
0100
0010
0000
1000
0100
1000
0000
0001
0000
1002
0000
0000
0000
,
1003
0000
0010
0100
0020
0000
0000
0000
1030
0000
0100
0010
0002
0000
0000
0000
,
1003
0000
0001
0100
0010
0000
1010
0000
1000
0000
0001
0000
1002
0000
0000
0000
,
0000
2003
0000
0000
3010
1000
1010
0010
,
0100
0000
0001
0000
1000
0000
1000
0000
0010
0100
0001
0000
1001
0000
1000
0010
,
1000
0000
0100
0000
0010
0000
0001
0100
0010
0000
0001
0000
0010
0000
1000
0001
,
1000
0000
1001
0000
0001
0000
1000
0000
0010
0000
0100
0000
0101
0000
0001
0010
,
0100
0000
1000
0000
0010
0000
1000
0001
0010
0000
0100
0000
0110
0000
0010
0000
,
0001
0000
1000
0010
0100
0000
0001
0000
1000
0000
0010
0000
0210
0000
0000
0000
,
0301
0000
0010
0001
0010
0000
0100
0000
1000
0000
0010
0100
0010
0000
1000
0000
,
0100
0000
1100
0000
1000
0000
0001
0000
1000
0000
0010
0000
1000
0100
0010
0001
,
1000
0010
0100
0010
1000
0001
0010
0100
0010
0001
0100
0010
1000
0100
0010
0001
,
1000
0010
0100
0001
1000
0100
0010
0001
1000
0010
1000
0001
1M00
0000
0010
0000
,
0100
0000
0010
0000
2000
0000
3001
0010
1000
0010
0100
1000
0001
0000
1000
0000
,
1010
0000
0010
0100
0001
1000
0010
0100
1000
0100
0010
0000
1010
0000
0000
0000
,
1000
0100
0010
0001
1000
0100
0000
1000
0001
0000
0010
0100
1000
0001
0000
0100
,
0010
1000
0010
0100
0020
1000
0000
0000
0130
0000
0000
0000
1001
0000
0001
0000
,
1000
0000
0010
0100
2000
0000
3100
0010
1000
0001
0010
0100
1000
0000
0001
0000
,
1001
0000
1000
0010
0200
0000
0301
0010
0001
1000
0010
0100
0002
0000
0000
0000
,
1003
0010
0100
0001
0010
0100
0000
1000
0020
0000
0130
0001
1000
0100
0000
0010
,
0001
1000
0010
0100
0002
0000
0000
0000
2003
0000
0000
0000
30M1
0100
0000
0001
,
0000
0100
0010
0000
1000
0100
0000
1000
0010
0000
1000
0100
1000
0100
0000
0010
,
0000
0001
1000
0000
0010
0100
0000
0001
0010
0000
0100
1000
0100
1000
0000
0010
,
0000
0100
0001
0000
1000
0010
0000
0100
0001
0000
0010
0100
1000
0100
0000
1000
,
0000
0010
0100
0000
0001
0100
0000
0010
1000
0000
0001
0010
0100
1000
0000
0010
,
0000
0100
0001
0000
0100
0001
0000
0100
0010
0000
1000
0001
1000
0001
0000
1000
,
0000
0100
0010
0000
0100
1000
0000
0100
0010
0000
0001
1000
0010
0100
0000
1000
,
0000
0100
0010
0000
1000
0001
0000
1000
0001
0000
0100
0010
1000
0010
0000
1000
,
0000
0100
0010
0000
0001
1000
0000
0001
0010
0000
0100
1000
0001
0100
0000
1000
,
0000
0100
0010
0000
1000
0001
0000
1000
0001
0000
0100
0010
1000
0001
0000
0010
,
0000
1000
0010
0000
0001
0100
0000
0010
1000
0000
0001
0100
0010
0001
0000
0010
,
0000
0100
0001
0000
1000
0100
0000
0010
0001
0000
1000
0010
0100
1000
0000
0100
,
0000
0001
1000
0000
0001
0010
0000
0100
1000
0000
0001
0000
1000
0100
1000
0010
,
0100
0001
0100
0010
1000
0100
1000
0001
1000
0100
0010
0001
0010
0001
0100
0010
,
1000
0010
0100
0001
1000
0100
1000
0010
0100
0001
1000
0100
1000
0100
0010
0001
,
1000
0100
1000
0001
0100
0010
0100
0001
0100
0010
1000
0100
1000
0001
0100
0010
,
1000
0100
0010
0001
0100
0010
1000
0001
0010
0100
1000
0001
1000
0010
0000
0010
,
0000
0010
1000
0000
0001
0010
0M00
0010
1000
0000
0001
0010
0100
1000
0000
1000
,
0000
1000
0001
0000
1000
0100
00M0
0100
0001
0000
1000
0010
0100
1000
0000
0100
,
0000
0010
1000
0000
0001
0010
M000
0010
0100
0000
0001
0100
0010
1000
0000
1000
,
0000
1000
0010
0000
1000
0100
00M0
0100
0001
0000
0100
0010
0100
1000
0000
0100
,
0000
0010
1000
0000
0001
0010
0M00
0010
1000
0000
0001
0100
0010
1000
0000
1000
,
0000
1000
0001
0000
1000
0100
00M0
0100
0001
0000
0100
0010
0100
1000
0000
0100
,
0000
0001
0100
0000
0010
1000
0000
0001
1000
0000
0001
0010
0100
0001
0000
0100
,
0000
0010
0001
0000
1000
0010
0100
0001
0010
0100
0010
0001
2000
0000
0000
0000
,
0000
3000
0000
0000
;

//--------------- dance-double - XMOD XO ----------------
#NOTES:
     dance-double:
     XMOD XO:
     Hard:
     13:
     0,0,0,0,0:
00000000
00000000
00000000
00000000
,
00000000
00000000
00000000
00000000
,
00000000
00000000
00000000
00000000
,
00000000
00000000
00000000
00000000
,
00000000
00000000
00000000
00000000
00000000
00000000
00001000
00100000
,
00010000
00001000
00000000
00010000
00100000
00001000
00010000
00000100
,
00010000
00001000
00010000
00000100
00001000
00000001
00001000
00000001
,
00000100
00001000
00000000
00000100
00000010
00010000
00001000
01000000
,
00100000
10000000
00010000
00100000
01000000
01000000
11000000
10000000
,
01000000
00010000
00000000
01000000
00100000
00010000
00100000
00001000
,
00010000
00100000
00000000
00010000
00001000
00100000
00002000
00000000
,
00013000
00000100
00000000
00001000
00000100
00000010
00000001
00000010
,
00000100
00001000
00000001
00000100
00000010
00010000
00001000
00010000
,
00001000
00000100
00000000
00001000
00010000
00000100
00010000
00001000
,
00100000
00010000
00100000
01000000
00100000
00010000
10000000
00010000
,
01000000
10000000
00000000
01000000
00100000
10000000
00010000
00100000
,
00001000
00010000
00001000
00010000
00000100
00000100
00010100
00000000
,
00010000
00001000
00000100
00000000
00001000
00010000
00000100
00000000
,
00001000
00010000
00100000
00000000
00001000
00100000
00010000
01000000
,
00010000
00000000
10000000
00100000
10000000
00000000
00010000
00100000
,
00001000
00000000
00010000
00000100
00001000
00000001
00001001
00000000
,
00000001
00000100
00002000
00000000
00003001
00000010
00002000
00000000
,
00003001
00000100
00000010
00001000
00001000
00000100
00002100
00000000
,
00000000
00003010
00000000
00000000
00001000
00000001
00001001
00000000
,
00001000
00000000
00000010
00000000
00001000
00000000
00000001
00000000
00001000
00000010
00001000
00000000
00000001
00000000
00000100
00000000
,
00000010
00010000
00001000
01000000
00100000
10000000
00010000
10000000
,
01000000
00010000
00000000
01000000
00100000
00010000
00110000
00000000
,
00100000
00001000
00000000
00010000
00000010
00000000
00001001
00000000
,
00000001
00000010
00000100
00001000
00010000
00100000
00110000
00000000
,
00010000
10000000
00100000
01000000
00010000
00100000
00010000
10000000
,
01000000
00010000
00000000
01000000
00100000
00010000
00100000
00001000
,
00010000
00000100
00001000
00000001
00000010
00000100
00002000
00000000
,
00003002
00000000
00020003
00000000
00031000
00010000
M0011000
00001000
,
00100000
00000000
00010000
00000000
01000000
00000000
00100000
10000000
00100000
10000000
00010000
00100000
01000000
00000000
10000000
00000000
,
00010000
00000000
00000000
01000000
00100000
10000000
01000000
00100000
00010000
00100000
01000000
00100000
00010000
00000000
00000000
00000000
,
00100000
00001000
00010000
00001000
00010000
00000000
00000000
00000000
00000100
00000000
00001000
00000001
00001000
00000100
00000000
00000010
,
00000001
00001000
00000010
00001000
00000020
00000000
00000000
00000000
00000130
00000000
00000000
00000000
00000101
00000000
00000100
00000000
,
00000010
00000000
00010000
00001000
00010000
00000000
00001000
00100000
00010000
10000000
01000000
00100000
00010000
00000000
01000000
00000000
,
00001000
00000000
00010000
00001000
00010000
00000000
00001000
00100000
00010000
00100000
00001000
00100000
00010000
00000000
00000000
00000000
,
00100000
00001000
00010000
00000100
00001000
00000000
00000000
00000000
00000100
00000000
00001000
00000001
00001000
00000001
00000000
00000100
,
00000010
00001000
00000100
00000010
00000002
00000000
00000000
00000000
00001003
00000000
00000000
00000000
00001M01
00000000
00000000
00000001
,
00000000
00000000
00000100
00000000
00000010
00001000
00000000
00000010
00001000
00000000
00000100
00000000
00010000
00000000
00000000
00001000
,
00000000
00000000
01000000
00000000
00100000
10000000
00000000
00100000
10000000
00000000
01000000
00000000
00100000
00000000
00000000
00001000
,
00000000
00000000
00010000
00000000
00000100
00001000
00000000
00000100
00001000
00000000
00000010
00000000
00001000
00000000
00000000
00000001
,
00000000
00000000
00001000
00000000
00000010
00001000
00000000
00000001
00001000
00000000
00000001
00000000
00000010
00000000
00000000
00000100
,
00000000
00000000
00001000
00000000
00010000
00100000
00000000
00010000
00100000
00000000
00010000
00000000
10000000
00000000
00000000
01000000
,
00000000
00000000
00100000
00000000
00010000
00100000
00000000
00010000
10000000
00000000
01000000
00000000
00010000
00000000
00000000
00001000
,
00000000
00000000
00000010
00000000
00000001
00001000
00000000
00000001
00001000
00000000
00000010
00000000
00001000
00000000
00000000
00000100
,
00000000
00000000
00000010
00000000
00000100
00001000
00000000
00000100
00010000
00000000
00001000
00000000
00011000
00000000
00000000
00010000
,
00000000
00000000
00001000
00000000
01000000
00100000
00000000
01000000
00100000
00000000
10000000
00000000
00010000
00000000
00000000
01000000
,
00000000
00000000
00100000
00000000
10000000
00010000
00000000
10000000
00010000
00000000
10000000
00000000
00010000
01000000
00000000
00010000
,
00000000
01000000
00010000
00000000
10000000
01000000
00000000
10000000
01000000
00000000
00100000
00000000
00001000
00010000
00000000
00001000
,
00000000
00010000
00000100
00000000
00001000
00000001
00000000
00001000
00000001
00000000
00000100
00000000
00000101
00000000
00000001
00000000
,
00000100
00001000
00010000
00100000
10000000
00010000
10000000
01000000
,
00010000
00001000
00000010
00000001
00001000
00000001
00000100
00000010
,
00000001
00000010
00000100
00000001
00001000
00000100
00010000
00001000
,
01000000
00000000
00010000
00000000
10000000
00000000
00100000
00000000
10000000
00000000
00010000
00000000
10000000
01000000
00000000
10000000
,
00000000
00010000
01000000
00000000
00010000
00100000
00000000
00010000
00100000
00000000
00001000
00000000
00010000
00000100
00000000
00001000
,
00000000
00000100
00010000
00000000
00000010
00001000
00000000
00000010
00000100
00000000
00000001
00000000
00000010
00000100
00000000
00001000
,
00000000
00000100
00000010
00000000
00000001
00001000
00000000
00000010
00000100
00000000
00000001
00000000
00001000
00000100
00000000
00001000
,
00000000
00000100
00010000
00000000
00001000
00010000
00000000
00000100
00010000
00000000
00001000
00000000
01000000
00100000
00000000
01000000
,
00000000
00100000
10000000
00000000
00010000
00100000
00000000
01000000
10000000
00000000
01000000
00000000
00100000
00010000
00000000
00001000
,
00000000
00000100
00000010
00000000
00000001
00001000
00000000
00000010
00001000
00000000
00000010
00000000
00010000
00001000
00000000
00010000
,
00000000
00001000
01000000
00000000
00100000
10000000
00000000
01000000
00100000
00000000
00010000
00000000
01000000
00001000
00000000
00010000
,
00000000
00001000
01000000
00000000
00010000
01000000
00000000
00100000
10000000
00010000
01000000
00001000
00010000
00000000
00000000
00000000
;
