#VERSION:0.83;
#TITLE:So Hot;
#SUBTITLE:;
#ARTIST:Wiwek X Gregor Salto X Kuenta I Tambu feat. Spyder;
#TITLETRANSLIT:;
#SUBTITLETRANSLIT:;
#ARTISTTRANSLIT:;
#GENRE:;
#ORIGIN:;
#CREDIT:;
#BANNER:So Hot.png;
#BACKGROUND:So Hot - bg.png;
#PREVIEWVID:;
#JACKET:So Hot - jacket.png;
#CDIMAGE:;
#DISCIMAGE:;
#LYRICSPATH:;
#CDTITLE:cdtitle.png;
#MUSIC:So Hot.ogg;
#OFFSET:-0.138000;
#SAMPLESTART:30.138000;
#SAMPLELENGTH:15.000000;
#SELECTABLE:YES;
#BPMS:0.000=128.000;
#STOPS:160.000=3.280;
#DELAYS:;
#WARPS:;
#TIMESIGNATURES:0.000=4=4;
#TICKCOUNTS:0.000=4;
#COMBOS:0.000=1;
#SPEEDS:0.000=1.000=0.000=0;
#SCROLLS:0.000=1.000,
48.000=0.500,
63.000=1.500,
63.500=0.500,
64.000=1.000,
161.000=1.500,
161.500=0.500,
162.000=1.000,
163.000=1.500,
163.500=0.500,
164.000=1.000,
165.000=1.500,
165.500=0.500,
166.000=1.000,
167.000=1.500,
167.500=0.500,
168.000=1.000,
169.000=1.500,
169.500=0.500,
170.000=1.000,
171.000=1.500,
171.500=0.500,
172.000=1.000,
173.000=1.500,
173.500=0.500,
174.000=1.000,
175.000=1.500,
175.500=0.500,
176.000=1.000,
193.000=0.500,
208.000=1.500,
208.500=0.500,
209.000=1.000,
269.000=1.500,
269.500=0.500,
270.000=1.500,
270.500=0.500,
271.000=1.500,
271.500=0.500,
272.000=1.500,
272.500=0.500,
273.000=1.000;
#FAKES:;
#LABELS:0.000=Song Start;
#BGCHANGES:;
#KEYSOUNDS:;
#ATTACKS:
;

//---------------dance-single - Pilgrimsito----------------
#NOTEDATA:;
#CHARTNAME:;
#STEPSTYPE:dance-single;
#DESCRIPTION:Pilgrimsito;
#CHARTSTYLE:;
#DIFFICULTY:Challenge;
#METER:15;
#RADARVALUES:0.660030,0.698374,0.420636,0.230671,0.875193,681.000000,619.000000,62.000000,34.000000,80.000000,0.000000,0.000000,0.000000,0.000000,0.660030,0.698374,0.420636,0.230671,0.875193,681.000000,619.000000,62.000000,34.000000,80.000000,0.000000,0.000000,0.000000,0.000000;
#CREDIT:Pilgrimsito;
#NOTES:
// measure 0
0000
0000
0000
0000
,  // measure 1
0000
0000
0000
0000
,  // measure 2
0000
0000
0000
0000
,  // measure 3
0000
0000
0000
0000
,  // measure 4
1000
0100
0000
0100
1000
0000
0001
0000
1000
0010
0000
0010
1000
0000
0001
0000
,  // measure 5
0100
0010
0000
0010
0100
0000
0001
0000
0010
0100
0000
0100
0010
0000
0001
0000
,  // measure 6
1000
0100
0000
0100
1000
0000
0001
0000
1000
0010
0000
0010
1000
0000
0001
0000
,  // measure 7
0100
0010
0000
0010
0100
0000
0001
0000
0010
0100
0000
0100
0010
0001
0000
0001
,  // measure 8
1000
0000
0000
0001
0000
0000
0100
0000
0110
0000
0000
1000
0000
0000
0100
0000
,  // measure 9
0110
0000
0000
0001
0000
0000
1000
0000
1010
0000
0000
1000
0000
0000
0001
0000
,  // measure 10
0011
0000
1000
0001
0100
0000
0010
0000
0110
0000
0001
1000
0100
0000
0010
0000
,  // measure 11
0110
0000
1000
0010
0100
0000
0100
0000
1001
0000
0001
0010
0100
0000
0100
0000
,  // measure 12
2002
0000
0000
3003
,  // measure 13
0010
MMMM
MMMM
MMMM
,  // measure 14
0100
MMMM
MMMM
MMMM
,  // measure 15
1000
0000
M000
0000
1000
0000
M000
0000
1000
0000
M000
0000
0220
0330
0000
0000
,  // measure 16
0001
0010
0000
0001
0100
0010
1000
0000
0100
0010
0000
0010
0100
0000
1000
0000
,  // measure 17
0001
0100
0000
0001
0010
0100
1000
0000
0100
0010
0002
0003
0002
0003
1000
0000
,  // measure 18
0001
0100
0000
0001
0010
0100
0010
0000
0001
0100
0000
0100
0001
0000
0010
0000
,  // measure 19
0001
1000
0000
0001
0100
0010
0100
0000
0001
1000
0100
1000
0001
1000
0010
1000
,  // measure 20
0001
0100
0000
0001
0010
0100
1000
0000
0010
0100
0000
0100
0010
0000
1000
0000
,  // measure 21
0001
0010
0000
0001
0100
0010
1000
0000
0010
0100
0002
0003
0002
0003
1000
0000
,  // measure 22
0001
0010
0000
0001
0100
0010
0100
0000
0001
0010
0000
0010
0001
0000
0100
0000
,  // measure 23
0001
1000
0000
0001
0010
0100
0010
0000
0001
1000
0010
1000
0001
1000
0100
1000
,  // measure 24
0001
0100
0000
010M
1000
0010
1000
0000
1001
0000
MMMM
0000
1001
0000
MMMM
0000
,  // measure 25
1000
0010
0000
M010
0001
0100
0001
0000
1000
0001
0000
1000
0001
0000
0010
0000
,  // measure 26
0001
0100
0000
010M
1000
0010
1000
0000
1001
0000
MMMM
0000
1001
0000
MMMM
0000
,  // measure 27
1000
0010
0000
M010
0001
0100
0001
0000
1000
0100
0010
0100
0001
0100
0010
0100
,  // measure 28
1000
0001
0000
0001
0100
0010
0100
0000
0001
0010
0000
0010
0001
0000
1000
0000
,  // measure 29
0001
0100
0000
0100
0001
1000
0001
0000
1000
0010
0000
0010
1000
0000
0100
0000
,  // measure 30
1000
0001
0000
0001
0010
0100
0010
0000
0001
0100
0000
0100
0001
0000
1000
0000
,  // measure 31
0001
0010
0000
0010
0001
1000
0001
0000
1000
0010
0100
0010
0001
0010
0100
0010
,  // measure 32
1000
0001
0000
1000
0001
0000
0100
0000
0010
1000
0000
0010
1000
0000
0001
0000
,  // measure 33
0010
0100
0000
0010
0100
0000
1000
0000
0001
0100
0000
0001
0100
0000
0010
0000
,  // measure 34
1000
0001
0000
1000
0001
0000
0010
0000
0100
1000
0000
0100
1000
0000
0001
0000
,  // measure 35
1001
0000
1000
0010
0100
0000
0001
0010
0100
0000
1000
0010
0100
0001
0010
0000
,  // measure 36
0001
1000
0000
0001
1000
0000
0010
0000
0100
0001
0000
0100
0001
0000
1000
0000
,  // measure 37
0100
0010
0000
0100
0010
0000
0001
0000
1000
0010
0000
1000
0010
0000
0100
0000
,  // measure 38
0001
1000
0000
0001
1000
0000
0100
0000
0010
0001
0000
0010
0001
0000
1000
0000
,  // measure 39
1001
0000
0001
0100
0010
0000
1000
0100
0010
0000
0001
0100
0010
1000
0100
0010
,  // measure 40
0001
2001
3100
0021
,  // measure 41
0130
1002
0103
1020
,  // measure 42
0130
1002
0013
1200
,  // measure 43
0310
2001
3010
0201
,  // measure 44
0310
0000
0000
0000
1001
0000
0001
0100
0001
0000
1000
0100
1000
0000
0001
0010
,  // measure 45
0001
0000
1000
0010
1000
0000
0001
0100
0010
0000
1000
0100
0010
0000
0001
0010
,  // measure 46
0100
0000
1000
0010
0100
0000
0100
0000
0001
0000
0001
0000
0010
0000
0010
0000
,  // measure 47
0001
0000
0001
0000
1000
0010
0100
0001
1000
0100
0010
0001
1000
0010
0100
0001
,  // measure 48
1000
0100
0010
0001
2002
0000
0000
0000
0000
0000
0000
0000
0000
0000
0000
0000
,  // measure 49
3003
0010
MMMM
MMMM
,  // measure 50
MMMM
0100
MMMM
MMMM
,  // measure 51
MMMM
0000
0001
000M
0001
000M
0001
000M
,  // measure 52
0220
0000
0000
0000
0330
0000
0000
0000
0000
0000
0000
0000
0000
0000
0000
0000
1001
0000
0000
0000
0000
0000
0000
0000
0000
0000
1000
0000
0000
0000
0000
0000
0000
0000
0000
0000
0000
0000
0100
0000
0000
0000
0000
0000
0000
0000
0000
0000
0010
0000
0000
0000
0000
0000
0000
0010
0000
0000
0000
0000
0000
0000
0000
0000
,  // measure 53
0001
0000
0000
0000
0000
0000
0000
0000
0000
0000
0100
0000
0000
0000
0000
0000
0101
0000
0000
0000
0000
0000
0000
0000
0000
0000
0001
0000
0000
0000
0000
0000
0000
0000
0000
0000
0000
0000
1000
0000
0000
0000
0000
0000
0000
0000
0000
0000
0020
0000
0000
0000
0000
0000
0000
0130
0000
0000
0000
0000
0000
0000
0000
0000
,  // measure 54
0020
0000
0000
0000
0000
0000
0000
0000
0030
0000
0000
0000
0000
0000
0000
0000
1001
0000
0000
0000
0000
0000
0000
0000
0000
0000
1000
0000
0000
0000
0000
0000
0000
0000
0000
0000
0000
0000
0001
0000
0000
0000
0000
0000
0000
0000
0000
0000
0011
0000
0000
0000
0000
0000
0000
0010
0000
0000
0000
0000
0000
0000
0000
0000
,  // measure 55
0110
0000
0000
0000
0000
0000
0000
0000
0000
0000
1000
0000
0000
0000
0000
0000
1001
0000
0000
0000
0000
0000
0000
0000
0000
0000
0001
0000
0000
0000
0000
0000
0000
0000
0000
0000
0000
0000
0100
0000
0000
0000
0000
0000
0000
0000
0000
0000
0110
0000
0000
0000
0000
0000
0000
0001
0000
0000
0000
0000
0000
0000
0000
0000
,  // measure 56
2000
0000
0000
0000
0000
0000
0000
0000
3000
0000
0000
0000
0000
0000
0000
0000
0001
0000
0000
0000
0010
0000
0000
0000
0000
0000
0200
0000
0000
0000
0000
0000
0300
0000
0000
0000
0000
0000
0010
0000
0000
0000
0000
0000
0000
0000
0000
0000
0100
0000
0000
0000
0000
0000
0000
0100
0000
0000
0000
0000
0000
0000
0000
0000
,  // measure 57
1000
0000
0000
0000
0000
0000
0000
0000
0000
0000
0010
0000
0000
0000
0000
0000
1010
0000
0000
0000
0000
0000
0000
0000
0000
0000
1000
0000
0000
0000
0000
0000
0000
0000
0000
0000
0000
0000
0001
0000
0000
0000
0000
0000
0000
0000
0000
0000
0200
0000
0000
0000
0000
0000
0000
0310
0000
0000
0000
0000
0000
0000
0000
0000
,  // measure 58
0200
0000
0000
0000
0000
0000
0000
0000
0300
0000
0000
0000
0000
0000
0000
0000
1001
0000
0000
0000
0000
0000
0000
0000
0000
0000
0001
0000
0000
0000
0000
0000
0000
0000
0000
0000
0000
0000
1000
0000
0000
0000
0000
0000
0000
0000
0000
0000
1100
0000
0000
0000
0000
0000
0000
0100
0000
0000
0000
0000
0000
0000
0000
0000
,  // measure 59
0110
0000
0000
0000
0000
0001
0000
0000
1001
0000
0000
0000
0000
1000
0000
0000
0000
0000
0000
0010
0000
0000
0000
0000
1000
0000
0100
0000
0000
0000
1000
0000
,  // measure 60
0010
0000
0000
0000
0100
0000
0000
0000
0000
0000
0000
0001
0000
0000
0000
0000
1001
0000
0000
0000
0000
0000
0000
0000
0000
0000
0001
0000
0000
0000
0000
0000
0000
0000
0000
0000
0000
0000
1000
0000
0000
0000
0000
0000
0000
0000
0000
0000
1010
0000
0000
0000
0000
0000
0000
0100
0000
0000
0000
0000
0000
0000
0000
0000
,  // measure 61
1001
0000
0000
0000
0000
0000
0000
0000
0000
0000
0001
0000
0000
0000
0000
0000
0011
0000
0000
0000
0000
0000
0000
0000
0000
0000
0001
0000
0000
0000
0000
0000
0000
0000
0000
0000
0000
0000
0100
0000
0000
0000
0000
0000
0000
0000
0000
0000
0110
0000
0000
0000
0000
0000
0000
0001
0000
0000
0000
0000
0000
0000
0000
0000
,  // measure 62
0022
0000
0000
0000
0000
0000
0000
0000
0033
0000
0000
0000
0000
0000
0000
0000
1001
0000
0000
0000
0000
0000
0000
0000
0000
0000
1000
0000
0000
0000
0000
0000
0000
0000
0000
0000
0000
0000
0001
0000
0000
0000
0000
0000
0000
0000
0000
0000
0011
0000
0000
0000
0000
0000
0000
0100
0000
0000
0000
0000
0000
0000
0000
0000
,  // measure 63
1001
0000
0000
0000
0000
0000
0000
0000
0000
0000
1000
0000
0000
0000
0000
0000
1010
0000
0000
0000
0000
0000
0000
0000
0000
0000
1000
0000
0000
0000
0000
0000
0000
0000
0000
0000
0000
0000
0100
0000
0000
0000
0000
0000
0000
0000
0000
0000
0110
0000
0000
0000
0000
0000
0000
1000
0000
0000
0000
0000
0000
0000
0000
0000
,  // measure 64
2020
0000
0000
0000
0000
0000
0000
0000
3030
0000
0000
0000
0000
0000
0000
0000
1001
0000
0000
0000
0000
0000
0000
0000
0000
0000
1000
0000
0000
0000
0000
0000
0000
0000
0000
0000
0000
0000
0001
0000
0000
0000
0000
0000
0000
0000
0000
0000
0101
0000
0000
0000
0000
0000
0000
0010
0000
0000
0000
0000
0000
0000
0000
0000
,  // measure 65
1001
0000
0000
0000
0000
0000
0000
0000
0000
0000
0100
0000
0000
0000
0000
0000
0110
0000
0000
0000
0000
0000
0000
0000
0000
0000
0001
0000
0000
0000
0000
0000
0000
0000
0000
0000
0000
0000
1000
0000
0000
0000
0000
0000
0000
0000
0000
0000
1100
0000
0000
0000
0000
0000
0000
0001
0000
0000
0000
0000
0000
0000
0000
0000
,  // measure 66
0200
0000
0000
0000
0000
0000
0000
0000
0300
0000
0000
0000
0000
0000
0000
0000
1001
0000
0000
0000
0000
0000
0000
0000
0000
0000
1000
0000
0000
0000
0000
0000
0000
0000
0000
0000
0000
0000
0001
0000
0000
0000
0000
0000
0000
0000
0000
0000
0011
0000
0000
0000
0000
0000
0000
0100
0000
0000
0000
0000
0000
0000
0000
0000
,  // measure 67
1001
0000
0000
0000
0000
0010
0000
0000
0110
0000
0000
0000
0000
0000
0000
0000
0110
0000
0000
0000
0000
0000
0000
0000
0110
0000
0000
0000
0000
0000
0000
0000
,  // measure 68
2002
3003
0000
0000
0001
1000
0000
1000
0010
0100
0010
0000
1000
0100
0000
M100
,  // measure 69
0001
0000
1000
0000
0001
0010
0000
0010
0001
1000
0001
0000
1000
0010
0000
M010
,  // measure 70
0001
0000
0100
0000
0001
1000
0000
1000
0100
0010
0100
0000
1000
0100
0000
M100
,  // measure 71
0001
0000
1000
0000
0001
0100
0000
0100
0001
1000
0001
0000
1000
0100
0010
0100
,  // measure 72
0001
0100
0010
0100
1000
0001
0000
0001
0100
0010
0100
0000
0001
0010
0000
001M
,  // measure 73
1000
0000
0001
0000
1000
0100
0000
0100
1000
0001
1000
0000
0001
0100
0000
010M
,  // measure 74
1000
0000
0010
0000
1000
0001
0000
0001
0010
0100
0010
0000
0001
0010
0000
001M
,  // measure 75
1000
0000
0001
0000
1000
0010
0000
0010
1000
0001
1000
0000
0001
0010
0100
0010
,  // measure 76
1000
0010
0100
0020
0030
0000
0000
0000
0000
0000
0000
0000
0000
0000
0000
0000
;

//---------------dance-single - ----------------
#NOTEDATA:;
#CHARTNAME:;
#STEPSTYPE:dance-single;
#DESCRIPTION:;
#CHARTSTYLE:;
#DIFFICULTY:Hard;
#METER:14;
#RADARVALUES:0.576678,0.672508,0.379929,0.196749,0.556324,595.000000,539.000000,56.000000,29.000000,12.000000,0.000000,0.000000,0.000000,0.000000,0.576678,0.672508,0.379929,0.196749,0.556324,595.000000,539.000000,56.000000,29.000000,12.000000,0.000000,0.000000,0.000000,0.000000;
#CREDIT:Pilgrimsito;
#NOTES:
// measure 0
0000
0000
0000
0000
,  // measure 1
0000
0000
0000
0000
,  // measure 2
0000
0000
0000
0000
,  // measure 3
0000
0000
0000
0000
,  // measure 4
1000
0000
0000
0001
0000
0000
0001
0000
1000
0000
0000
0001
0000
0000
0001
0000
,  // measure 5
0100
0000
0000
0010
0000
0000
0010
0000
0100
0000
0000
0010
0000
0000
0010
0000
,  // measure 6
1000
0000
0000
0001
0000
0000
0001
0000
1000
0000
0000
0001
0000
0000
0001
0000
,  // measure 7
0010
0000
0000
0100
0000
0000
0100
0000
0010
0000
0000
0100
0000
0000
0100
0000
,  // measure 8
1001
0000
0000
0001
0000
0000
0100
0000
0101
0000
0000
1000
0000
0000
0100
0000
,  // measure 9
1100
0000
0000
0001
0000
0000
0010
0000
0011
0000
0000
1000
0000
0000
0010
0000
,  // measure 10
1010
1000
0010
0100
0001
1000
0100
0010
,  // measure 11
0011
0001
1001
1000
1010
0010
0110
0100
,  // measure 12
0201
0000
0000
0000
,  // measure 13
2000
3000
0000
0000
0000
0000
0000
0000
,  // measure 14
0002
0003
0000
0000
0000
0000
0300
0000
,  // measure 15
0110
0110
0110
MMMM
,  // measure 16
1000
0000
0010
0000
0100
0000
0001
0000
1000
0100
0000
1000
0100
0000
0010
0000
,  // measure 17
0001
0100
0010
0100
0001
0110
0110
0000
,  // measure 18
1000
0000
0100
0000
0010
0000
0001
0000
1000
0010
0000
1000
0010
0000
0100
0000
,  // measure 19
0001
0000
0010
0000
1000
0000
0010
0000
0001
1000
0001
1000
0100
0010
0100
0010
,  // measure 20
0001
0000
0100
0000
0010
0000
1000
0000
0001
0010
0000
0001
0010
0000
0100
0000
,  // measure 21
1000
0010
0100
0010
1000
0110
0110
0000
,  // measure 22
0001
0000
0010
0000
0100
0000
1000
0000
0001
0100
0000
0001
0100
0000
0010
0000
,  // measure 23
1000
0000
0100
0000
0001
0000
0100
0000
1000
0001
1000
0001
0010
0100
0010
0100
,  // measure 24
1000
0001
0100
0010
1001
0010
1001
0001
,  // measure 25
0010
0000
0001
0000
0100
0000
0001
0000
0010
0100
0000
0010
0100
0000
1000
0000
,  // measure 26
0001
1000
0010
0100
1001
0100
1001
1000
,  // measure 27
0100
0000
1000
0000
0010
0000
1000
0000
0001
0010
0100
0010
0001
0010
0100
0010
,  // measure 28
0001
0000
1000
0000
0010
0000
0100
0000
0001
1000
0000
0001
1000
0000
0100
0000
,  // measure 29
1000
0000
0010
0000
1000
0000
0100
0000
0010
0001
0000
0010
0001
0000
1000
0000
,  // measure 30
0001
0000
1000
0000
0100
0000
0010
0000
0001
1000
0000
0001
1000
0000
0010
0000
,  // measure 31
1000
0000
0100
0000
1000
0000
0001
0000
1000
0100
0010
0100
1000
0100
0010
0100
,  // measure 32
1000
0001
0000
0001
1000
0000
0100
0000
1000
0001
0000
0001
1000
0000
0100
0000
,  // measure 33
0010
0001
0000
0001
0010
0000
0100
0000
0010
0001
0000
0001
0010
0000
0100
0000
,  // measure 34
1000
0001
0000
0001
1000
0000
0100
0000
1000
0001
0000
0001
1000
0000
0100
0000
,  // measure 35
1100
0000
1000
0001
1000
0000
0010
0100
0010
0000
1000
0001
1000
0001
1000
0000
,  // measure 36
0001
1000
0000
1000
0001
0000
0100
0000
0001
1000
0000
1000
0001
0000
0100
0000
,  // measure 37
0010
1000
0000
1000
0010
0000
0100
0000
0010
1000
0000
1000
0010
0000
0100
0000
,  // measure 38
0001
1000
0000
1000
0001
0000
0100
0000
0001
1000
0000
1000
0001
0000
0100
0000
,  // measure 39
0101
0000
0001
1000
0001
0000
0100
0010
0100
0000
0001
1000
0001
1000
0001
1000
,  // measure 40
0001
1001
1100
0011
,  // measure 41
0110
1001
0101
1010
,  // measure 42
0110
1001
0011
1100
,  // measure 43
0110
1001
1010
0101
,  // measure 44
0110
0000
0000
0000
1001
0000
1000
0010
1000
0000
0010
1000
0010
0000
0100
0010
,  // measure 45
0100
0000
0010
0100
0010
0000
0100
0001
0100
0000
0001
0100
0001
0000
1000
0001
,  // measure 46
1000
0000
0001
1000
0001
0000
0001
0000
0010
0000
0010
0000
0100
0000
0100
0000
,  // measure 47
1000
0000
1000
0000
0010
0100
0010
0100
0010
0100
0010
0100
0010
0100
0010
0100
,  // measure 48
0010
0100
0010
0100
0020
0000
0000
0000
0000
0000
0000
0000
0000
0000
0000
0000
,  // measure 49
0000
0000
2000
3000
0000
0000
0000
0000
,  // measure 50
0000
0000
0002
0003
0000
0000
0000
0000
,  // measure 51
0030
0110
0110
0110
,  // measure 52
MMMM
0000
0000
0000
0000
0000
0000
0000
0000
0000
0000
0000
0000
0000
0000
0000
1001
0000
0000
0000
0000
0000
0000
0000
0000
0000
1000
0000
0000
0000
0000
0000
0000
0000
0000
0000
0000
0000
1000
0000
0000
0000
0000
0000
0000
0000
0000
0000
0001
0000
0000
0000
0000
0000
0000
0100
0000
0000
0000
0000
0000
0000
0000
0000
,  // measure 53
0100
0000
0000
0000
0000
0100
0000
0000
0001
0000
0000
0000
0000
0001
0000
0000
0000
0000
0000
0001
0000
0000
0000
0000
0022
0000
0000
0000
0033
0000
0000
0000
,  // measure 54
0022
0000
0000
0000
0000
0000
0000
0000
0033
0000
0000
0000
0000
0000
0000
0000
1001
0000
0000
0000
0000
0000
0000
0000
0000
0000
1000
0000
0000
0000
0000
0000
0000
0000
0000
0000
0000
0000
1000
0000
0000
0000
0000
0000
0000
0000
0000
0000
0010
0000
0000
0000
0000
0000
0000
0100
0000
0000
0000
0000
0000
0000
0000
0000
,  // measure 55
0100
0000
0000
0000
0000
0010
0000
0000
1000
0000
0000
0000
0000
1000
0000
0000
0000
0000
0000
1000
0000
0000
0000
0000
0220
0000
0000
0000
0330
0000
0000
0000
,  // measure 56
0220
0000
0000
0000
0000
0000
0000
0000
0330
0000
0000
0000
0000
0000
0000
0000
2000
0000
0000
0000
0000
0000
0000
0000
0000
0000
3001
0000
0000
0000
0000
0000
0000
0000
0000
0000
0000
0000
0001
0000
0000
0000
0000
0000
0000
0000
0000
0000
1000
0000
0000
0000
0000
0000
0000
0010
0000
0000
0000
0000
0000
0000
0000
0000
,  // measure 57
0010
0000
0000
0000
0000
0010
0000
0000
1000
0000
0000
0000
0000
1000
0000
0000
0000
0000
0000
1000
0000
0000
0000
0000
2200
0000
0000
0000
3300
0000
0000
0000
,  // measure 58
2200
0000
0000
0000
0000
0000
0000
0000
3300
0000
0000
0000
0000
0000
0000
0000
1001
0000
0000
0000
0000
0000
0000
0000
0000
0000
0001
0000
0000
0000
0000
0000
0000
0000
0000
0000
0000
0000
0001
0000
0000
0000
0000
0000
0000
0000
0000
0000
0100
0000
0000
0000
0000
0000
0000
0010
0000
0000
0000
0000
0000
0000
0000
0000
,  // measure 59
0010
0000
0000
0000
0000
0100
0000
0000
0001
0000
0000
0000
0000
0001
0000
0000
0000
0000
0000
0001
0000
0000
0000
0000
0001
0000
1000
0000
0000
0000
0001
0000
,  // measure 60
0100
0000
0000
0000
0001
0000
0000
0000
0000
0000
0000
1000
0000
0000
0000
0000
0001
0000
0000
0000
0000
0000
0000
0000
0000
0000
0010
0000
0000
0000
0000
0000
0000
0000
0000
0000
0000
0000
0001
0000
0000
0000
0000
0000
0000
0000
0000
0000
0100
0000
0000
0000
0000
0000
0000
0010
0000
0000
0000
0000
0000
0000
0000
0000
,  // measure 61
1000
0000
0000
0000
0000
0001
0000
0000
1000
0000
0000
0000
0000
0010
0000
0000
0000
0000
0000
1000
0000
0000
0000
0000
2200
0000
0000
0000
3300
0000
0000
0000
,  // measure 62
2200
0000
0000
0000
0000
0000
0000
0000
3300
0000
0000
0000
0000
0000
0000
0000
1000
0000
0000
0000
0000
0000
0000
0000
0000
0000
0010
0000
0000
0000
0000
0000
0000
0000
0000
0000
0000
0000
1000
0000
0000
0000
0000
0000
0000
0000
0000
0000
0100
0000
0000
0000
0000
0000
0000
0010
0000
0000
0000
0000
0000
0000
0000
0000
,  // measure 63
0001
0000
0000
0000
0000
1000
0000
0000
0001
0000
0000
0000
0000
0010
0000
0000
0000
0000
0000
0001
0000
0000
0000
0000
0202
0000
0000
0000
0303
0000
0000
0000
,  // measure 64
0202
0000
0000
0000
0000
0000
0000
0000
0303
0000
0000
0000
0000
0000
0000
0000
1000
0000
0000
0000
0000
0000
0000
0000
0000
0000
0100
0000
0000
0000
0000
0000
0000
0000
0000
0000
0000
0000
1000
0000
0000
0000
0000
0000
0000
0000
0000
0000
0010
0000
0000
0000
0000
0000
0000
0100
0000
0000
0000
0000
0000
0000
0000
0000
,  // measure 65
0001
0000
0000
0000
0000
0000
0000
0000
0000
0000
1000
0000
0000
0000
0000
0000
0001
0000
0000
0000
0000
0000
0000
0000
0000
0000
0100
0000
0000
0000
0000
0000
0000
0000
0000
0000
0000
0000
0001
0000
0000
0000
0000
0000
0000
0000
0000
0000
1000
0000
0000
0000
0000
0000
0000
0010
0000
0000
0000
0000
0000
0000
0000
0000
,  // measure 66
0200
0000
0000
0000
0000
0000
0000
0000
0300
0000
0000
0000
0000
0000
0000
0000
0001
0000
0000
0000
0000
0000
0000
0000
0000
0000
1000
0000
0000
0000
0000
0000
0000
0000
0000
0000
0000
0000
0001
0000
0000
0000
0000
0000
0000
0000
0000
0000
0010
0000
0000
0000
0000
0000
0000
0100
0000
0000
0000
0000
0000
0000
0000
0000
,  // measure 67
1000
0000
0000
0000
0000
0001
0000
0000
0010
0000
0000
0000
0000
0000
0000
0000
0010
0000
0000
0000
0000
0000
0000
0000
0010
0000
0000
0000
0000
0000
0000
0000
,  // measure 68
MMMM
0000
0000
0000
1000
0000
0010
0000
0100
0000
0001
0000
1000
0100
0000
1000
,  // measure 69
0100
0000
0010
0000
0001
0000
0100
0000
0010
0000
0100
0000
0001
1000
0000
0001
,  // measure 70
1000
0000
0000
0000
0001
0000
0010
0000
0100
0000
1000
0000
0001
0100
0000
0001
,  // measure 71
0100
0000
0010
0000
1000
0000
0100
0000
0001
0000
0100
0000
1000
0001
0100
0001
,  // measure 72
1000
0001
0100
0001
1000
0000
0100
0000
0010
0000
0001
0000
1000
0010
0000
1000
,  // measure 73
0010
0000
0100
0000
0001
0000
0010
0000
0100
0000
0010
0000
0001
1000
0000
0001
,  // measure 74
1000
0000
0000
0000
0001
0000
0100
0000
0010
0000
1000
0000
0001
0010
0000
0001
,  // measure 75
0010
0000
0100
0000
1000
0000
0010
0000
0001
0000
0010
0000
1000
0001
0010
0001
,  // measure 76
1000
0001
0010
0002
0003
0000
0000
0000
0000
0000
0000
0000
0000
0000
0000
0000
;
