#TITLE:Shy Gun;
#SUBTITLE:;
#ARTIST:Oda;
#TITLETRANSLIT:;
#SUBTITLETRANSLIT:;
#ARTISTTRANSLIT:;
#CREDIT:Nezemarth;
#BANNER:Shy Gun.png;
#BACKGROUND:Shy Gun-bg.png;
#LYRICSPATH:;
#CDTITLE:;
#MUSIC:Shy Gun.ogg;
#OFFSET:-0.846;
#SAMPLESTART:42.510;
#SAMPLELENGTH:12.000;
#SELECTABLE:YES;
#DISPLAYBPM:144.000;
#BPMS:0.000=144.009;
#STOPS:;
#BGCHANGES:;

//---------------dance-single - ----------------
#NOTES:
     dance-single:
     :
     Hard:
     13:
     0.700,0.647,0.293,0.037,0.479:
0000
0000
0000
0000
,
0000
0000
0000
0000
,
0000
0000
0000
0000
,
0000
0000
0000
0000
,
1000
0000
0001
0000
0000
0000
0000
0000
0010
0100
0000
0010
0100
0000
1000
0000
,
0001
0000
0100
0000
0000
0000
0000
0000
0010
0100
0000
0010
0100
0000
0001
0000
,
1000
0000
0100
0000
0000
0000
0000
0000
0010
0100
0000
0010
0100
0000
1000
0000
,
0000
0000
0001
0000
0100
0000
1000
0000
0100
0000
0001
0000
1000
0100
0010
0000
,
1001
0000
0001
0000
0000
0000
0100
0000
0010
1000
0000
0010
1000
0000
0001
0000
,
0010
0000
0100
0000
0000
0000
1000
0000
0001
0100
0000
0001
0100
0000
0010
0000
,
1010
0000
1000
0000
0000
0000
0001
0000
1000
0100
0000
1000
0100
0000
0010
0000
,
0001
0000
0100
0000
0000
0000
0010
0000
0100
0001
0000
0100
0001
0000
1000
0000
,
1100
0000
0100
0000
0000
0000
0010
0000
0001
0100
0000
0001
0100
0000
0010
0000
,
1000
0000
0100
0000
0000
0000
0010
0000
0100
1000
0000
0100
1000
0000
0001
0000
,
0101
0000
0100
0000
0000
0000
0010
0000
1000
0100
0000
1000
0100
0000
0010
0000
,
0001
0000
0100
0000
0010
0000
1000
0000
0001
0100
0001
0100
0010
1000
0010
1000
,
0001
0010
0100
1000
0010
1000
0100
0010
,
0001
0000
0001
0000
0100
0000
0000
0000
0010
1000
0010
1000
0001
0100
0001
0100
,
0010
1000
0100
0010
0001
1000
0001
0010
,
0100
0000
0100
0000
1000
0000
0000
0000
0010
0100
0010
0100
0001
1000
0001
1000
,
0100
0010
0001
1000
0010
0100
0001
1000
,
0010
0000
0010
0000
0100
0000
0000
0000
0001
0010
0001
0010
0100
1000
0100
1000
,
0001
0100
0010
1000
0100
0010
0000
1001
,
0000
0000
0001
0000
0100
0000
1000
0000
0100
0000
0001
0000
1000
0100
0010
0000
,
0011
0000
0001
0000
0000
0000
0001
0000
1000
0010
0000
0010
0100
0000
0001
0000
,
0010
0000
1000
0000
0001
0000
0100
0000
1000
0001
0000
0001
0100
0000
1000
0000
,
0100
0000
0010
0000
0000
0000
0001
0000
0010
0100
0000
0100
0001
0000
0000
0000
,
0010
0000
0100
0000
1000
0000
0010
0000
1000
0001
0000
0001
1000
0001
1000
0001
,
0010
0000
0100
0000
0000
0000
1000
0000
0010
0100
0000
0100
0001
0000
0010
0000
,
0100
0000
0001
0000
1000
0000
0010
0000
0100
1000
0000
1000
0010
0000
1000
0000
,
0001
0000
0010
0000
0000
0000
0010
0000
0100
1000
0000
1000
0001
0000
0100
0000
,
1000
0000
0100
0000
0010
0000
1000
0000
0001
1000
0001
1000
0100
0010
0100
0010
,
0001
0000
0100
0000
0010
0000
0100
0000
0001
1000
0000
0100
1000
0000
0000
0000
,
0001
0000
0100
0000
1000
0000
0100
0000
0010
1000
0000
0001
1000
0000
0100
0000
,
0010
0000
0001
0000
0100
0000
0010
1000
0001
0000
0010
0000
0100
0000
1000
0001
,
0100
0000
0010
0000
1000
0000
0001
0010
0100
0000
1000
0000
0001
0100
0001
0100
,
0001
0000
1000
0000
0100
0000
1000
0000
0010
0100
0000
1000
0100
0000
0001
0000
,
0010
0000
0100
0000
1000
0000
0100
0000
0001
0100
0000
0010
0100
0000
1000
0000
,
0001
0000
0100
0000
1000
0000
0100
0010
1000
0000
0100
0000
0010
0000
1000
0010
,
0100
0000
1000
0000
0001
0000
0100
0010
0001
0000
0010
0000
0100
0001
0100
0001
,
1000
0100
0010
0001
0012
0000
0100
0000
,
1003
0001
0100
0001
1000
0100
0001
0100
,
0110
0000
1001
0000
1000
0010
0100
0010
,
1000
0000
0100
0000
0010
0000
0001
0000
1000
0001
1000
0001
0100
0001
0100
0010
,
1000
0100
0010
0001
2001
0000
0010
0000
,
3100
1000
0001
0100
1000
0100
0010
1000
,
1010
0000
0101
0000
1000
0100
0110
0000
,
0011
0000
0000
0000
0101
0000
0000
0000
1001
0000
0000
0000
1000
0100
0010
0001
,
1000
0010
0100
1000
0100
0010
1000
0001
,
1001
0000
0000
0000
0011
0000
0000
0000
1000
0001
0000
0100
0010
0000
0000
0000
,
0101
0001
0100
0010
1000
0100
0010
0001
,
0011
0000
0000
0000
0100
0000
0000
0000
0010
1000
0000
0100
0010
0000
0001
0000
,
1001
1000
0010
0100
0001
0010
0001
0100
,
0110
0000
0000
0000
1010
0000
0000
0000
0001
0010
0000
0100
1000
0000
0000
0000
,
1001
0001
0100
1000
0100
0010
0000
2010
,
0000
0000
3100
0000
0002
0000
0103
0000
2000
0000
0000
0000
3001
0010
0001
0010
,
0001
1000
0010
0100
0110
0001
0010
0100
,
1100
0000
0000
0000
0001
0000
0000
0000
1000
0010
0000
0001
0010
0000
0000
0000
,
0110
0010
1000
0100
1100
0100
0010
0001
,
0011
0000
0000
0000
0100
0000
0000
0000
0010
1000
0000
1000
0001
0000
0010
0000
,
0011
0001
0100
0010
1010
1000
0100
0010
,
0110
0000
0000
0000
0001
0000
0000
0000
0100
0010
0000
1000
0100
0000
0000
0000
,
0010
0001
1000
0010
0100
1000
0000
0100
,
0000
0000
0100
0000
0001
0000
0010
0000
1000
0000
0000
0000
0010
1000
0010
1000
,
0010
0000
0001
0000
0100
0000
1000
0000
0100
0010
0000
0100
0010
0000
0001
0000
,
0000
0000
0010
0000
1000
0000
0100
0000
0001
0100
0000
0001
0100
0000
1000
0000
,
0000
0000
1000
0000
0010
0000
0001
0000
0010
0100
0000
0010
0100
0000
1000
0000
,
0000
0000
0100
0000
0001
0000
0010
0000
1000
0010
0000
1000
0010
0000
0001
0000
,
0000
0000
1000
0000
0010
0000
0001
0000
0010
0100
0000
0010
0100
0000
1000
0000
,
0000
0000
0100
0000
0001
0000
0010
0000
1000
0010
0000
1000
0010
0000
0001
0000
,
0000
0000
1000
0000
0010
0000
0001
0000
0010
0100
0000
0010
0100
0000
1000
0000
,
0000
0000
0100
0000
0001
0000
0010
0000
0100
0000
1000
0000
0010
0100
0001
0000
,
1001
0000
0001
0000
0000
0000
0100
0000
0001
1000
0000
0001
1000
0000
0000
0000
,
1001
0000
1000
0000
0000
0000
0100
0000
1000
0001
0000
1000
0001
0000
0100
0000
,
0110
0000
0010
0000
0000
0000
0010
0000
1000
0001
0000
1000
0001
0000
0000
0000
,
0110
0000
0001
0000
0000
0000
0001
0000
0100
0010
0000
0100
0010
0000
1000
0000
,
1001
0000
0001
0000
0000
0000
0001
0000
0010
0001
0000
1000
0010
0000
0000
0000
,
1001
0000
1000
0000
0000
0000
0010
0000
0100
0001
0000
1000
0100
0000
0010
0000
,
0110
0000
0100
0000
0000
0000
0100
0000
1000
0010
0000
0100
0001
0000
0100
0000
,
0010
0000
1000
0000
0001
0000
0010
0000
0100
1000
0100
1000
0001
0100
0001
0100
,
0010
0001
0000
0100
0000
0000
0000
0000
;

//---------------dance-single - ----------------
#NOTES:
     dance-single:
     :
     Medium:
     11:
     0.550,0.529,0.219,0.051,0.102:
0000
0000
0000
0000
,
0000
0000
0000
0000
,
0000
0000
0000
0000
,
0000
0000
0000
0000
,
1001
0010
0000
0000
0100
0000
1000
0000
,
1001
0010
0000
0000
0100
0000
0001
0000
,
1001
0010
0000
0000
0100
0000
1000
0010
,
0000
0010
0001
0100
1000
0001
0100
0010
,
1010
0000
1000
0000
0000
0000
0001
0000
0010
0001
0000
0010
0001
0000
0000
0000
,
1000
0010
0000
0010
0100
0001
1000
0100
,
1100
0000
0100
0000
0000
0000
0010
0000
0100
1000
0000
0100
1000
0000
0000
0000
,
0001
0100
0000
0100
0010
1000
0100
0010
,
0011
0000
0001
0000
0000
0000
0100
0000
0010
1000
0000
0010
1000
0000
0000
0000
,
0100
0010
0000
0010
0001
1000
0010
0100
,
0101
0001
0000
0001
1000
0100
0010
0000
,
0010
0100
1000
0001
0100
0010
0100
0001
,
1000
0100
1000
0001
1000
0010
1000
0100
,
0010
0001
0100
0010
,
0100
1000
0100
0010
0100
0001
0100
0010
,
1000
0010
0100
0001
,
0010
0100
0010
1000
0010
0100
0010
0001
,
1000
0010
0100
0010
,
0001
0010
0001
1000
0100
0010
0000
1000
,
0000
0100
0001
0010
1000
0000
0001
0000
,
0011
0000
2002
0000
0000
3003
1000
0100
,
0010
0100
1000
0010
0000
0010
0100
1000
,
0100
0210
1000
0001
,
1300
0100
0010
1000
0000
1000
0100
0010
,
1000
0000
2020
0000
3000
0000
1030
0010
,
0001
1000
0010
1000
0000
1000
0100
0010
,
0001
0022
0000
0033
,
0001
0100
0010
0001
0000
0010
0100
0001
,
1000
0000
0100
0000
0010
0000
0100
0000
1000
0001
0000
0100
0000
0000
0010
0000
,
0100
0000
0001
0000
1000
0000
0100
0000
0010
0100
0000
1000
0000
0000
0001
0000
,
1000
0010
0100
0000
1000
0010
0001
0000
,
1000
0010
0100
0000
1000
0010
0001
0000
,
0001
0000
0100
0000
1000
0000
0100
0000
0010
0100
0000
0001
0000
0000
1000
0000
,
0100
0000
0010
0000
1000
0000
0010
0000
0001
1000
0000
0010
0000
0000
0100
0000
,
0001
0010
0100
0000
0001
0010
1000
0000
,
0001
0010
0100
0000
0001
0010
1000
0001
,
0010
0100
1000
0010
0000
0010
0100
0001
,
1000
0010
1000
0100
0010
0100
1000
0001
,
0100
0000
0110
0000
0100
0001
1000
0100
,
0010
0000
0100
0000
1000
0010
0100
0001
,
0010
1000
0010
0100
0000
1000
0001
0100
,
1000
0100
0010
1000
0100
0001
0100
0010
,
0001
0000
0011
0000
0001
0100
0010
0000
,
0001
0011
0010
1010
,
1000
0100
0001
0100
0010
0001
0100
1000
,
0000
1100
0000
0100
0000
0101
0000
0001
,
0010
1000
0010
0100
1000
0001
0100
0010
,
0000
0011
0000
0010
0000
1010
0000
0010
,
1000
0100
0001
0100
0010
0001
0100
1000
,
0000
1100
0000
0100
0000
0101
0000
0100
,
0001
0010
1000
0010
0100
1000
0000
1001
,
0000
0001
0100
1000
0100
0010
1000
0001
,
0010
1000
0010
0100
1000
0001
0100
0110
,
0000
0010
0100
1000
0100
0010
0000
0000
,
1000
0001
0010
1000
0010
0100
1000
1010
,
0000
0010
0100
1000
0100
0010
0000
0000
,
0010
1000
0001
0010
1000
0010
0100
1100
,
0000
0100
0001
0100
0010
0001
0100
0000
,
1000
0100
0010
1000
0001
0010
0000
1010
,
0000
0010
0001
0100
1000
0000
0000
1000
,
0100
0010
1000
0100
0001
0000
0000
0001
,
0100
0010
0001
0100
1000
0000
0000
1000
,
0100
0001
1000
0100
0010
0000
0000
1000
,
0010
0100
1000
0010
0100
0000
0000
1000
,
0100
0001
0010
1000
0010
0000
0000
1000
,
0010
0001
0100
1000
0100
0000
0000
0001
,
0010
1000
0100
0001
1000
0000
0000
1000
,
0010
0001
0100
1000
0001
1000
0010
0100
,
0101
0000
0001
0000
0000
0000
1000
0000
0100
0010
0000
0100
0010
0000
0000
0000
,
0001
0000
1000
0000
0000
0000
0010
0000
1000
0001
0000
1000
0001
0000
0010
0000
,
0110
0000
0100
0000
0000
0000
1000
0000
0001
1000
0000
0001
1000
0000
0000
0000
,
1000
0000
0100
0000
0000
0000
0100
0000
0010
0100
0000
0010
0100
0000
1000
0000
,
1100
0000
1000
0000
0000
0000
0001
0000
0100
0010
0000
0100
0010
0000
0000
0000
,
1000
0000
0001
0000
0000
0000
0001
0000
1000
0001
0000
1000
0001
0000
0010
0000
,
0100
0000
0010
0000
0000
0000
0010
0000
0100
0010
0000
0100
0010
0000
0100
0000
,
1000
0010
0001
1000
0100
0001
1000
0100
,
0000
0001
0000
0010
0000
0000
0000
0000
;

//---------------dance-single - ----------------
#NOTES:
     dance-single:
     :
     Easy:
     6:
     0.264,0.323,0.073,0.044,0.000: // measure 1
0000
0000
0000
0000
,  // measure 2
0000
0000
0000
0000
,  // measure 3
0000
0000
0000
0000
,  // measure 4
0000
0000
0000
0000
,  // measure 5
1000
0000
0000
0000
,  // measure 6
0001
0000
0000
0000
,  // measure 7
1000
0000
0000
0000
,  // measure 8
0001
0000
0000
0000
,  // measure 9
1001
0000
0001
0010
,  // measure 10
0100
0000
1000
0001
,  // measure 11
1001
0000
1000
0010
,  // measure 12
0100
0000
0001
1000
,  // measure 13
1001
0000
0001
0010
,  // measure 14
0100
0000
1000
0001
,  // measure 15
1001
0000
0001
0100
,  // measure 16
0010
0000
1000
0100
,  // measure 17
0010
0000
0100
0000
,  // measure 18
1000
1000
0001
0001
,  // measure 19
0100
0000
0010
0000
,  // measure 20
1000
1000
0001
0001
,  // measure 21
0010
0000
0100
0000
,  // measure 22
1000
1000
0001
0001
,  // measure 23
0100
0000
0010
0000
,  // measure 24
1000
1000
1000
0000
,  // measure 25
1001
2002
0000
3003
,  // measure 26
0001
0010
1000
0001
,  // measure 27
0010
0020
0000
0030
,  // measure 28
1000
0010
0001
1000
,  // measure 29
0010
0020
0000
0030
,  // measure 30
0001
0100
1000
0001
,  // measure 31
0100
0200
0000
0000
,  // measure 32
0301
1000
0100
0001
,  // measure 33
1000
0100
0010
0010
,  // measure 34
1000
0001
0010
0010
,  // measure 35
0100
0000
1000
0000
,  // measure 36
0010
0000
0001
0000
,  // measure 37
1000
0010
0100
0100
,  // measure 38
0001
0010
0100
0100
,  // measure 39
1000
0000
0010
0000
,  // measure 40
0001
0000
0100
0000
,  // measure 41
1000
0100
0010
0000
,  // measure 42
0001
0001
0100
1000
,  // measure 43
0100
0010
1000
0001
,  // measure 44
0010
0100
1000
0100
,  // measure 45
0010
0000
0010
0000
,  // measure 46
0001
0100
1000
0100
,  // measure 47
0010
1000
0100
0001
,  // measure 48
0100
0100
0010
0000
,  // measure 49
0001
1000
0010
1000
,  // measure 50
0100
0100
0010
0001
,  // measure 51
1000
0010
1000
0001
,  // measure 52
0100
0100
0010
1000
,  // measure 53
0001
0010
0100
0010
,  // measure 54
0001
0001
1000
0010
,  // measure 55
0100
0001
1000
0000
,  // measure 56
1000
0100
0001
0000
,  // measure 57
0001
0100
0010
0100
,  // measure 58
1000
1000
0001
0100
,  // measure 59
0010
1000
0100
1000
,  // measure 60
0001
0001
0100
0010
,  // measure 61
1000
0001
0010
0100
,  // measure 62
0010
0010
0001
1000
,  // measure 63
0010
0100
0001
0000
,  // measure 64
1000
0100
0001
0000
,  // measure 65
0001
0100
1000
0000
,  // measure 66
0001
0100
0010
0000
,  // measure 67
0001
0100
1000
0000
,  // measure 68
0001
0100
0010
0000
,  // measure 69
1000
0100
0001
0000
,  // measure 70
1000
0100
0010
0000
,  // measure 71
1000
0100
0001
0000
,  // measure 72
1000
0100
0010
0000
,  // measure 73
1001
0000
0001
0100
,  // measure 74
0010
0000
1000
0100
,  // measure 75
0110
0000
0001
0100
,  // measure 76
0010
0000
1000
0100
,  // measure 77
0110
0000
0001
0100
,  // measure 78
0010
0000
1000
0001
,  // measure 79
1001
0000
0001
0010
,  // measure 80
0100
1000
0001
0100
,  // measure 81
0000
2000
0000
3000
0000
0000
0000
0000
;

//---------------dance-single - ----------------
#NOTES:
     dance-single:
     :
     Beginner:
     3:
     0.150,0.233,0.037,0.015,0.000: // measure 1
0000
0000
0000
0000
,  // measure 2
0000
0000
0000
0000
,  // measure 3
0000
0000
0000
0000
,  // measure 4
0000
0000
0000
0000
,  // measure 5
0000
0000
0000
0000
,  // measure 6
0000
0000
0000
0000
,  // measure 7
0000
0000
0000
0000
,  // measure 8
0000
0000
0000
0000
,  // measure 9
1000
0000
0000
0000
,  // measure 10
1000
0000
0000
0000
,  // measure 11
0001
0000
0000
0000
,  // measure 12
0001
0000
0000
0000
,  // measure 13
0010
0000
0000
0000
,  // measure 14
0010
0000
0000
0000
,  // measure 15
0100
0000
0000
0000
,  // measure 16
0100
0000
0000
0000
,  // measure 17
1000
0000
1000
0000
,  // measure 18
1000
0000
0000
0000
,  // measure 19
0001
0000
0001
0000
,  // measure 20
0001
0000
0000
0000
,  // measure 21
0100
0000
0100
0000
,  // measure 22
0100
0000
0000
0000
,  // measure 23
0010
0000
0010
0000
,  // measure 24
0010
0000
0000
0000
,  // measure 25
1000
1000
0000
0000
,  // measure 26
0001
0000
0010
0000
,  // measure 27
0001
0001
0000
0000
,  // measure 28
1000
0000
0010
0000
,  // measure 29
0100
0100
0000
0000
,  // measure 30
0001
0000
0100
0000
,  // measure 31
0010
0010
0000
0000
,  // measure 32
1000
0000
0100
0000
,  // measure 33
0010
0000
0100
0000
,  // measure 34
0010
0000
0100
0000
,  // measure 35
1000
0000
0000
0000
,  // measure 36
1000
0000
0000
0000
,  // measure 37
0001
0000
1000
0000
,  // measure 38
0001
0000
1000
0000
,  // measure 39
0001
0000
0000
0000
,  // measure 40
0001
0000
0000
0000
,  // measure 41
1001
0000
0000
0000
,  // measure 42
0100
0000
0000
0000
,  // measure 43
0010
0000
0010
0000
,  // measure 44
1000
0000
0000
0000
,  // measure 45
1001
0000
0000
0000
,  // measure 46
1000
0000
0100
0000
,  // measure 47
0010
0000
0100
0000
,  // measure 48
0010
0000
0010
0000
,  // measure 49
0001
0000
0100
0000
,  // measure 50
0010
0010
0010
0000
,  // measure 51
1000
0000
0100
0000
,  // measure 52
0010
0010
0010
0000
,  // measure 53
0001
0000
0100
0000
,  // measure 54
0010
0010
0010
0000
,  // measure 55
1000
0000
0001
0000
,  // measure 56
2001
0001
3001
0000
,  // measure 57
1000
0000
0010
0000
,  // measure 58
0100
0100
0100
0000
,  // measure 59
0001
0000
0010
0000
,  // measure 60
0100
0100
0100
0000
,  // measure 61
1000
0000
0010
0000
,  // measure 62
0100
0100
0100
0000
,  // measure 63
0001
0000
0010
0000
,  // measure 64
1002
1000
1003
0000
,  // measure 65
1000
1000
1000
0000
,  // measure 66
0100
0100
0100
0000
,  // measure 67
0001
0001
0001
0000
,  // measure 68
0010
0010
0010
0000
,  // measure 69
1000
1000
1000
0000
,  // measure 70
0010
0010
0010
0000
,  // measure 71
0001
0001
0001
0000
,  // measure 72
0100
0100
0100
0000
,  // measure 73
1001
0000
0000
1000
,  // measure 74
1000
0000
0000
0000
,  // measure 75
0001
0000
0000
0100
,  // measure 76
0100
0000
0000
0000
,  // measure 77
0010
0000
0000
1000
,  // measure 78
1000
0000
0000
0000
,  // measure 79
0001
0000
0000
0010
,  // measure 80
0010
0000
0100
0000
;
