#TITLE:少年リップルズ;
#SUBTITLE:;
#ARTIST:常盤ゆう;
#TITLETRANSLIT:Shounen ripples;
#SUBTITLETRANSLIT:;
#ARTISTTRANSLIT:;
#GENRE:;
#CREDIT:;
#BANNER:Shounen ripples.png;
#BACKGROUND:Shounen ripples-bg.png;
#LYRICSPATH:;
#CDTITLE:;
#MUSIC:Shounen ripples.ogg;
#OFFSET:0.633000;
#SAMPLESTART:66.795998;
#SAMPLELENGTH:18.285999;
#SELECTABLE:YES;
#BPMS:0.000000=210.000000
;
#STOPS:
;
#BGCHANGES:0.000=Shounen ripples.mp4=1.000=0=0=0=StretchNoLoop====,
99999=-nosongbg-=1.000=0=0=0 // don't automatically add -songbackground-
;
#KEYSOUNDS:;
#ATTACKS:;

//---------------dance-single - ----------------
#NOTES:
     dance-single:
     :
     Beginner:
     4:
     0.177539,0.316949,0.083408,0.000000,0.000000,149.000000,139.000000,10.000000,0.000000,0.000000,0.000000,0.177539,0.316949,0.083408,0.000000,0.000000,149.000000,139.000000,10.000000,0.000000,0.000000,0.000000:
0000
0000
0000
0000
,
0000
0000
0000
0000
,
0000
0000
0000
0000
,
0000
0000
0000
0000
,
0000
0000
0000
0000
,
0001
0000
0000
0001
,
0000
0000
0001
0000
,
1000
0000
0000
1000
,
0000
0000
1000
0000
,
0010
0000
0000
0100
,
0000
0000
0001
0000
,
0010
0000
0000
0100
,
0000
0000
1000
0000
,
0001
0000
0000
0000
,
0100
0000
0000
0000
,
0001
0000
0000
0000
,
1000
0000
0000
0000
,
0100
0000
0000
0000
,
1000
0000
0000
0000
,
0001
0000
0000
0000
,
0100
0000
0000
0000
,
0110
0000
0000
0000
,
0010
0000
0000
0000
,
1000
0000
0000
0000
,
0010
0000
0000
0000
,
0100
0000
0000
0000
,
0001
0000
0000
0000
,
0010
0000
0000
0000
,
0001
0000
0000
0000
,
1001
0000
0000
0000
,
1000
0000
0000
0000
,
0010
0000
0000
0000
,
1000
0000
0000
0000
,
0100
0000
0000
0000
,
0010
0000
0000
0000
,
0001
0000
0000
0000
,
0010
0000
0000
0000
,
0100
0000
0100
0000
,
0100
0000
0000
0000
,
1000
0000
1000
0000
,
1000
0000
0000
0000
,
0001
0000
0001
0000
,
0001
0000
0000
0000
,
0100
0000
0100
0000
,
0100
0000
0000
0000
,
0110
0000
0000
0000
,
0010
0000
0000
0000
,
1000
0000
0000
0000
,
0010
0000
0000
0000
,
0100
0000
0000
0000
,
0001
0000
0000
0000
,
0010
0000
0000
0000
,
0001
0000
0000
0000
,
1000
0000
0000
0100
,
0000
0000
1000
0000
,
0001
0000
0000
0100
,
0000
0000
0001
0000
,
0010
0000
0000
0100
,
0000
0000
0000
0000
,
1001
0000
1000
0000
,
0100
0000
1000
0000
,
0001
0000
0010
0000
,
0001
0000
1000
0000
,
0010
0000
0100
0000
,
0001
0000
0100
0000
,
0010
0000
1000
0000
,
0001
0000
0000
0000
,
1001
0000
0000
0000
,
1000
0000
0100
0000
,
0010
0000
0000
0000
,
0001
0000
0100
0000
,
0010
0000
0000
0000
,
1000
0000
0001
0000
,
0010
0000
0001
0000
,
0100
0000
0000
0000
,
0010
0000
1000
0000
,
0010
1000
0010
0000
,
1000
0000
0100
0000
,
1000
0100
1000
0000
,
0001
0000
0100
0000
,
0001
0100
0001
0000
,
0010
0000
0001
0000
,
0010
0001
0010
0000
,
0110
0000
0100
0000
,
1000
0000
0100
0000
,
0110
0000
0010
0000
,
0001
0000
0010
0000
,
0101
0000
1000
0000
,
0100
0000
1000
0000
,
0010
0000
0100
0000
,
0001
0001
0001
0000
,
1001
0000
0100
0010
,
0000
1000
0001
0000
,
1001
0000
0010
0100
,
0000
0001
1000
0000
,
0100
0000
0000
0000
;

//---------------dance-single - ----------------
#NOTES:
     dance-single:
     :
     Easy:
     7:
     0.299076,0.375335,0.133452,0.025022,0.000000,251.000000,235.000000,16.000000,3.000000,0.000000,0.000000,0.299076,0.375335,0.133452,0.025022,0.000000,251.000000,235.000000,16.000000,3.000000,0.000000,0.000000:
0000
0000
0000
0000
,
0000
0000
0000
0000
,
0000
0000
0000
0000
,
0000
0000
0000
0000
,
0000
0000
0000
0000
,
1000
0000
1000
0100
,
0000
0010
0001
0000
,
0001
0000
0001
0100
,
0000
0010
1000
0000
,
1001
0000
0001
0100
,
0001
1000
0010
0000
,
1001
0000
1000
0100
,
1000
0001
0010
0000
,
0110
0000
0100
0000
,
1000
0000
0000
0000
,
0001
0000
0100
0000
,
0010
0000
1000
0000
,
0001
0000
0010
0000
,
0001
0000
0000
0000
,
0100
0000
0001
0000
,
1000
0000
0010
0000
,
1001
0000
0000
0000
,
1000
0000
0100
0000
,
1000
0000
0001
0000
,
0100
0000
0001
0000
,
0010
0000
0000
0000
,
0100
0000
1000
0000
,
0010
0000
0000
0000
,
0100
0000
0001
0000
,
1001
0000
1000
0000
,
0100
0000
1000
0000
,
0001
0000
0100
0000
,
0001
0000
0010
0000
,
0001
0000
1000
0000
,
0010
0000
1000
0000
,
0100
0000
0010
0000
,
0001
0010
0001
0000
,
1000
1000
1000
0000
,
0001
0000
0100
0000
,
0001
0001
0001
0000
,
1000
0000
0100
0000
,
1000
1000
1000
0000
,
0001
0000
0010
0000
,
0001
0001
0001
0000
,
1000
0000
0010
0000
,
0110
0000
0100
0000
,
0001
0000
0010
0000
,
0110
0000
0100
0000
,
1000
0000
0010
0000
,
1001
0000
0001
0000
,
0100
0000
0010
0000
,
1001
0000
1000
0000
,
0100
0000
0010
0000
,
0100
0000
0100
1000
,
0000
1000
0010
0000
,
0100
0000
0100
0001
,
0000
0001
0010
0000
,
0100
0000
1000
0002
,
0000
0200
0000
0303
,
1001
0000
1000
0010
,
0100
0001
1000
0001
,
0010
0000
0100
1000
,
0001
1000
0010
0100
,
0001
0000
1000
0100
,
1000
0001
0100
0001
,
0010
0000
0100
1000
,
0001
0000
0100
0010
,
1001
0000
1000
0100
,
1000
0001
0010
0010
,
0001
0000
0100
0001
,
1000
0010
1000
1000
,
0100
0000
0010
0001
,
0100
0001
1000
1000
,
0010
0000
0100
0001
,
0010
0001
1000
0000
,
1001
0000
0001
0010
,
0001
0100
0010
1000
,
0001
0000
0010
0100
,
1000
0100
0010
0001
,
1000
0000
0010
0100
,
0001
0100
0010
0000
,
1001
0000
1000
0100
,
1000
0000
0001
0001
,
0100
0000
0010
1000
,
0010
1000
0001
0100
,
0001
0000
0010
0001
,
0010
0001
1000
0100
,
1001
0000
0001
0010
,
0100
1000
0100
0010
,
0001
0000
1000
0010
,
0100
0001
1000
0000
,
1001
0000
0001
0100
,
0000
0010
1000
0000
,
1001
0000
1000
0100
,
0000
0010
0001
0001
,
0200
0000
0000
0000
,
0000
0000
0000
0000
,
0000
0000
0000
0000
,
0000
0000
0000
0000
,
0000
0000
0000
0000
,
0300
0000
0000
0000
;

//---------------dance-single - ----------------
#NOTES:
     dance-single:
     :
     Medium:
     11:
     0.471849,0.583854,0.250223,0.325290,0.000000,396.000000,366.000000,30.000000,39.000000,0.000000,0.000000,0.471849,0.583854,0.250223,0.325290,0.000000,396.000000,366.000000,30.000000,39.000000,0.000000,0.000000:
0000
0000
0000
0000
,
0000
0000
0000
0000
,
0000
0000
0000
0000
,
0000
0000
0000
0000
,
0000
0000
0000
0000
,
1001
0000
0000
0110
,
0000
0000
0000
1001
0000
0000
0000
0000
,
1100
0000
0000
0001
0000
0000
0101
0000
,
0000
1000
0000
0000
1001
0000
0000
0000
,
1000
0100
0000
1000
0100
0000
0010
0001
,
0000
0010
0001
0000
1000
0000
0001
0000
,
1000
0010
0000
1000
0010
0000
0100
0001
,
0000
0100
0001
0000
1000
0000
1000
0000
,
0010
0100
0001
0100
,
0020
0000
0000
0000
,
1030
0001
0010
0001
,
2000
0000
0000
3020
0000
0000
0230
0000
,
0300
0001
1000
0001
,
0020
0000
0000
0230
,
0300
0000
1000
0000
0001
0100
0001
0000
,
1000
0000
1000
0000
0010
0100
0010
0000
,
1000
0001
0010
0001
,
1000
0010
1000
0001
,
0010
0100
0010
0001
,
1000
0001
0200
0320
,
2030
0000
3100
1000
,
0001
0010
0001
1000
,
0002
0000
0103
0001
,
1000
0000
0010
0000
1000
0001
1000
0000
,
1001
0000
0001
0000
0010
0100
0000
1000
,
0000
0100
0010
0000
0001
0000
1000
0000
,
0020
0000
0000
0000
0130
0000
0001
0100
,
0000
0000
0001
1000
0001
0000
0010
0000
,
0200
0000
0000
0000
1300
0000
0100
1000
,
0000
0001
0010
0001
,
0200
0000
0000
0000
0310
0000
1000
0010
,
0000
0100
0001
1000
,
1100
0000
0100
0020
0000
0000
0030
0000
,
0001
0100
0010
1000
,
0101
0000
0100
0020
0000
0000
0030
0000
,
1000
0100
0010
0001
,
1001
0000
0100
0020
0000
0000
0030
0000
,
1000
0001
0010
0001
,
1001
0000
0100
0010
0000
0000
0110
0000
,
0000
1000
0001
0100
,
0010
0000
1000
0000
0010
1000
0000
0002
,
0000
0000
0003
0000
0010
0001
0000
0010
,
0000
0000
0100
0000
1000
0010
0000
2000
,
0000
3000
0001
0010
,
0001
0000
0100
0000
0010
1000
0000
0020
,
0000
0000
0030
0000
1000
0001
0000
2002
,
0000
0000
3000
0000
1003
0000
1000
0010
,
0000
0020
0000
0000
0130
0000
0001
0000
,
1000
0100
0000
0100
0010
0000
0001
0100
,
0000
0100
0010
0000
0100
0000
1001
0000
,
1000
0010
0000
0010
0100
0000
0001
0010
,
0000
0010
0100
0000
0010
0000
1001
0000
,
1000
0001
0000
0100
0000
0010
0000
0220
,
0000
0000
0000
0000
0000
0330
0000
0000
,
1001
0001
0100
0001
,
1000
0010
0000
1000
0001
0000
0010
0000
,
1100
1000
0100
0010
,
0001
0100
0000
0001
1000
0000
0100
0000
,
0011
0000
0001
0010
0000
0010
0100
0000
,
0100
1000
0000
1000
0001
0000
0100
0000
,
0220
0000
0330
0000
0010
0000
1000
0010
,
0000
1000
0001
0000
0010
0000
0001
0000
,
0011
0000
0010
0100
0000
1000
0000
2200
,
0000
3300
1000
0001
,
1000
0000
0010
0100
0000
0001
0000
0202
,
0000
0303
0001
1000
,
0001
0000
0010
0001
0000
0001
0100
0000
,
0010
1000
0000
1000
0001
0000
0010
0000
,
0220
0000
0000
0330
,
1000
0000
0001
0000
0100
0010
0100
0000
,
0001
0100
0001
0000
0100
0001
0100
0000
,
0010
1000
0010
0000
0100
0000
1001
0000
,
1000
0100
1000
0000
0100
1000
0100
0000
,
0010
0001
0010
0000
0100
0000
1001
0000
,
0001
0100
0001
0000
1000
0100
1000
0000
,
0010
0100
0010
0000
0110
0000
0000
0000
,
2002
0000
3003
0000
1000
0001
1000
0001
,
0100
0000
0010
1000
,
1001
0000
0001
0000
0010
0001
0010
0000
,
0100
0000
1000
0000
0100
1000
0100
0000
,
1000
0000
0010
0000
1000
0010
1000
0000
,
0001
0000
0100
0000
0001
0100
0001
0000
,
1001
0000
1000
0000
0100
1000
0100
1000
,
0100
0000
0010
0000
0001
0010
0001
0010
,
0001
0000
1000
0000
0010
1000
0010
2000
,
0000
3020
0000
0230
0000
0302
0000
0003
,
1000
0100
0000
1000
0010
0000
0100
0001
,
0000
0010
0001
0000
0100
0000
0010
0000
,
1000
1000
0000
0001
0001
0000
0010
0010
,
0000
0100
0100
0000
1000
0001
1000
0002
,
0000
0000
0000
0000
,
0000
0000
0000
0000
,
0000
0000
0000
0000
,
0000
0000
0000
0000
,
0000
0000
0000
0000
,
0003
0000
0000
0000
;

//---------------dance-single - ----------------
#NOTES:
     dance-single:
     :
     Hard:
     14:
     0.630324,0.750669,0.383675,0.383675,0.004170,529.000000,483.000000,46.000000,46.000000,0.000000,0.000000,0.630324,0.750669,0.383675,0.383675,0.004170,529.000000,483.000000,46.000000,46.000000,0.000000,0.000000:
// measure 0
0000
0000
0000
0000
,  // measure 1
0000
0000
0000
0000
,  // measure 2
0000
0000
0000
0000
,  // measure 3
0000
0000
0000
0000
,  // measure 4
0000
0000
0000
0000
,  // measure 5
1100
1000
1000
0101
,  // measure 6
0001
0000
0001
1000
0010
0000
0010
0000
,  // measure 7
0110
0000
0100
0001
0010
0000
0110
0000
,  // measure 8
0100
1000
0010
0000
0110
0000
0100
0000
,  // measure 9
0001
0010
0000
0100
1000
0000
0010
1000
,  // measure 10
0000
0001
0010
0100
0010
0001
0100
0001
,  // measure 11
1000
0010
0000
0010
0100
0000
0001
1000
,  // measure 12
0100
1000
0001
0100
0010
0010
1000
0000
,  // measure 13
1001
0002
0023
0230
,  // measure 14
2300
0000
0001
0001
,  // measure 15
3010
2000
3020
0230
,  // measure 16
0302
0000
0000
0023
0000
0000
0230
0000
,  // measure 17
1300
0001
0100
0001
,  // measure 18
2000
0000
0001
3100
,  // measure 19
1000
0000
0001
0000
0010
0001
0010
0000
,  // measure 20
0001
0100
0001
0000
1000
0100
1000
0001
,  // measure 21
0010
0000
0001
0000
0010
0000
0000
0100
,  // measure 22
0000
1000
0001
0100
,  // measure 23
0020
0000
1000
0000
1030
0000
0010
0100
,  // measure 24
0000
0000
0001
0000
0010
0000
0010
0100
,  // measure 25
1000
0000
0001
0100
0000
0100
0001
0000
,  // measure 26
1000
0000
0100
0010
0000
0010
0100
0000
,  // measure 27
1000
0000
0001
0010
0000
0010
0001
0100
,  // measure 28
0000
0010
1000
0001
0000
0100
1000
0100
,  // measure 29
0001
0000
0010
0000
0100
0010
0000
0110
,  // measure 30
0000
0000
1000
0100
1000
0000
0101
0000
,  // measure 31
0011
0000
1000
0000
0001
0100
0010
0100
,  // measure 32
0000
0010
1000
0001
0010
0000
0110
0000
,  // measure 33
2002
0000
3003
0000
0001
0100
0010
1000
,  // measure 34
0000
0100
1000
0000
0010
0000
0110
0000
,  // measure 35
2002
0000
3003
0000
1000
0100
0010
0001
,  // measure 36
0000
0001
0100
0010
1000
0100
1000
0000
,  // measure 37
0002
0000
0103
2000
0000
3100
0001
0000
,  // measure 38
0010
0100
0010
0001
1000
0001
0100
0000
,  // measure 39
0002
0000
0013
2000
0000
3010
0001
0000
,  // measure 40
1000
0010
1000
0001
0010
0001
0100
0000
,  // measure 41
2000
0000
3100
0002
0000
0103
1000
0100
,  // measure 42
0000
0100
0001
0010
0001
1000
0010
0000
,  // measure 43
2000
0000
3100
0002
0000
0103
1000
1001
,  // measure 44
0000
1000
0010
1000
0001
0010
0001
0000
,  // measure 45
0110
0000
1000
0000
0001
0100
0000
0020
,  // measure 46
0000
0000
0031
0000
0010
1000
0000
0101
,  // measure 47
0000
0000
0001
0000
0100
0001
0000
0020
,  // measure 48
0000
1030
0010
0001
,  // measure 49
1001
0000
1000
0000
0010
0100
0001
0200
,  // measure 50
0000
0000
1300
0000
0100
0001
0000
0022
,  // measure 51
0000
0000
0033
0000
0001
0000
0100
0010
,  // measure 52
0000
0010
1000
0000
0100
1000
0001
0000
,  // measure 53
0100
0001
0000
0010
0001
0000
1000
0010
,  // measure 54
0000
1000
0100
0010
0001
0010
0100
0000
,  // measure 55
1000
0010
0000
0001
0010
0000
0100
1000
,  // measure 56
0000
0100
0001
0000
1001
0000
0110
0000
,  // measure 57
1000
0001
0000
0010
0000
0100
1000
0001
,  // measure 58
0000
0100
0001
0000
1000
0010
0010
0000
,  // measure 59
1001
0000
0001
0010
0100
1000
0001
0010
,  // measure 60
0100
0001
0100
1000
0010
0000
1010
0000
,  // measure 61
0101
0000
0001
0010
0001
1000
0010
1000
,  // measure 62
0001
0100
1000
0100
0010
0000
1010
0000
,  // measure 63
1100
0000
0100
0010
0000
1000
0010
0000
,  // measure 64
0001
1000
0000
0001
0100
0010
0100
0000
,  // measure 65
2002
0000
3003
0000
0001
0010
0100
2000
,  // measure 66
0000
3000
0010
0100
,  // measure 67
1001
0000
1000
0100
0000
0110
0000
0022
,  // measure 68
0000
0000
0033
0000
0001
1000
0010
0100
,  // measure 69
0001
0000
1000
0001
0000
0011
0000
2020
,  // measure 70
0000
3030
1000
0100
,  // measure 71
1001
0000
1000
0010
0000
0001
0010
0000
,  // measure 72
1000
0100
0000
0010
0001
0000
0100
0001
,  // measure 73
0200
0000
0000
0000
0310
1000
0001
2000
,  // measure 74
0000
0100
3100
0000
0010
0001
0100
0000
,  // measure 75
1001
0000
1000
0001
0100
0001
0010
0100
,  // measure 76
1000
0010
0100
0010
1000
0001
0011
0000
,  // measure 77
0010
0100
1000
0001
1000
0010
0100
1000
,  // measure 78
0100
0001
1000
0001
0010
0100
1001
0000
,  // measure 79
0001
0010
1000
0010
0100
1000
0001
1000
,  // measure 80
0010
1000
0100
0010
0220
0000
0330
0000
,  // measure 81
2002
0000
3003
0000
1000
0010
0100
0002
,  // measure 82
0000
0010
0013
0000
0100
1000
0001
0000
,  // measure 83
1001
0000
1000
0010
0100
0010
0001
0010
,  // measure 84
0100
0001
0010
0001
0100
1000
0100
0010
,  // measure 85
1000
0000
0001
0010
0001
0100
0010
1000
,  // measure 86
0100
0001
0100
1000
0100
0010
0001
0000
,  // measure 87
0011
0000
0010
0100
1000
0010
0100
1000
,  // measure 88
0100
0001
0010
0001
1000
0010
0001
0010
,  // measure 89
0100
0000
0010
1000
0100
0010
0001
0100
,  // measure 90
0000
0000
1010
0000
0000
0000
0011
0000
0000
0000
2002
0000
0000
3003
0000
0000
,  // measure 91
1000
0100
0000
0001
0100
0000
1000
0010
,  // measure 92
0000
0001
0010
0100
0010
1000
0001
0000
,  // measure 93
0010
0011
0000
0001
0101
0000
1000
1100
,  // measure 94
0000
0010
1010
0000
1000
0100
0010
0001
,  // measure 95
0200
0000
0000
0000
,  // measure 96
0000
0000
0000
0000
,  // measure 97
0000
0000
0000
0000
,  // measure 98
0000
0000
0000
0000
,  // measure 99
0000
0000
0000
0000
,  // measure 100
0300
0000
0000
0000
;
