#TITLE:Shooting Fireball;
#SUBTITLE:;
#ARTIST:dj TAKA;
#TITLETRANSLIT:;
#SUBTITLETRANSLIT:;
#ARTISTTRANSLIT:;
#GENRE:;
#CREDIT:;
#MUSIC:Shooting Fireball.ogg;
#BANNER:bn.png;
#BACKGROUND:bg.png;
#CDTITLE:;
#SAMPLESTART:25.581;
#SAMPLELENGTH:15.000;
#SELECTABLE:YES;
#OFFSET:-0.081;
#BPMS:0.000=160.000
,200.000=80.000
,216.000=160.000
;
#STOPS:;
#BGCHANGES:;
#FGCHANGES:;

//--------------- dance-single - eataninja ----------------
#NOTES:
     dance-single:
     eataninja:
     Beginner:
     4:
     0,0,0,0,0:
0000
0000
0000
0000
,
0000
0000
0000
0000
,
0000
0000
0000
0000
,
0000
0000
0000
0000
,
0000
0000
0000
0000
,
1000
0000
0010
0000
,
0200
0000
0300
0000
,
0100
0000
0010
0000
,
2000
0000
3000
0000
,
1001
0000
0001
0000
,
0010
0000
0001
0000
,
1000
0000
0010
0000
,
0100
0000
0000
0000
,
0001
0000
1000
0000
,
0100
0000
1000
0000
,
0010
0000
0100
0000
,
2002
0000
0000
3003
,
0001
0001
0001
0000
,
0100
0100
0100
0000
,
0010
0010
0010
0000
,
0100
0100
0100
0000
,
0001
0001
1000
0000
,
0100
0100
0100
0000
,
1000
1000
0001
0000
,
0100
0010
0100
0000
,
1001
0000
0000
0000
,
1001
0000
0000
0000
,
1001
0000
0000
0000
,
0010
0000
0100
0000
,
1001
0000
0000
0000
,
1001
0000
0000
0000
,
0001
0010
0001
0000
,
1000
0010
1000
0000
,
0000
0000
0000
0000
,
1000
0000
0100
0000
,
0001
0000
0100
0000
,
0010
0000
0001
0000
,
0010
0000
0001
0000
,
1000
0000
0010
0000
,
0001
0000
0010
0000
,
0100
0000
0001
0000
,
2000
0000
3000
0000
,
0001
0010
0001
0000
,
1000
0010
1000
0000
,
0001
0000
0100
0000
,
1000
0000
0100
0000
,
0010
0100
0010
0000
,
1000
0001
1000
0000
,
0100
0000
0010
0000
,
0002
0000
0003
0000
,
1001
0000
1000
0000
,
0010
0100
0001
0000
,
1001
0000
0010
0100
,
1000
0000
0001
0000
,
0100
0000
0000
0010
,
1000
0000
0000
0001
,
0010
0000
0000
0100
,
0010
0000
0001
0000
,
1000
0000
0010
0000
,
0001
0000
0010
0000
,
1000
0000
0001
0000
,
2002
0000
0000
3003
,
0001
0010
0001
0000
,
1000
0100
1000
0000
,
0001
0100
0001
0000
,
1000
0010
1000
0000
,
0001
0001
1000
0000
,
0100
0010
0100
0000
,
1000
1000
0001
0000
,
0100
0010
0100
0000
,
0110
0000
0000
0000
,
1001
0000
0000
0000
,
0000
0100
0000
0100
,
0010
0000
1000
0000
,
0001
0000
0100
0000
,
1000
0000
0100
0000
,
0010
1000
0001
0000
,
0010
0100
1000
0000
,
0002
0000
0000
0000
,
0003
0000
0000
0000
;

//--------------- dance-single - eataninja ----------------
#NOTES:
     dance-single:
     eataninja:
     Easy:
     8:
     0,0,0,0,0:
0000
0000
0000
0000
,
0000
0000
0000
0000
,
0000
0000
0000
0000
,
0000
0000
0000
0000
,
0000
0000
0000
0000
,
1000
0000
0010
0100
,
0200
0000
0000
0001
0002
0000
0303
0000
,
0001
0000
0010
0100
,
2000
0000
0000
0001
0002
0000
3003
0000
,
1001
0000
0000
1000
0000
0100
0000
0010
,
0100
0000
0000
1000
0000
0001
0000
0100
,
0010
0000
0000
0100
0000
0001
0010
0000
,
0100
0001
0100
1000
,
0001
0000
0000
0100
0000
0010
0000
0100
,
0001
0000
0000
1000
0000
0001
0000
0010
,
0100
0000
0000
1000
0000
0000
0010
0000
,
2002
0000
0000
3003
,
0001
0100
0010
1000
,
0001
0001
1000
1000
,
0100
0010
0001
1000
,
0010
0010
0100
0100
,
0001
0010
1000
0010
,
0100
0100
1000
1000
,
0001
0100
1000
0100
,
0010
0010
1000
1000
,
1010
0000
0101
0000
,
1010
0000
0101
0000
,
1010
0000
1001
0000
,
0001
0010
0100
1000
,
1100
0000
0011
0000
,
1100
0000
0011
0000
,
1100
1000
0001
0100
,
1000
0100
0010
1000
,
0000
0000
0000
0000
,
0001
0000
0010
0100
0000
0010
0001
0000
,
1000
0000
0010
0100
0000
0000
0000
0000
,
0001
0001
1000
1000
,
0100
0100
0010
0010
,
0001
0000
1000
0010
0000
0100
0100
0000
,
0001
0000
1000
0010
0000
1000
0001
0000
,
0020
0230
2300
3002
,
1003
0010
0001
0010
,
0100
0000
0010
1000
0000
0010
0100
0000
,
0001
0000
0010
0100
0000
0010
0001
0000
,
1000
0020
0230
0302
,
1003
0100
0010
0001
,
0100
0000
0010
0100
0000
0001
0001
0000
,
1000
0020
0230
2300
,
3100
0001
1000
0100
,
2002
0000
0000
3003
,
1000
0000
0100
0000
0001
0100
1000
0000
,
0001
0000
0100
0000
1000
0100
0010
0000
,
0100
0000
0001
1000
0100
0000
0010
0001
,
0100
1000
0010
0001
,
1001
0000
1000
0100
,
0010
0000
0001
1000
,
0010
0000
0100
0001
,
1000
0100
0000
0001
0000
0100
0000
0010
,
0001
0000
0000
0000
1000
0010
1000
0000
,
0001
0000
0000
0000
0010
0100
1000
0000
,
0001
0000
0100
0010
,
2002
0000
0000
3003
,
1000
0010
0100
0001
,
1000
1000
0010
0010
,
0100
0001
1000
0001
,
0010
0010
0100
0100
,
1000
0001
0100
1000
,
0100
0100
0010
0010
,
1000
0001
0010
1000
,
0010
0010
0100
0100
,
1000
0000
0000
1000
0000
0000
0001
0000
0000
0000
0000
0000
0000
0000
0000
0000
,
0001
0000
0000
0001
0000
0000
1000
0000
0000
0000
0000
0000
0000
0000
0000
0000
,
0000
0010
0000
0000
0100
0000
0000
0001
0000
0000
0000
0000
1000
0000
0000
0000
,
0100
0001
0100
1000
,
0001
0100
0001
0000
1000
0000
1000
0000
,
0010
0100
0010
0000
1000
0000
1000
0000
,
0001
0010
1000
0010
,
0100
1000
0001
0100
,
0020
0000
0000
0000
,
0030
0000
0000
0000
;

//--------------- dance-single - eataninja ----------------
#NOTES:
     dance-single:
     eataninja:
     Medium:
     11:
     0,0,0,0,0:
0000
0000
0000
0000
,
0000
0000
0000
0000
,
0000
0000
0000
0000
,
0000
0000
0000
0000
,
0000
0000
0000
0000
,
1000
0100
0000
1000
0002
0000
0100
0000
,
0203
0000
0000
0010
0020
0000
0330
0000
,
0100
0001
0000
1000
0200
0000
0320
0000
,
0032
0000
0000
1003
0020
0000
0000
0000
,
0130
0001
1000
0001
0000
0021
0000
0130
,
1000
0001
1000
0100
0000
0120
0000
0031
,
1000
0010
0100
0010
0000
1000
0100
0010
,
0001
1000
0020
0000
0230
0000
0302
0000
,
1003
0000
0010
0100
0000
0120
0000
1030
,
0001
0000
0010
0100
0000
2100
0000
3001
,
1000
0010
0100
0010
0000
0100
0000
0100
,
2002
0000
0000
3003
,
0001
0100
1000
0000
0100
0000
0010
0000
,
1000
0001
1000
0001
0010
0000
0100
0000
,
1000
0100
0001
0000
1000
0000
0010
0000
,
0001
1000
0001
1000
0010
0000
0100
0000
,
1000
0100
0001
0000
0010
0100
1000
0000
,
0001
0100
0001
0100
0010
0000
0100
0000
,
0001
1000
0100
0000
0010
0000
0001
0000
,
1000
0000
0000
1000
0000
0000
0010
0000
0000
0000
0100
0000
0010
0000
0100
0000
,
0001
1000
0100
0010
0001
0000
0100
1000
,
0100
0001
0010
0100
1000
0000
0100
0001
,
0100
0010
0001
1000
1000
0010
0100
0000
,
0001
0100
0010
0100
1000
0100
0010
0000
,
1000
0010
0001
0000
0010
0100
0001
0000
,
1000
0100
0001
0000
0100
0010
0001
0000
,
1000
0010
1000
0010
0100
0001
1000
0100
,
0001
0000
0100
0010
0001
1000
1000
0010
,
0000
0000
0000
0000
,
1001
0000
0001
0200
0000
0310
0100
0000
,
0001
0010
0100
0002
0000
0103
1000
0000
,
0010
0100
0010
0000
1000
0001
0010
0000
,
0100
0010
0100
0000
0010
0001
1000
0000
,
0010
0100
0001
0200
0000
0310
0010
1000
,
0001
0010
0100
0020
0000
0031
1000
0010
,
0100
0000
1000
0100
0001
0000
0010
0100
,
2000
3002
0203
0320
,
1030
0001
1000
0020
0000
1030
0100
0010
,
0001
1000
0001
0200
0000
1300
0100
0001
,
0100
0020
2030
3002
,
0013
0100
1000
0000
0010
0100
0001
0000
,
1000
0100
0001
0200
0000
0310
0010
0001
,
1000
0000
0010
0100
1000
0100
0001
0000
,
1000
0100
0010
0001
1000
0010
0100
0100
,
2002
0000
0000
3003
,
0011
0000
0000
1000
0000
0000
0010
0000
0100
0000
0001
0000
1000
0100
0000
0000
,
0010
0000
0000
0100
0000
0000
0002
0000
0000
0000
0000
0103
0000
1000
0000
0000
,
0001
0000
0010
0000
0100
0000
1000
0000
0010
0000
0000
0110
0000
0101
0000
0000
,
1000
1000
0001
0010
0100
0001
0100
1000
,
1001
0000
0001
0000
0000
0100
0001
0000
,
1000
0000
0100
0000
0000
0010
0100
0000
,
1000
0000
0010
0000
0000
1000
0001
0000
,
0010
1000
0000
0010
0000
0001
0000
0100
,
0010
0100
0000
0001
1000
0100
0000
0010
,
0100
0010
0000
0100
1000
0001
0000
1000
,
0010
1000
0000
0001
0010
0001
0000
0010
,
2002
0000
0000
3003
,
0001
0100
0001
0100
0010
0000
1000
0000
,
0001
0010
1000
0010
0100
0100
1000
0000
,
0001
1000
0001
1000
0010
0000
0001
0000
,
0010
0100
0010
1000
0001
0001
0100
0000
,
0010
1000
0100
0001
1000
0000
0010
0000
,
0100
0010
0001
1000
1000
0001
0100
0010
,
1000
0001
0010
0100
0001
0000
0100
0000
,
0010
0001
1000
0010
0010
0100
0001
1000
,
0100
0000
0000
0100
0000
0000
0110
0000
0000
0000
0010
0000
0001
0000
0000
0000
,
1000
0000
0000
1000
0000
0000
1001
0000
0000
0000
0001
0000
0100
0000
0000
0000
,
0000
1000
0000
0000
0100
0000
0000
0001
0000
0000
1000
0000
0100
0000
0010
0000
,
0001
1000
0010
1000
0001
0010
0100
1000
,
0001
0100
0010
0100
1000
0000
0100
0010
,
1000
0100
0001
0100
0010
0000
0100
0010
,
0001
1000
0010
0100
1000
0001
0010
1000
,
0001
0010
0100
1000
0001
0100
0010
0100
,
0200
0000
0000
0000
,
0300
0000
0000
0000
;

//--------------- dance-single - eataninja ----------------
#NOTES:
     dance-single:
     eataninja:
     Hard:
     15:
     0,0,0,0,0:
0000
0000
0000
0000
,
0000
0000
0000
0000
,
0000
0000
0000
0000
,
0000
0000
0000
0000
,
0000
0000
0000
0000
,
1000
0001
0000
1000
0020
0000
0230
0000
,
0302
0000
0000
1000
2000
0000
3003
0000
,
0001
1000
0000
1000
0200
0000
0320
0000
,
0032
0000
0000
0103
0020
0000
0000
0000
,
1030
0001
1000
0100
0000
0001
0000
0100
,
1000
0001
1000
0010
0000
0001
0000
0010
,
1000
0000
0001
0000
0010
0000
0100
0000
0000
0000
1000
0000
0001
0100
0001
0000
,
0100
0010
0100
0000
0020
0000
0000
0000
2030
0000
0000
0000
3002
0000
0000
0000
,
1003
0000
0100
0010
0000
1000
0000
0010
,
0001
0000
0100
0010
0000
1000
0000
0001
,
0010
0100
1000
0010
0000
0100
0010
1000
,
2002
0000
0000
3003
,
1000
0010
1000
0000
0010
0000
0100
0000
0001
1000
0001
0000
0001
0100
0001
0000
,
1000
0001
0010
0000
0100
0000
1000
0000
0001
1000
0010
0000
0100
0000
0001
0000
,
0100
0010
0100
0000
0001
0000
1000
0000
0100
0010
0100
0000
0010
0001
0010
0000
,
0001
1000
0010
0000
0100
0000
0001
0000
1000
0100
0010
0000
0001
0000
1000
0000
,
0010
0100
0010
0000
1000
0000
0001
0000
0010
1000
0010
0000
0010
0100
0010
0000
,
0001
0010
0100
0000
1000
0000
0001
0000
0100
0010
1000
0000
0001
0000
0100
0000
,
0010
1000
0010
0000
1000
0000
0001
0000
0010
1000
0010
0000
0100
0010
0100
0000
,
1000
0001
0000
0001
0100
0000
0010
0000
0100
0000
0100
0000
0001
0000
0001
0000
,
1000
0100
0010
0000
0001
0000
1000
0010
0100
0000
0001
0000
0100
0000
010M
0000
,
1000
0010
0100
0000
0001
0000
1000
0100
0010
0000
0001
0000
0100
0000
010M
0000
,
1000
0010
1000
0000
0001
0000
0010
0100
0010
0000
0100
0000
1000
0000
1000
0000
,
0001
0100
0001
0000
0001
1000
0001
0000
1000
0010
1000
0000
1000
0001
1000
0000
,
0001
0010
0100
0000
1000
0000
1000
0000
0001
0100
0001
0000
0100
0000
010M
0000
,
1000
0100
0010
0000
0001
0000
0001
0000
1000
0100
1000
0000
0100
0000
M100
0000
,
0001
1000
0010
0001
1000
0100
0001
1000
,
0100
0000
0000
0100
0010
0000
0000
0010
0001
0000
0001
0000
1000
0010
1000
0010
,
0200
0001
1000
0310
,
1000
0000
1000
0002
0000
0013
0100
1000
,
0001
0000
0100
2000
0000
3100
0001
0000
,
1000
0000
0000
1000
0001
0000
0000
0001
0010
0000
0000
0010
0100
0000
1000
0001
,
1000
0000
0000
1000
0010
0000
0000
0010
0100
0000
0001
0000
0010
0000
0100
0000
,
1000
0001
0100
2000
0000
3100
0100
0010
,
1000
0001
0010
2000
0000
3010
0100
0010
,
0001
0000
0000
0000
1000
0010
1000
0000
0010
0100
0010
0000
0100
0001
0100
0000
,
0002
0023
2030
3200
,
0301
1000
0001
0010
0000
1000
0010
0100
,
1000
0001
0100
1000
0000
0100
0010
1000
,
0001
0000
0000
0000
0010
0100
0010
0000
0100
1000
0100
0000
1000
0001
1000
0000
,
0001
0100
0010
1000
0001
0010
0100
1000
0001
0000
0000
0001
1000
0000
0010
0000
,
0100
1000
0100
0001
0000
0001
0010
0100
,
1000
0000
0001
0000
0100
0010
0100
0001
1000
0100
0010
0001
1000
0010
1000
0001
,
0100
0000
0000
0100
0010
0000
0000
0010
1000
0000
1000
0000
0001
0010
0100
1000
,
0002
0000
0000
0000
,
0103
0000
0000
0010
0000
0000
1000
0000
0001
0000
0010
0000
0100
1000
0000
0000
,
0020
0000
0000
0000
0100
0000
0032
0000
0000
0000
0000
0013
0000
1000
0000
0000
,
1001
0000
0001
0000
0010
0000
0100
0000
1001
0000
1000
0010
0000
0100
0000
0000
,
0101
0000
0001
0000
1000
0100
0010
0001
1000
0010
0200
0000
2300
0000
3200
0000
,
0301
0000
1000
0100
0000
0010
0001
1000
,
0010
0000
0000
0010
0100
0000
0001
0000
0000
0000
1000
0000
0100
0010
0000
0010
,
0001
0000
1000
0010
0000
0100
0010
1000
,
0001
0000
0010
0000
1000
0000
0010
0000
0100
0000
1000
0000
0001
1000
0001
1000
,
0010
0100
0001
1000
0100
0001
0100
0010
,
0001
1000
0010
0100
1000
0100
0001
1000
,
0100
0000
0010
0000
0001
1000
0001
0000
1000
0010
0100
0001
1000
0100
0010
0001
,
2000
0000
0010
3100
,
1000
0100
1000
0000
0001
0000
0100
0000
0010
0100
0010
0000
0010
1000
0010
0000
,
1000
0001
0010
0000
0100
0000
0010
0000
0001
1000
0010
0000
0100
0010
1000
0001
,
0010
0100
0010
0000
0100
0000
1000
0000
0001
0100
0001
0000
1000
0010
1000
0000
,
0001
0010
0100
0000
1000
0000
0001
0000
1000
0010
0100
0000
0010
1000
0001
1000
,
0100
0010
0001
0000
1000
0000
0010
0000
0100
1000
0100
0000
0100
0001
0100
0000
,
0010
1000
0001
0000
0010
0000
0100
0000
0010
0001
1000
0000
0010
0100
0010
1000
,
0001
0010
0100
0000
1000
0000
0001
0000
0100
1000
0100
0000
0010
0100
0010
0000
,
1000
0001
0000
0001
0010
0000
0100
0000
1000
0000
1000
0000
0001
0000
0001
0000
,
1000
0010
0000
0010
0100
0000
0100
0001
0000
0000
1000
0000
0100
0000
M100
0000
,
0001
0010
0000
0010
0100
0000
0100
1000
0000
0000
0001
0000
0100
0000
010M
0000
,
0000
1000
0000
1000
0010
0000
0100
0001
0000
0010
0000
0010
0100
0000
1000
0001
,
1000
0000
0010
0001
0010
0000
0100
0000
0001
1000
0001
0000
1000
0100
1000
0000
,
0001
0100
0010
0000
1000
0000
1000
0000
0001
0100
0001
0000
0100
0000
010M
0000
,
1000
0100
0010
0000
0001
0000
0001
0000
1000
0100
1000
0000
0100
0000
M100
0000
,
0001
1000
0001
0000
0100
0010
1000
0010
0100
0000
0001
0010
0001
0010
1000
0000
,
0010
0100
0010
0100
0001
0000
0100
0010
0100
0000
0010
0001
1000
0010
0100
0001
,
0200
0000
0000
0000
,
0300
0000
0000
0000
;
