#TITLE:Shinogi;
#SUBTITLE:;
#ARTIST:RoughSkreamZ feat.らっぷびと;
#TITLETRANSLIT:;
#SUBTITLETRANSLIT:;
#ARTISTTRANSLIT:;
#GENRE:;
#CREDIT:;
#BANNER:Shinogi.png;
#BACKGROUND:;
#LYRICSPATH:;
#CDTITLE:;
#MUSIC:Shinogi.ogg;
#OFFSET:-0.270000;
#SAMPLESTART:89.290504;
#SAMPLELENGTH:15.000000;
#SELECTABLE:YES;
#BPMS:0.000000=134.000000
,193.000000=185.000000
;
#STOPS:
;
#BGCHANGES:;
#KEYSOUNDS:;
#ATTACKS:;

//---------------dance-single - Lunaticboi----------------
#NOTES:
     dance-single:
     Lunaticboi:
     Easy:
     8:
     0.275907,0.355486,0.126508,0.185544,0.000000,229.000000,214.000000,15.000000,22.000000,0.000000,0.000000,0.275907,0.355486,0.126508,0.185544,0.000000,229.000000,214.000000,15.000000,22.000000,0.000000,0.000000:
// measure 0
0000
0000
0000
0000
,  // measure 1
0000
0000
0000
0000
,  // measure 2
0000
0000
0000
0000
,  // measure 3
0000
0000
0000
0000
,  // measure 4
0000
0001
1000
0100
,  // measure 5
0000
0010
0001
0100
,  // measure 6
0000
0001
0001
1000
,  // measure 7
1000
0100
0010
0100
,  // measure 8
1001
1000
0001
0000
,  // measure 9
0001
0100
0010
0000
,  // measure 10
1000
0100
0010
0100
,  // measure 11
0100
0010
0100
0010
,  // measure 12
0011
0001
0001
0001
,  // measure 13
0001
1000
1000
1000
,  // measure 14
1000
0010
0010
0100
,  // measure 15
0100
0001
1000
2002
,  // measure 16
3003
0001
0100
0010
,  // measure 17
1000
0001
1000
0010
,  // measure 18
0100
0001
0001
1000
,  // measure 19
1000
0001
0000
0010
,  // measure 20
0100
2000
0000
0100
,  // measure 21
3000
0002
0000
0100
,  // measure 22
0003
1000
0100
0010
,  // measure 23
0001
0100
0010
0100
,  // measure 24
0110
0000
0001
0000
0000
0001
0000
1000
,  // measure 25
0000
0000
1000
0000
0000
1000
0000
0001
,  // measure 26
0000
0020
0000
0100
,  // measure 27
0000
0230
0000
1000
,  // measure 28
0000
0000
1300
0000
0000
1000
0000
0001
,  // measure 29
0000
0000
0001
0000
0000
0001
0000
1000
,  // measure 30
0000
0020
0000
0100
,  // measure 31
0000
0230
0000
0001
,  // measure 32
0300
0000
0001
0000
0000
0001
0000
1000
,  // measure 33
0000
0000
0100
0000
0000
0100
0000
0010
,  // measure 34
0000
0002
0000
1000
,  // measure 35
0000
2003
0000
0100
,  // measure 36
3000
0000
0100
0000
0000
0100
0000
0010
,  // measure 37
0000
0000
0001
0000
0000
0001
0000
1000
,  // measure 38
0000
0020
0000
0100
,  // measure 39
0000
0230
0000
0301
,  // measure 40
1001
0002
0003
2000
,  // measure 41
3000
0100
0010
0001
,  // measure 42
1000
0002
0003
2000
,  // measure 43
3000
0001
0100
0010
,  // measure 44
1000
0020
0030
0200
,  // measure 45
0300
0010
1000
0100
,  // measure 46
0010
2000
3000
0020
,  // measure 47
0030
0001
0101
0100
,  // measure 48
0110
2002
0000
0000
,  // measure 49
0000
0000
0000
3003
,  // measure 50
0000
1000
0100
0010
,  // measure 51
1001
0001
0100
0010
,  // measure 52
1001
1000
0010
0100
,  // measure 53
1001
0001
0010
0100
,  // measure 54
1001
0001
0001
1000
,  // measure 55
1000
0010
0100
0001
,  // measure 56
1001
0000
0001
0000
0000
1000
0000
0000
,  // measure 57
0001
0010
0100
1000
,  // measure 58
0000
0000
0001
1000
,  // measure 59
0010
0100
0001
0010
,  // measure 60
0100
1000
0001
0100
,  // measure 61
0001
1000
0100
0010
,  // measure 62
0001
1000
0001
0100
,  // measure 63
0010
0100
0010
1000
,  // measure 64
0001
1000
0001
0100
,  // measure 65
0010
0100
0010
1000
,  // measure 66
0001
1000
1000
0001
,  // measure 67
0001
0010
0010
0100
,  // measure 68
0100
1000
0100
0010
,  // measure 69
0001
0100
0010
0100
,  // measure 70
0110
1001
0000
0000
;

//---------------dance-single - Lunaticboi----------------
#NOTES:
     dance-single:
     Lunaticboi:
     Medium:
     13:
     0.485548,0.503605,0.134941,0.185544,0.130724,403.000000,387.000000,16.000000,22.000000,0.000000,0.000000,0.485548,0.503605,0.134941,0.185544,0.130724,403.000000,387.000000,16.000000,22.000000,0.000000,0.000000:
// measure 0
0000
0000
0000
0000
,  // measure 1
0000
0000
0000
0000
,  // measure 2
0000
0000
0000
0000
,  // measure 3
0000
0000
0000
0000
,  // measure 4
0000
0000
0000
0000
1000
0000
1000
0000
0100
0000
1000
0000
0000
0001
0000
0000
,  // measure 5
0100
0000
0001
0000
0010
0000
0010
0000
0100
0000
1000
0000
0000
0001
0000
0000
,  // measure 6
0100
0000
0001
0000
0010
0000
1000
0000
0010
0000
0001
0000
0000
0001
0000
0000
,  // measure 7
1000
0000
0010
0000
0001
0000
0001
0000
0010
0000
1000
0000
0000
0001
1000
0000
,  // measure 8
0001
0000
0000
0000
1000
0000
0010
0000
0001
0000
0010
0000
0000
0100
0000
0010
,  // measure 9
0100
0000
0000
0000
0001
0000
0010
0000
1000
0000
0010
0000
0100
0000
0000
0010
,  // measure 10
0100
0000
0000
0000
1000
0000
0100
1000
0000
0100
0010
0000
0000
0001
0000
0001
,  // measure 11
1000
0000
0000
1001
0000
0000
0000
1001
0000
0000
0000
1001
0000
0000
0000
1000
,  // measure 12
0001
0000
1000
1000
0010
1000
0001
0010
,  // measure 13
0001
0001
1000
0100
1000
1000
0001
0100
,  // measure 14
0001
0001
1000
0100
0100
0001
0100
0100
,  // measure 15
1000
0000
0100
0000
0010
0000
0001
0000
0100
0000
0001
0000
0000
0000
0020
0002
,  // measure 16
0000
0033
0000
0000
0001
0000
1000
0000
1000
0000
0010
0000
0001
0000
1000
0000
,  // measure 17
0000
0100
0001
0001
1000
1000
0001
1000
,  // measure 18
0001
0000
0000
0000
0100
0000
0000
1001
0000
0000
0000
0000
0010
0000
0000
1001
,  // measure 19
0000
1000
0100
0010
0000
0001
0100
0100
,  // measure 20
0001
2000
0100
0100
,  // measure 21
0100
3002
0010
0010
,  // measure 22
0013
0100
1000
0001
,  // measure 23
0100
0010
1000
0001
,  // measure 24
1001
0000
0000
0000
1000
0000
0000
0100
0000
0000
1000
0000
0000
0000
0100
0000
,  // measure 25
0000
0000
0000
0000
0010
0000
0000
0001
0000
0000
0010
0000
0000
0000
0001
0000
,  // measure 26
0000
0100
0020
0000
1000
0000
0001
0000
,  // measure 27
0100
0100
0230
0000
0001
0000
1000
0000
,  // measure 28
0310
0000
1000
0000
0001
0000
0000
0100
0000
0000
0001
0000
0000
0000
0100
0000
,  // measure 29
0000
0000
0010
0000
1000
0000
0000
0010
0000
0000
1000
0000
0000
0000
0010
0000
,  // measure 30
0000
1000
0020
0000
0001
0000
1000
0000
,  // measure 31
0130
0100
0200
0000
0001
0000
1000
0000
,  // measure 32
0001
0000
0001
0000
0301
0000
0000
0010
0000
0000
0001
0000
0000
0000
0010
0000
,  // measure 33
0000
0000
0100
0000
1000
0000
0000
0100
0000
0000
1000
0000
0000
0000
0100
0000
,  // measure 34
0010
0001
2000
0000
0010
0000
0100
0000
,  // measure 35
0001
0001
3002
0000
0010
0000
1000
0000
,  // measure 36
0100
0000
0100
0000
0103
0000
0000
0010
0000
0000
0100
0000
0000
0000
0010
0000
,  // measure 37
0000
0000
1000
0000
0001
0000
0000
1000
0000
0000
0001
0000
0000
0000
1000
0000
,  // measure 38
0000
0100
0020
0000
0001
0000
1000
0000
,  // measure 39
0100
0100
0230
0000
1000
0000
0310
0000
,  // measure 40
1001
0002
0103
2000
,  // measure 41
3100
0000
0010
0001
1000
0001
0010
0100
,  // measure 42
1000
0002
0013
2000
,  // measure 43
3010
0000
0100
0001
1000
0001
0100
0010
,  // measure 44
1000
0002
0103
2000
,  // measure 45
3100
0000
0001
0010
0100
1000
0001
1000
,  // measure 46
0001
0200
0301
0020
,  // measure 47
1030
0101
1100
0011
,  // measure 48
0110
2002
0000
0000
,  // measure 49
0000
0000
0000
3003
,  // measure 50
0000
0000
0001
0010
1000
0010
0001
1000
,  // measure 51
0001
0000
1000
0010
0001
0010
1000
0001
,  // measure 52
1000
0000
0001
0100
1000
0100
0001
1000
,  // measure 53
0001
0000
1000
0100
0001
0100
1000
0001
,  // measure 54
1000
0000
0001
0010
0001
0010
0100
1000
,  // measure 55
0100
1000
0001
0100
0010
1000
0001
1000
,  // measure 56
1000
0000
0000
0000
0001
0000
0000
0001
0000
0000
1000
0000
0000
1000
0000
0000
,  // measure 57
0001
0100
0010
1000
0001
0010
0100
1000
,  // measure 58
0001
0000
0000
1000
1000
0001
0100
0010
,  // measure 59
1000
0001
0010
0100
1000
0001
0100
0010
,  // measure 60
1000
0000
0001
0000
1000
0000
0000
1000
0000
0000
1000
0000
0000
1000
0000
0000
,  // measure 61
0100
0010
0100
0010
0001
1000
0001
0000
,  // measure 62
1000
0100
1000
0100
0010
0001
0010
0001
,  // measure 63
0100
0010
0100
0010
1000
0001
1000
0001
,  // measure 64
0100
0010
0100
0010
1000
0100
1000
0100
,  // measure 65
0010
0001
0010
0001
1000
0001
0100
0000
,  // measure 66
0101
0000
1001
0000
1000
0010
1000
0000
,  // measure 67
0001
0010
0001
0000
1000
0100
1000
0000
,  // measure 68
0001
0100
0001
1000
1000
0000
0001
0010
,  // measure 69
0100
1000
0010
0001
0010
1000
0001
0000
,  // measure 70
1001
1100
0000
0000
;

//---------------dance-single - Lunaticboi----------------
#NOTES:
     dance-single:
     Lunaticboi:
     Hard:
     15:
     0.645791,0.681349,0.109640,0.151809,0.543982,536.000000,523.000000,13.000000,18.000000,0.000000,0.000000,0.645791,0.681349,0.109640,0.151809,0.543982,536.000000,523.000000,13.000000,18.000000,0.000000,0.000000:
0000
0000
0000
0000
,
0000
0000
0000
0000
,
0000
0000
0000
0000
,
0000
0000
0000
0000
,
0000
0000
0000
0000
1000
0100
1000
0000
0010
0000
0100
0001
0000
0001
0000
0000
,
1000
0100
1000
0000
0001
0000
1000
0000
0001
0100
0001
1000
0000
1000
0000
1000
,
0001
0000
0010
0000
1000
0000
0010
0000
0001
0000
0100
0010
0000
0100
0000
0000
,
0001
1000
0001
0000
0010
0000
1000
0000
0010
0000
0010
0001
0000
0001
1000
0000
,
1001
0000
0000
0000
0001
0010
0001
0000
1000
0010
1000
0001
0000
0010
0000
0001
,
0010
0000
0100
0000
1000
0001
1000
0001
0000
0100
0000
0010
0000
1000
0000
0001
,
1000
0000
0001
1000
0001
0000
0010
0100
0000
1000
0100
0010
0000
0001
0000
0010
,
0100
0000
0000
1000
0000
0010
0100
0010
0000
0100
0010
0100
0000
0001
0000
0000
,
1000
1000
0001
0010
1000
0010
0001
1000
,
0001
1000
0000
0000
0001
0000
0100
0000
1000
0000
0100
0000
0010
0100
0010
0000
,
0110
0000
0000
0000
0100
0000
0001
0000
1000
0001
1000
0000
0100
0010
0100
0000
,
1000
0000
0001
0100
0000
0010
1000
0000
0001
0010
0001
0000
0010
0000
0200
2000
,
0000
3300
0000
0000
1000
0000
0001
0000
0001
0000
0100
0000
0010
1000
0010
1000
,
0000
0000
0010
0100
0001
0000
0100
0010
1000
0000
0001
0000
0010
0100
0010
0100
,
0000
0000
1000
0001
1000
0000
0000
0001
0000
0000
0010
0000
0100
1000
0100
1000
,
0000
1000
0010
0000
0100
0001
0100
0001
0000
0000
0001
0000
0100
0010
0100
0010
,
0000
1000
0002
0000
0100
0000
0100
0000
,
0100
2003
0100
0100
,
0100
3100
0010
0001
1000
0001
0001
0100
,
0010
0000
1000
0000
0001
0000
1000
0001
0000
0000
0001
0000
0100
0010
0100
0000
,
0010
0000
0000
0000
1000
0000
0000
0010
0000
0000
1000
0000
0000
0000
0100
0000
,
0010
0000
0001
0000
0010
0000
0000
0001
0000
0000
0010
0000
0000
0001
0000
0000
,
0100
0000
0010
0000
0100
0000
0001
1000
0001
0000
0010
0000
1000
0000
0010
0000
,
0001
1000
0001
0000
0100
0000
1000
0000
0100
0000
0001
0000
1000
0000
0001
0000
,
0010
0000
0100
0000
1000
0000
0000
1000
0000
0000
1000
0000
0000
0000
1000
0000
,
0010
0000
0100
0000
0001
0000
0000
0001
0000
0000
0001
0000
0000
0000
0001
0000
,
0000
0000
0010
0000
0100
0000
1000
0000
0100
0010
0000
0010
0100
0000
1000
0000
,
0001
0000
0000
0000
0100
0000
0001
0000
1000
0000
0010
0100
0010
0000
1000
0001
,
1000
0000
0000
0000
0010
0000
0000
0010
0000
0000
0010
0000
0000
0000
0010
0000
,
1000
0001
1000
0000
0100
0000
0000
0100
0000
0000
0100
0000
0000
0000
0100
0000
,
1000
0000
0001
0000
1000
0000
1000
0000
0001
0010
0100
0010
0000
0100
0000
0000
,
1000
0000
1000
0000
0001
0000
0001
0000
1000
0000
0010
0100
0000
0010
0000
0100
,
0010
0000
0000
0000
1000
0000
0000
1000
0000
0000
1000
0000
0000
0000
1000
0000
,
0000
0000
0100
0000
0010
0000
0000
0010
0000
0000
0010
0000
0000
0000
0010
0000
,
0001
0000
1000
0000
0010
0000
0001
0000
0010
0000
0100
0001
0100
0010
1000
0010
,
0100
0000
0001
0000
0010
0000
0100
0000
1000
0100
1000
0000
0001
0000
1000
0000
,
1001
0000
0000
0000
0002
0000
0000
0000
0103
0000
0010
1000
0200
0000
0000
0000
,
1300
0000
1000
0100
0010
0001
0100
0010
,
1010
0000
0000
0000
2000
0000
0000
0000
3100
0000
0010
0001
0200
0000
0001
0000
,
0301
0000
0001
0100
0010
1000
0100
0010
,
0011
0000
0000
0000
0002
0000
0000
0000
0013
0000
0100
1000
0002
0000
0000
0000
,
0103
0000
0010
1000
0001
0010
0100
1000
,
1100
0000
0000
0000
2000
0000
0000
0000
3010
0000
0100
0001
2000
0000
0000
0000
,
3100
0011
1100
0101
,
0110
2002
0000
0000
,
0000
0000
0000
3003
,
0000
0000
0000
0000
0001
0000
0100
0000
0010
1000
0010
1000
0001
0000
1000
0000
,
0001
0000
0000
0000
1000
0000
0100
0000
0010
0001
0010
0001
1000
0000
0001
0000
,
1000
0000
0010
0000
0100
0000
0001
0000
0100
0010
0100
0010
0100
0000
0001
0000
,
1000
0000
0000
0000
0010
0000
0010
0000
1000
0100
0010
0001
1000
0000
0001
0000
,
0001
0000
1000
1000
0100
1000
0001
0001
,
0010
0000
0001
0000
1000
0010
1000
0000
0001
0000
0010
0001
0010
0000
0100
0000
,
0100
0000
0000
0000
1000
0000
0001
0010
0000
0000
0010
0000
0100
1000
0000
0000
,
1000
0000
0001
0000
0100
0010
0100
0000
0001
0000
1000
0000
0001
0000
1000
0000
,
0001
0000
0000
0000
0000
0000
1000
0000
1000
0000
0001
0010
0001
0000
0100
0000
,
0100
0000
0001
1000
0001
0000
1000
0000
1000
0000
0100
0010
0001
0000
1000
0000
,
1000
0000
0100
0010
0001
0000
1000
0001
0000
0000
0001
0000
0000
0001
0000
0000
,
0100
0010
0100
0000
0010
0100
0010
0000
0000
1000
0000
0001
1000
0000
0000
0000
,
0001
0010
0010
0100
0100
1000
1000
0001
,
0001
0100
0020
0100
0130
0001
0020
0100
,
0130
1000
0020
0100
0130
0001
0020
0100
,
0130
0000
1000
0000
0001
0010
0001
0010
0001
0000
1000
0000
0100
0010
0100
0010
,
0100
0000
1000
0000
0001
0000
0000
0000
1000
0010
1000
0010
1000
0000
0000
0000
,
0001
0010
0001
0010
0001
0000
0000
0000
1000
0100
1000
0100
1000
0000
0000
0000
,
0001
0100
0001
0100
0001
0000
1000
0000
1000
0000
0000
0100
0000
0010
0001
0000
,
0100
0001
0010
1000
0010
0001
0100
0000
,
0101
1010
0000
0000
;

//---------------dance-single - Lunaticboi----------------
#NOTES:
     dance-single:
     Lunaticboi:
     Challenge:
     17:
     0.765069,0.799844,0.269883,0.134941,0.822299,635.000000,603.000000,32.000000,16.000000,0.000000,0.000000,0.765069,0.799844,0.269883,0.134941,0.822299,635.000000,603.000000,32.000000,16.000000,0.000000,0.000000:
0000
0000
0000
0000
,
0000
0000
0000
0000
,
0000
0000
0000
0000
,
0000
0000
0000
0000
,
0000
0000
0000
0000
0001
0010
0001
0010
1000
0000
0010
0001
0000
2000
0000
0000
,
3010
0100
0010
0100
0001
0000
0010
0000
0100
1000
0100
1000
0000
2000
0000
3100
,
0010
0001
0010
1000
0010
0000
0100
0010
0100
1000
0100
0010
0000
0011
0000
0001
,
0100
0001
1000
0001
1000
0000
1000
0000
0100
0000
0100
1000
0000
1000
0001
0000
,
0101
0000
0001
1000
0001
1000
0010
0000
1000
0001
1000
0010
0000
0010
0000
0010
,
0100
0000
0110
0000
0010
1000
0010
1000
0000
1000
0000
0001
0000
0010
0000
0100
,
1000
0000
0001
1000
0010
0000
0001
0010
0000
1000
0100
0001
0000
0100
0000
1000
,
0001
0000
0000
0100
0000
0010
1000
0010
0000
0100
0001
0100
0000
0001
0000
0000
,
1001
1001
0001
0001
0010
0010
0100
0100
,
1000
0100
0000
0010
0100
0000
1000
0000
0001
0000
1000
0000
0010
0001
0010
0000
,
0110
0000
0000
0000
0100
0000
0001
0000
0010
0001
0100
0000
0100
0001
0010
0100
,
1000
0000
1000
0010
0000
0010
0100
0000
0100
1000
0100
0001
0100
0000
0020
2000
,
0000
3030
0000
0000
1000
0000
0001
0000
0001
0000
0010
0000
0001
1000
0010
1000
,
0000
0000
1000
0010
0100
0000
0001
0100
0010
0000
1000
0000
0001
0010
0100
0010
,
0000
0000
0010
0100
1000
0001
0000
0101
0000
0000
0100
0010
1000
0010
1000
0010
,
0000
0100
0001
0000
0010
1000
0010
0100
0000
0100
1000
0000
0001
0100
1000
0100
,
0000
0001
1000
0000
0002
0000
0000
0000
0100
0000
0000
0000
0100
0000
0000
0000
,
0100
2003
0100
0100
,
0100
3100
0100
0010
0010
0001
0001
1000
,
0001
0000
0100
0000
0010
0000
1000
0001
0000
0000
0001
0000
0100
0010
0100
0000
,
0110
0000
0000
0000
1001
0000
0000
0001
0000
0000
0010
0000
0000
0000
0100
0000
,
1000
0000
0001
0000
0100
0000
0000
0110
0000
0000
0010
0000
0000
1000
0000
0000
,
0001
0000
0010
0000
0011
0000
0001
0010
1000
0000
0010
0000
0001
0000
0100
0000
,
1000
0100
0001
0000
1000
0001
1000
0000
0100
0000
1000
0001
0010
0001
1000
0000
,
0001
1000
0001
0000
0100
0000
0000
0100
0000
0000
0010
0000
0000
0000
1010
0000
,
1000
0000
0001
0000
1000
0000
0000
0001
0000
0000
0010
0000
0000
0000
0011
0000
,
0010
0000
0100
0001
0100
0000
1000
0000
0001
0100
0000
0010
0000
0000
0100
1000
,
0100
0001
1000
0000
0100
0000
0010
0001
1000
0000
0001
1000
0100
0000
1000
0001
,
0100
0000
0010
0000
1000
0000
0000
1000
0000
0000
1000
0000
0000
0000
1000
0000
,
0100
0010
0001
1000
0001
0000
0000
0001
0000
0000
0001
0000
0000
0000
0001
0000
,
0100
0001
1000
0100
0001
0000
0100
0000
1000
0001
0100
0010
0000
0100
0010
0000
,
1000
0000
1000
0000
0001
0000
0010
0000
0100
0000
1000
0001
0000
0010
0000
0001
,
0100
0000
0100
0000
0001
0000
0000
0001
0000
0000
0001
0000
0000
0000
0001
0000
,
0000
0000
1000
0000
0100
0000
0000
0100
0000
0000
0100
0000
0000
0000
0100
0000
,
0010
0000
1000
0000
0010
0000
0001
0000
0100
0000
0010
1000
0010
0100
0001
0100
,
0010
0000
0110
0000
0100
0001
1000
0100
0010
0100
1000
0001
0100
0000
0010
0100
,
0010
0000
0000
0000
1001
0000
1000
0000
0101
0000
0001
1000
0100
0000
1000
0000
,
1100
0000
1000
0100
0010
0000
0001
0000
0101
0000
0100
0010
1000
0000
0010
0000
,
1010
0000
0000
0000
2000
0000
0000
0000
0100
0000
3001
0100
0002
0000
0100
0000
,
0103
0000
0000
0000
0001
0000
0010
0100
1000
0000
0001
1000
0001
0000
1000
0000
,
1001
0000
0000
0000
0002
0000
0000
0000
0100
0000
1003
0001
2000
0000
0100
0000
,
3100
0000
0000
0000
1000
0000
0010
0100
0001
0000
1000
0001
1000
0000
0001
0000
,
1001
0000
0000
0000
0000
0000
0000
0000
0000
0000
0000
0000
2000
0000
0000
0000
0000
0000
0000
0000
0000
0000
0000
0000
0100
0000
0000
0000
3000
0000
0001
0000
0000
0100
0000
0000
0020
0000
0000
0000
0000
0000
1000
0000
0000
0000
0000
0000
,
1030
0000
0001
1000
0001
0000
0010
0001
0010
0000
0100
0000
1100
0000
0000
0000
,
0011
2002
0000
0000
,
0000
0000
0000
3003
,
0000
0000
0000
0000
0001
0010
0001
0010
0100
0010
0100
0010
0001
0000
1000
0000
,
1001
0000
0000
0000
1000
0010
1000
0010
0100
0010
0100
0010
1000
0000
0001
0000
,
1000
0000
0100
0000
0010
0001
0010
0001
1000
0001
1000
0001
0100
0000
0010
0000
,
0100
0000
0100
0000
0001
0100
0001
0000
1000
0001
1000
0001
0010
0000
0100
0000
,
1100
0000
1000
1000
0100
1000
0001
0100
,
0010
0000
1000
0000
0010
1000
0010
0100
0001
0000
1000
0100
0010
0000
0001
0000
,
1100
0000
0000
0000
1000
0000
0001
0100
0000
0001
0100
0000
0010
1000
0000
0010
,
1000
0000
0001
0000
0010
0100
0010
0000
1000
0000
0010
0001
1000
0000
0001
0000
,
1001
0000
0000
0000
0000
0000
0001
0000
0100
0000
0001
0100
0010
0000
1000
0000
,
1000
0000
0100
0010
0001
0000
1000
0000
1000
0000
0001
0100
0001
0000
0010
0000
,
0010
0000
0100
1000
0001
0000
0100
0001
0000
0000
1000
0000
0000
0100
0000
0000
,
0010
0001
0010
0000
0100
1000
0100
0010
0000
0011
0000
0001
1000
0000
1000
0000
,
0001
0000
1000
0010
0100
0000
0001
0100
0010
0000
1000
0010
0100
0000
0001
0010
,
0100
0000
1000
0100
0020
0000
0100
0000
0130
0000
1000
0001
0010
0000
0100
0010
,
0100
0000
1000
0001
0200
0000
0010
0000
0310
0000
0010
1000
0001
0000
0100
0001
,
1000
0000
0100
0000
0010
0001
0010
0001
1000
0000
0001
0100
0001
0100
0010
0100
,
0010
0000
0100
0010
0100
0000
0000
0000
0001
1000
0001
1000
0001
0000
0000
0000
,
0010
0001
0010
0001
0010
0000
0000
0000
0100
1000
0100
1000
0100
0000
0000
0000
,
1000
0010
1000
0010
1000
0000
0001
0000
0001
0000
0000
0100
0000
0001
1000
0010
,
0100
0000
0100
0000
0001
0000
0010
0100
1000
0000
0010
0000
0110
0000
0000
0000
,
1001
0101
0000
0000
;
