#TITLE:聖人の塔;
#ARTIST:Beridzebeth;
#TITLETRANSLIT:Seijin no tou;
#BANNER:Seijin no tou.png;
#BACKGROUND:Seijin no tou-bg.png;
#JACKET:Seijin no tou-jacket.png;
#CDTITLE:./CDTITLES/BEATMANIA IIDX.PNG;
#MUSIC:Seijin no tou.ogg;
#SAMPLESTART:32.164;
#SAMPLELENGTH:15;
#BPMS:0=97,36=194,228=97,244=194,308=97;

//---------------dance-single - t7r----------------
#NOTES:
     dance-single:
     t7r:
     Beginner:
     3:
     :
0000
0000
0000
0000
,
0000
0000
0000
0000
,
0000
0000
0000
0000
,
0001
0000
0000
0000
,
1000
0000
0000
0000
,
0100
0000
0000
0000
,
0010
0000
0000
0000
,
0001
0000
0000
0000
,
1000
0000
0000
0000
,
0001
0000
0000
0000
,
0000
0000
0000
0000
,
1000
0000
0000
0000
,
0000
0000
0000
0000
,
0010
0000
0000
0000
,
0000
0000
0000
0000
,
0100
0000
0000
0000
,
0000
0000
0000
0000
,
0001
0000
0000
0000
,
1000
0000
0000
0000
,
0100
0000
0000
0000
,
0010
0000
0010
0000
,
0010
0000
0000
0000
,
0001
0000
0000
0000
,
1000
0000
0000
0000
,
0010
0000
0000
0000
,
1000
0000
0000
0000
,
1000
0000
0000
0000
,
0001
0000
0001
0000
,
0001
0000
0000
0000
,
0010
0000
0000
0000
,
0010
0000
0000
0000
,
0100
0000
0100
0000
,
0100
0000
0000
0000
,
1000
0000
0000
0000
,
0010
0000
0000
0000
,
0100
0000
0000
0000
,
0001
0000
0001
0000
,
0001
0000
0000
0000
,
0010
0000
0000
0000
,
0100
0000
0000
0000
,
1000
0000
0000
0000
,
0010
0000
0000
0000
,
0010
0000
0000
0000
,
0010
0000
0000
0000
,
0000
0000
0000
0000
,
0100
0000
0000
0000
,
0100
0000
0000
0000
,
0100
0000
0000
0000
,
0000
0000
0000
0000
,
0001
0000
0000
0000
,
0001
0000
0000
0000
,
0001
0000
0000
0000
,
0000
0000
0000
0000
,
1000
0000
0000
0000
,
1000
0000
0000
0000
,
1000
0000
0000
0000
,
1001
0000
0000
0000
,
0001
0000
0000
0000
,
0010
0000
0000
0000
,
0100
0000
0000
0000
,
1000
0000
0000
0000
,
0010
0000
0000
0000
,
0010
0000
0000
0000
,
0100
0000
0000
0000
,
0100
0000
0000
0000
,
0001
0000
0000
0000
,
1000
0000
0000
0000
,
0010
0000
0000
0000
,
0100
0000
0000
0000
,
0001
0000
0000
0000
,
0000
0000
0000
0000
,
0000
0000
0000
0000
,
0000
0000
0000
0000
,
0000
0000
1000
0000
,
0000
0000
1000
0000
,
1000
0000
0000
0000
,
0010
0000
0000
0000
,
0100
0000
0000
0000
,
0001
0000
0000
0000
,
1001
0000
0000
0000
;

//---------------dance-single - t7r----------------
#NOTES:
     dance-single:
     t7r:
     Easy:
     11:
     :
0000
0000
0000
0000
,
0000
0000
0000
0000
,
0000
0000
0000
0000
,
0001
0000
0000
0000
,
0100
0000
0000
0000
,
0020
0001
0100
2030
,
0100
0001
3020
0230
,
0302
0023
1000
0100
,
0031
0000
0001
0000
0100
0000
0100
0000
0001
1000
0001
1000
0001
0000
0001
0000
,
1000
0000
0100
0010
0000
0100
0000
0100
,
1000
0000
0001
1000
,
0001
0000
0010
0100
0000
0010
0000
0010
,
0001
0000
1000
0010
0100
0000
0001
0000
,
1001
0000
1000
0010
0000
0100
0000
0100
,
0010
0000
0000
0000
1000
0001
0100
0000
,
0001
0000
0010
0100
0000
0100
0000
1000
,
0010
0000
0100
0000
0001
1000
0100
0000
,
0020
0000
0000
0000
0031
0000
0100
0001
,
2000
0000
0000
0000
3100
0000
1000
0001
,
0010
0001
0100
0010
,
2000
0100
3002
0100
,
1003
1000
0000
0100
0010
0000
0001
1000
,
0001
0001
0000
0100
0010
0000
1000
0001
,
1000
0000
0001
1000
0010
0000
0100
0000
,
0001
0010
0100
0000
1000
0010
0100
0000
,
0001
0000
0010
1000
0000
0010
0000
0010
,
0100
0000
1000
0001
,
1000
0000
0010
0100
0001
0000
0010
0100
,
1000
0000
0001
1000
0100
0000
1000
0000
,
1001
0000
0001
1000
0000
0010
0000
0010
,
0001
0000
0010
0100
,
0001
0000
1000
0100
0010
0000
0001
0100
,
0010
0000
1000
0000
0001
1000
0001
1000
,
0020
0000
0000
0000
1030
0000
0100
0010
,
0002
0000
0000
0000
0103
0000
0010
1000
,
0001
0000
0010
0100
1000
0000
0001
0000
,
2000
0010
3002
0010
,
1003
1000
0000
0100
0001
0000
0100
1000
,
0001
0001
0000
0100
1000
0000
0100
0010
,
1000
0000
0001
1000
0010
0000
1000
0000
,
0001
0010
0001
0000
1000
0010
0100
0000
,
0001
0000
0001
0010
0000
0010
0100
0000
,
0100
1000
0000
1000
0010
0000
0010
2000
,
0000
0100
0001
0010
,
0001
0100
0010
3001
,
1000
0000
1000
0010
0000
0010
0100
0000
,
0100
0001
0000
0001
0010
0000
0010
0002
,
0000
0100
1000
0010
,
1000
0000
0100
0000
0013
0001
1000
0001
,
1000
0000
1000
0010
0000
0010
0001
0000
,
0001
0010
0000
0010
0100
0000
0100
0002
,
0000
0010
1000
0100
,
0010
1000
0100
1003
,
0001
0000
0001
0010
0000
0010
1000
0000
,
1000
0010
0000
0010
0100
0000
0100
1000
,
0000
1000
0001
0000
0001
0100
0000
0100
,
0010
0000
0110
0000
0001
1000
0001
0000
,
2000
0000
0000
3100
0000
0000
0020
0000
0000
0031
0000
0000
0200
0000
0310
0000
,
2000
0000
0000
3001
0000
0000
0020
0000
0000
0130
0000
0000
0020
0000
0031
0000
,
0200
0000
0000
0000
1000
0000
0000
0000
0320
0000
0000
1030
0000
0000
0001
0000
,
0020
0000
0000
0130
0000
0000
0010
0000
0002
0000
0000
0000
1003
0001
1000
0000
,
0001
0000
0010
0100
1000
0000
0100
0000
,
0001
0100
1000
0010
,
1000
0000
0001
0100
0010
0000
0100
0000
,
1000
0100
0010
1000
,
0001
0000
0010
0100
1000
0000
0100
0000
,
0010
0000
0001
0100
0010
0000
1000
0000
,
0100
0000
0010
0001
1000
0000
0010
0000
,
1000
0100
0010
0000
0001
0100
0010
0000
,
0110
0000
0000
0101
0000
0000
1010
0000
,
0000
1001
0000
0000
1100
0000
0000
0011
,
0000
0000
1001
0000
0000
0110
0000
0000
,
1001
0000
0000
1100
0000
0000
1000
0001
,
1000
0100
0100
0000
0010
0010
0000
0001
,
0001
0000
1000
1000
0000
0010
0010
0000
,
0100
0100
0000
0001
0001
0000
0010
0010
,
0000
0100
0100
0000
1000
0001
0000
0100
,
0020
0000
0001
0000
0130
0001
1000
0000
,
0200
0000
0001
0000
0310
0001
1000
0000
,
0220
0000
0000
0000
,
0330
0000
0000
0000
;

//---------------dance-single - t7r----------------
#NOTES:
     dance-single:
     t7r:
     Medium:
     14:
     :
0000
0000
0000
0000
,
0000
0000
0000
0000
,
0000
0000
0000
0000
,
1000
0000
0000
0000
,
0100
0000
0000
0000
,
0020
1000
0100
0032
,
0100
1000
0023
0230
,
1300
0000
0001
0000
0100
0000
0010
1000
0001
0000
0010
0000
0100
0000
1000
0000
,
0001
0000
1000
0000
0010
0000
0100
0000
0001
1000
0001
1000
0001
1000
0001
1000
,
0001
0010
0100
1000
0001
0010
0100
1000
,
0020
0000
0001
0000
0130
0001
1000
0100
,
1000
0000
0000
0010
0000
0000
1000
0000
0100
0000
0010
0000
0001
0000
0100
0000
,
0010
1000
0000
0001
0100
0001
0001
1000
,
0001
0100
0010
1000
0001
0100
0010
1000
,
0200
0000
0001
0000
0310
0100
1000
0010
,
0100
0000
0000
0001
0000
0000
1000
0000
0100
0000
0010
0000
0001
0000
0100
0000
,
0010
0000
1000
0000
0000
0000
0001
0000
0010
0000
0001
0000
1000
0001
1000
0000
,
0020
0000
0000
1030
1000
0001
1000
0100
,
0010
0000
0000
0000
0001
0000
0000
0100
0001
0000
0010
0000
0100
0000
1000
0000
,
0001
0100
0010
1000
0100
0010
0001
1000
,
0002
0100
2003
0100
,
3001
0001
0010
0001
0001
1000
0010
1000
,
1000
0001
0100
0001
0001
1000
0100
0010
,
0001
0000
0100
0010
1000
0001
0010
0001
,
0001
0000
0100
0000
0010
0000
0100
0000
0100
0000
0001
1000
0001
0000
1000
0000
,
0001
0000
0100
1000
0100
0010
0100
0001
,
1000
0100
0000
0100
0001
0100
0010
0100
,
1000
0000
0010
1000
0000
0001
1000
0000
0001
0000
0010
0001
0000
1000
0001
0000
,
0100
0000
0000
0000
1000
0100
0000
0001
0100
0000
0000
0000
0001
1000
0001
0000
,
1000
0000
0100
0001
0100
0010
0100
1000
,
0001
0100
0000
0100
1000
0100
0010
0100
,
0001
0000
0010
0001
0000
1000
0001
0000
1000
0000
0010
1000
0000
0001
1000
0000
,
0100
0000
0001
0000
0100
0000
0010
0000
0001
0000
1000
0001
1000
0000
0001
0000
,
2000
0000
0000
3010
0010
0100
0001
1000
,
0100
0000
0000
0010
0001
0000
0100
0000
0010
0000
0000
1000
0001
0000
0010
0000
,
0001
0100
1000
0100
0010
0010
1000
0001
,
2000
0010
3002
0010
,
1003
1000
0100
0001
0001
0100
0010
0001
,
0100
0100
1000
0100
0100
0010
1000
0001
,
0010
0000
1000
0010
0100
0010
0001
0100
,
0010
0000
0100
0000
0001
0000
1000
0000
0100
0000
1000
0001
1000
0000
0001
0000
,
2000
0000
3100
0200
0000
0310
0020
0000
,
0031
0002
0000
0103
0200
0000
0310
0020
,
0000
0001
0001
0000
0100
0100
0000
1000
,
1000
0000
0100
0100
0000
1030
0001
0010
,
0002
0000
0103
0200
0000
0310
0020
0000
,
1030
2000
0000
3100
0200
0000
0310
0020
,
0000
1000
1000
0000
0100
0100
0000
0001
,
0001
0000
0000
0000
0130
0000
1000
0000
0001
0000
1000
0001
1000
0000
0001
0000
,
2000
0000
3010
0020
0000
0031
0002
0000
,
0013
0020
0000
0130
0200
0000
0301
0002
,
0000
0010
0010
0000
1000
1000
0000
0100
,
0100
0000
0010
0010
0000
1003
0001
0100
,
0020
0000
0031
0002
0000
1003
2000
0000
,
3100
0200
0000
0301
0002
0000
0013
0020
,
0000
1030
2000
0000
3010
0020
0000
0130
,
1000
0000
0000
0000
1001
0000
0001
0000
0100
0000
0001
1000
0001
0000
0010
0000
,
0002
0000
0000
0203
0000
0000
0320
0000
1030
0200
0000
0000
0320
0000
0032
0000
,
2003
0000
0000
3020
0000
0000
0230
0000
0301
0020
0000
0000
0230
0000
1300
0001
,
0020
0000
0000
1000
0000
0000
0100
0000
0032
0000
0000
0203
0000
0000
0320
0000
,
2030
0000
0000
0000
0000
0000
3002
0000
0000
0000
0000
0000
0023
0000
0000
0000
0032
0000
0000
0000
0000
0000
0000
0000
1003
0000
0001
1000
0001
0000
1000
0000
,
0001
0010
1000
0010
0001
0100
1000
0100
,
0010
0000
0100
0010
0000
0100
0001
0000
0100
0010
0000
0010
1000
0000
0001
0000
,
1000
0100
0001
1000
0010
0001
0100
0010
,
1000
0001
0100
0001
1000
0001
0010
0001
,
1000
0010
0100
1000
0100
0010
0100
0001
,
0100
1000
0001
0010
1000
0100
0010
0100
,
0001
1000
0010
0001
0100
0010
1000
0001
,
0100
0000
0001
0000
0001
0000
1000
0000
1000
0000
0001
1000
0001
0000
1000
0000
,
0010
0000
0000
1001
0000
0000
1100
0000
,
0000
1001
0000
0000
0101
0000
0000
1010
,
0010
0000
0110
0100
0000
0101
0001
0000
,
1001
1000
0000
1001
0001
0000
1000
1000
,
0001
0100
0100
0010
0100
0100
1000
0100
,
0100
0010
0100
0100
0001
1000
1000
0100
,
0010
0010
1000
0010
0010
0100
0010
0010
,
0001
0100
0100
1000
0100
0100
0001
1000
,
0020
0000
0000
0000
0001
0000
0000
0000
0130
0001
1000
0001
0100
0001
1000
0000
,
0200
0000
0000
0000
0001
0000
0000
0000
0310
0100
1000
0010
0100
0001
1000
0100
,
2000
0000
0000
0000
,
3000
0000
0000
0000
;

//---------------dance-single - t7r----------------
#NOTES:
     dance-single:
     t7r:
     Hard:
     17:
     :
0000
0000
0000
0000
,
0000
0000
0000
0000
,
0000
0000
0000
0000
,
0001
0000
0000
0000
,
1000
0000
0000
0000
,
0200
0000
0000
0001
0000
0000
0000
0010
0000
1000
0000
1300
0002
0000
0000
0000
,
0100
0000
0000
1000
0000
0000
0000
0013
0200
0010
0000
0000
2300
0000
0000
0000
,
3001
0001
0100
0010
1000
0100
0010
0001
1000
0010
0100
0001
1000
0100
0010
0001
,
1000
0000
1000
0000
0010
0000
0100
0000
0001
0000
0010
0000
0100
0000
1000
0000
0001
1000
0001
1000
0001
1000
0001
1000
0001
1000
0001
1000
0001
1000
0001
1000
,
0001
0000
0010
0100
0010
0000
0001
0000
0100
0010
0100
0000
0001
0000
1000
0001
,
0100
0001
0000
0001
1000
0100
0010
0001
,
1000
0000
0010
0100
0000
0010
1000
0000
0001
0000
0010
0100
0000
0010
0001
0000
,
1000
0100
0010
0000
0001
0000
1000
0000
0001
0100
0010
1000
0001
1000
0001
1000
,
0001
0000
1000
0100
0010
0000
0001
0000
1000
0010
0100
0000
0001
0000
0010
0000
,
0100
1000
0001
0000
0000
0000
0100
0000
0010
0000
1000
0000
0001
0000
0010
0000
,
0001
0000
0100
0010
0000
0100
0001
0000
1000
0000
0100
0010
0000
0100
1000
0000
,
0001
0100
0010
1000
0001
0000
1000
0000
0100
0010
0100
1000
0001
1000
0001
1000
,
0020
0000
0000
0000
0001
0000
0130
0010
0100
0000
0001
0010
0100
0000
1000
0000
,
0010
0000
0000
1000
0100
0010
0100
1000
0001
0000
0000
0100
0010
1000
0001
0010
,
0001
0000
0100
0010
1000
0000
0100
0010
0001
0000
0100
0010
1000
0000
0001
0010
,
0002
0100
2003
0100
,
3001
0000
0001
0000
0010
0000
0100
0010
0100
0000
0100
0000
1000
0000
0001
1000
,
0001
0000
0001
0000
0100
0000
0010
0100
0010
0000
0010
0000
1000
0000
0001
0000
,
0010
0000
0000
0001
0100
0001
1000
0001
0010
0100
1000
0001
1000
0000
0010
0100
,
0001
0010
0001
0010
0100
1000
0100
1000
0001
0100
0010
0100
0001
1000
0001
1000
,
0001
0000
0000
0000
1000
0000
0100
0000
0010
0000
0100
0000
0001
0000
0100
1000
,
0001
0100
0000
1000
0100
0010
0100
0001
,
0010
0100
1000
0001
0000
0001
0100
0010
0100
0001
1000
0100
0000
0100
1000
0001
,
1000
0100
0010
0000
0001
1000
0100
0010
0001
1000
0100
0000
1000
0001
1000
0001
,
1000
0000
0000
0000
0001
0000
0100
0000
0010
0000
0100
0000
1000
0000
0100
0001
,
1000
0100
0000
0001
0100
0010
0100
1000
,
0010
0100
0001
1000
0000
1000
0100
0010
0100
1000
0001
0100
0000
0100
0001
1000
,
0001
0100
0010
0000
1000
0100
0010
0001
1000
0010
0100
0001
1000
0001
1000
0001
,
0020
0000
0000
0000
1000
0000
0130
0010
0100
0000
1000
0000
0010
0000
0100
0001
,
1000
0000
0000
0001
0100
0010
1000
0001
0010
0000
0000
0001
1000
0100
0010
0001
,
1000
0000
0010
0100
0001
0000
0010
0100
1000
0000
0010
0100
0001
0000
1000
0001
,
0020
1000
0230
0001
,
0310
0000
0010
0000
0001
0000
0100
0010
0100
0000
0100
0000
1000
0000
0100
0010
,
0100
0000
0100
0000
0001
0000
0010
0100
0010
0000
0010
0000
1000
0000
0010
0000
,
0001
0000
0000
0100
0010
0100
0001
1000
0010
1000
0001
0010
0001
0000
1000
0010
,
1000
0001
1000
0001
0010
0100
1000
0001
0010
0001
1000
0010
1000
0001
1000
0001
,
2000
0000
0100
3002
0000
0100
2003
0000
,
0100
3002
0000
0010
2003
0000
0010
3002
,
0000
0100
0100
0000
1000
1000
0000
0010
,
0010
0000
1000
1000
0000
0103
0110
0000
,
0002
0000
0100
2003
0000
0100
3002
0000
,
0100
2003
0000
0010
3002
0000
0010
2003
,
0000
0100
0100
0000
0001
0001
0000
0010
,
0010
0000
0000
0000
0001
0000
0001
0000
0000
0000
3010
0100
0001
1000
0001
1000
,
0200
0000
0001
0320
0000
1000
0230
0000
,
0001
0320
0000
0001
0230
0000
1000
0320
,
0000
1000
1000
0000
0100
0100
0000
0001
,
0001
0000
0100
0100
0000
0031
1001
0001
,
0200
0000
1000
0320
0000
0001
0230
0000
,
1000
0320
0000
0100
2030
0000
0010
3002
,
0000
0010
2003
0000
0100
3002
0000
0100
,
1003
0000
0000
0000
1100
0000
0100
0000
0010
0000
0001
1000
0001
1000
0001
1000
,
0002
0000
0000
0000
0000
0000
0203
0000
0000
0000
0000
0000
0310
0000
1000
0100
0010
0000
0002
0000
0000
0000
0000
0000
2003
0000
0000
0000
3020
0000
0000
0000
,
2030
0000
0000
0000
0000
0000
3002
0000
0000
0000
0000
0000
0013
0000
0100
1000
0001
0000
0020
0000
0000
0000
0000
0000
0032
0000
0000
0000
0103
0000
0010
0000
,
2000
0000
0000
3100
0010
0000
0001
0000
0200
1000
0000
0320
0000
0000
2030
0000
,
3001
0010
0001
0010
0001
0010
0001
0010
0100
1000
0100
1000
0100
1000
0100
1000
0020
0000
0000
0000
0000
0000
0000
0000
1030
0000
0010
0000
1000
0001
0100
0001
,
1000
0000
0100
0010
0001
0000
1000
0000
0100
0000
0010
0100
1000
0000
0001
0000
,
0100
0000
1000
0100
1000
0000
0100
0000
0010
0000
0100
0001
0100
0000
0001
0000
,
1000
0000
0001
0010
0100
1000
0001
0010
0001
0000
0100
0010
1000
0000
0001
0000
,
1000
0000
0010
0100
0010
0000
0001
0000
0010
0000
0100
0010
1000
0001
1000
0000
,
0001
0010
0100
0000
0001
0100
0010
0000
0001
0100
0010
0000
0001
0010
0100
0000
,
0010
1000
0001
0000
0010
0001
1000
0010
0100
0000
1000
0100
0010
0000
1000
0000
,
0100
0010
0001
1000
0010
0100
0001
0010
0100
0000
0001
0100
0010
0000
0001
0000
,
1000
0001
1000
0001
1000
0001
1000
0001
0100
0010
0100
0010
0100
0010
0100
0010
,
1000
0000
0000
1100
0000
0000
0011
0000
,
0000
1001
0000
0000
0101
0000
0000
1010
,
0010
0000
0110
0100
0000
0101
0001
0000
,
1010
0000
1000
0000
0000
0000
1001
0000
0001
0000
0000
0000
1000
0001
1000
0001
,
1000
0100
0110
0000
0001
0101
0000
1000
,
1100
0000
0001
0011
0000
1000
1010
0000
,
0110
0010
0100
0001
1001
0000
1100
1000
,
0100
0010
0001
0000
0100
0010
1000
0001
1000
0001
1000
0100
0010
0001
0100
0010
,
1000
1000
0100
0010
1000
0001
0100
0010
0001
0100
1000
0100
0010
0100
0001
1000
,
0001
0001
0010
0100
0001
1000
0010
0100
1000
0010
0001
0010
1000
0100
0010
0001
,
2002
0000
0000
0000
,
3003
0000
0000
0000
;

//---------------dance-double - t7r----------------
#NOTES:
     dance-double:
     t7r:
     Easy:
     11:
     :
00000000
00000000
00000000
00000000
,
00000000
00000000
00000000
00000000
,
00000000
00000000
00000000
00000000
,
00000001
00000000
00000000
00000000
,
00000100
00000000
00000000
00000000
,
00000020
00000001
00000100
00002030
,
00000100
00000001
00003020
00020030
,
00032000
02003000
00010000
00100000
,
03010000
00000000
00010000
00000000
10000000
00000000
10000000
00000000
01000000
00000000
00010000
00001000
00010000
00000000
00001000
00000000
,
00010000
00000000
00001000
01000000
00000000
00010000
00000000
00010000
,
10000000
00000000
01000000
00100000
,
00001000
00000000
00010000
00000100
00000000
00000100
00000000
00001000
,
00000001
00000100
00001000
00010000
,
00011000
00000000
00001000
00100000
00000000
00100000
00000000
00010000
,
10000000
00000000
00100000
01000000
,
00010000
00000000
00100000
00001000
00000000
00001000
00000000
00010000
,
00000010
00000000
00000000
00000000
00000100
00000001
00001000
00000000
,
00000002
00000000
00000000
00000000
00000013
00000000
00000100
00001000
,
00000001
00000100
00000010
00001000
,
00010000
00000000
00100000
00010000
00100000
00000000
00010000
00000000
,
20000000
00100000
30020000
00100000
,
10030000
10000000
00000000
01000000
01000000
00000000
00100000
00000000
,
00010000
00010000
00000000
00001000
00001000
00000000
00000010
00000000
,
00000100
00000001
00000010
00000100
,
00010000
00000000
00001000
00010000
00001000
00000000
00010000
00000000
,
01000000
00000000
10000000
00100000
00000000
00010000
00000000
00010000
,
00100000
00000000
10000000
01000000
,
00010000
00000000
00001000
00010000
00001000
00000000
00010000
00000000
,
00000100
00000000
00001000
00000010
00000100
00000000
00000001
00000000
,
00001000
00000000
00000001
00000010
00000000
00001000
00000000
00001000
,
00000010
00000000
00000001
00000100
,
00001000
00000000
00010000
00001000
00010000
00000000
00001000
00000000
,
01000000
00000000
00010000
00100000
,
00020000
00000000
00000000
00000000
10030000
00000000
00100000
01000000
,
00010000
10000000
01000000
00010000
,
00001000
00000010
00000100
00000010
,
00000002
00000100
00002003
00000100
,
00003001
00000001
00000000
00000100
00000100
00000000
00001000
00000000
,
00010000
00010000
00000000
01000000
01000000
00000000
10000000
00000000
,
00100000
00000000
10000000
00000000
00010000
00100000
00001000
00000000
,
00010000
00000000
00000010
00001000
00000001
00000000
00001000
00000000
,
00000001
00000000
00000001
00000100
00000000
00000100
00000010
00000000
,
00000010
00001000
00000000
00001000
00000100
00000000
00000100
00020000
,
00000000
00001000
00000100
00001000
,
00000000
01000000
00001000
00030100
,
00010000
00000000
00001000
01000000
00000000
01000000
00010000
00000000
,
00010000
00100000
00000000
00100000
01000000
00000000
01000000
20000000
,
00000000
00100000
00010000
01000000
,
00000000
00000000
30010000
00000000
10000000
00010000
10000000
00000000
,
10010000
00000000
10000000
00100000
00000000
00100000
01000000
00000000
,
01000000
00010000
00000000
00010000
00100000
00000000
00100000
00002000
,
00000000
00010000
01000000
00010000
,
00000000
00000100
00010000
01003000
,
00001000
00000000
00010000
00000100
00000000
00000100
00001000
00000000
,
00001000
00000010
00000000
00000010
00000100
00000000
00000100
00000001
,
00000000
00000001
00000010
00000000
00000010
00001000
00000000
00001000
,
00010000
00011000
01000000
10010000
,
20000000
00000000
00000000
30100000
00000000
00000000
02000000
00000000
00000000
03010000
00000000
00000000
00100000
00000000
00010000
00000000
,
20000000
00000000
00000000
30100000
00000000
00000000
00020000
00000000
00000000
00031000
00000000
00000000
00000020
00000000
00000031
00000000
,
00000200
00000000
00000000
00000000
00001000
00000000
00000000
00000000
00000320
00000000
00000000
00001030
00000000
00000000
00000001
00000000
,
00000020
00000000
00000000
00001030
00000000
00000000
00010000
00000000
00002000
00000000
00000000
00000000
00013000
00001000
00010000
00000000
,
00001000
00000000
00010000
00000000
01000000
10000000
01000000
00000000
,
10000000
00000000
00100000
10000000
00100000
00000000
10000000
00000000
,
00010000
00000000
00100000
00001000
00010000
00000000
00001000
00000000
,
00010000
00000000
00000010
00001000
00000001
00000000
00001000
00000000
,
00000001
00000000
00000010
00000100
00001000
00000000
00010000
00000000
,
10000000
00000000
00100000
01000000
00010000
00000000
00001000
00000000
,
00000001
00000000
00000100
00000010
00001000
00000000
00010000
00000000
,
10000000
00000000
01000000
00000000
00010000
00001000
00010000
00001000
,
00010000
00000000
00000000
00011000
00000000
00000000
00000100
00000000
,
00000000
00001001
00000000
00000000
00000001
00000000
00000000
00000101
,
00000000
00000000
00001000
00000000
00000000
00001100
00000000
00000000
,
00000100
00000000
00000000
00010100
00000000
00000000
00010000
00000000
,
01000000
10000000
00010000
00000000
01000000
01000000
00000000
00100000
,
00100000
00000000
10000000
10000000
00000000
01000000
01000000
00000000
,
00100000
00100000
00000000
00010000
00010000
00000000
00001000
00001000
,
00000000
00000010
00000010
00000000
00000100
00000100
00000000
00000001
,
00000020
00001000
00000100
00000031
,
00000100
00001000
00010000
00000000
01000000
00100000
00010000
00000000
,
20020000
00000000
00000000
00000000
,
30030000
00000000
00000000
00000000
;

//---------------dance-double - t7r----------------
#NOTES:
     dance-double:
     t7r:
     Medium:
     14:
     :
00000000
00000000
00000000
00000000
,
00000000
00000000
00000000
00000000
,
00000000
00000000
00000000
00000000
,
10000000
00000000
00000000
00000000
,
01000000
00000000
00000000
00000000
,
00200000
10000000
01000000
00320000
,
01000000
10000000
00230000
00302000
,
00013000
00000010
00001000
00000001
00000010
00000100
00001000
00010000
,
10000000
00000000
00100000
00000000
01000000
00000000
00001000
00000000
00010000
00001000
00010000
00001000
00010000
00001000
00010000
00001000
,
00010000
00000000
00000100
00001000
00000001
00000010
00000100
00001000
,
00000002
00000000
00000010
00000000
00001003
00000000
00000001
00000100
,
00000001
00000000
00000000
00001000
00000000
00000000
00000001
00000000
00000010
00000000
00000100
00000000
00001000
00000000
00010000
00000000
,
01000000
00000000
00010000
00000000
10000000
00010000
00010000
00100000
,
00001000
00000000
01000000
00010000
10000000
00100000
01000000
00010000
,
20000000
00000000
00100000
00000000
30010000
00000000
10000000
01000000
,
10000000
00000000
00000000
00010000
00000000
00000000
10000000
00000000
00100000
00000000
01000000
00000000
00010000
00000000
00001000
00000000
,
00000100
00000000
00001000
00000000
00000001
00001000
00001000
00000010
,
00020000
00000000
00000000
00030010
00000010
00001000
00000001
00000010
,
00000001
00000000
00000000
00000000
00000100
00000000
00000000
00001000
00010000
00000000
00000000
00000000
01000000
00000000
10000000
00000000
,
00010000
01000000
00100000
10000000
01000000
00100000
00010000
00000000
,
00002000
00000010
00003002
00000010
,
00001003
00001000
00000100
00010000
00010000
00001000
01000000
00001000
,
00001000
00010000
00000100
00010000
00010000
00001000
00010000
00000010
,
00001000
00000000
00000001
00000010
00000100
00001000
00000001
00000000
,
00000010
00000000
00001000
00000000
00010000
00000000
00000000
00000000
00100000
00000000
10000000
00010000
10000000
00000000
00010000
00000000
,
10000000
00000000
01000000
00100000
00010000
00001000
00000100
00010000
,
00001000
01000000
00000000
00010000
00100000
01000000
10000000
00100000
,
00010000
00000000
00001000
00010000
00000000
00001000
01000000
00000000
00001000
00000000
00010000
00001000
00000000
00010000
00000100
00000000
,
00001000
00000000
00000000
00000000
00000001
00000010
00000000
00000010
00000100
00000000
00000000
00000000
00001000
00000001
00001000
00000000
,
00000001
00000000
00000010
00000100
00001000
00010000
00100000
00001000
,
00010000
00000010
00000000
00001000
00000100
00000010
00000001
00000100
,
00001000
00000000
00010000
00001000
00000000
00010000
00000010
00000000
00010000
00000000
00001000
00010000
00000000
00001000
00100000
00000000
,
00010000
00000000
00000000
00000000
10000000
00000000
01000000
00000000
00100000
00000000
00010000
00000000
10000000
00010000
10000000
00000000
,
00200000
00000000
00000000
10300000
10000000
01000000
00010000
00001000
,
01000000
00000000
00000000
00000000
00010000
00000000
00000000
00100000
00001000
00000000
00000000
00010000
00001000
00000000
00000010
00000000
,
00000100
00000000
00000000
00001000
00000010
00000000
00000100
00000000
00000001
00000000
00000010
00000000
00000100
00000000
00001000
00000000
,
00000002
00000100
00002003
00000100
,
00003001
00000001
00000100
00001000
00001000
00010000
00001000
00010000
,
01000000
01000000
10000000
00010000
00010000
01000000
00100000
10000000
,
00010000
00000000
10000000
00100000
01000000
00010000
10000000
00000000
,
01000000
00000000
00010000
00000000
00001000
00000000
00000000
00000000
00000010
00000000
00000001
00000000
00001000
00000001
00001000
00000000
,
00000002
00000000
00000103
00000200
00000000
00000310
00000020
00000000
,
00001030
00002000
00000000
00003100
00000200
00000000
00010300
00020000
,
00000000
01000000
01000000
00000000
00001000
00001000
00000000
00000100
,
00000100
00000000
00001000
00001000
00000000
01030000
00100000
00010000
,
20000000
00000000
31000000
02000000
00000000
03100000
00200000
00000000
,
00310000
00020000
00000000
01030000
02000000
00000000
03001000
00002000
,
00000000
00000100
00000100
00000000
00010000
00010000
00000000
01000000
,
01000000
00000000
00000000
00000000
00010000
00000000
00010000
00000000
00000000
00000000
00003100
00000010
00000100
00000000
00000001
00000000
,
00000020
00000000
00001030
00002000
00000000
00013000
00020000
00000000
,
00130000
00200000
00000000
10300000
20000000
00000000
31000000
02000000
,
00000000
00010000
00010000
00000000
00100000
00100000
00000000
10000000
,
10000000
00000000
00100000
00100000
00000000
13000000
00010000
01000000
,
00200000
00000000
00310000
00020000
00000000
00031000
00002000
00000000
,
00003010
00000020
00000000
00000031
00000002
00000000
00000103
00000200
,
00000000
00001300
00002000
00000000
00013000
00020000
00000000
01030000
,
10000000
00000000
00000000
00000000
00100000
00000000
00010000
00000000
00001000
00000000
00010000
00001000
00010000
00000000
00001000
00000000
,
02000000
00000000
00000000
03200000
00000000
00000000
20300000
00000000
31000000
00200000
00000000
00000000
00302000
00000000
00023000
00000000
,
00030020
00000000
00000000
00002030
00000000
00000000
00003002
00000000
00000013
00000200
00000000
00000000
00002300
00000000
00003001
00000100
,
00002000
00000000
00000000
00000100
00000000
00000000
00010000
00000000
00203000
00000000
00000000
00320000
00000000
00000000
20030000
00000000
,
32000000
00000000
00000000
00000000
00000000
00000000
03020000
00000000
00000000
00000000
00000000
00000000
00032000
00000000
00000000
00000000
00003020
00000000
00000000
00000000
00000000
00000000
00000000
00000000
00000031
00000000
00001000
00000001
00001000
00000000
00000001
00000000
,
00000010
00000100
00001000
00000001
00000010
00000100
00001000
00000001
,
00000100
00000000
00000000
00001000
00010000
00000000
00001000
00000000
00100000
00010000
00000000
00010000
10000000
00000000
00010000
00000000
,
10000000
00100000
01000000
00010000
10000000
00100000
00010000
00001000
,
01000000
00010000
10000000
00000000
01000000
00010000
00001000
00000000
,
00000010
00000100
00001000
00000001
00000100
00000010
00001000
00000001
,
00000010
00001000
00010000
00000000
00000100
00001000
00000001
00000100
,
00001000
00010000
00100000
00000000
01000000
00010000
10000000
01000000
,
00010000
00000000
00001000
00000000
00001000
00000000
00010000
00000000
00010000
00000000
00001000
00010000
00001000
00000000
00010000
00000000
,
00001000
00000000
00000000
00011000
00000000
00000000
01001000
00000000
,
00000000
00011000
00000000
00000000
00010100
00000000
00000000
00011000
,
00001000
00000000
00101000
00100000
00000000
00011000
00010000
00000000
,
00010010
00000010
00000000
00000110
00000010
00000000
00001000
00001000
,
00000001
00000100
00000100
00000010
00000100
00000100
00001000
00000100
,
00000100
00000001
00000010
00000010
00001000
00010000
00010000
00001000
,
00100000
00100000
00010000
10000000
10000000
00100000
00010000
00010000
,
00001000
00010000
00010000
00001000
01000000
01000000
00010000
10000000
,
00200000
00000000
00000000
00000000
00010000
00000000
00000000
00000000
01300000
00010000
10000000
01000000
00010000
00000000
00001000
00000000
,
00020000
00000000
00000000
00000000
00000100
00000000
00000000
00000000
00031000
00000100
00000001
00000010
00000100
00000000
00010000
00000000
,
00022000
00000000
00000000
00000000
,
00033000
00000000
00000000
00000000
;

//---------------dance-double - t7r----------------
#NOTES:
     dance-double:
     t7r:
     Hard:
     17:
     :
00000000
00000000
00000000
00000000
,
00000000
00000000
00000000
00000000
,
00000000
00000000
00000000
00000000
,
10000000
00000000
00000000
00000000
,
01000000
00000000
00000000
00000000
,
00200000
00000000
00000000
10000000
00000000
00000000
00000000
01000000
00000000
00010000
00000000
00310000
20000000
00000000
00000000
00000000
,
00100000
00000000
00000000
00010000
00000000
00000000
00000000
31000000
00020000
00001000
00000000
00000000
00030200
00000000
00000000
00000000
,
00001300
00001000
00000010
00000100
00000001
00000010
00000100
00001000
00000001
00000100
00000010
00001000
00010000
00100000
01000000
10000000
,
00100000
00000000
00100000
00000000
01000000
00000000
00010000
00000000
10000000
00000000
01000000
00000000
00010000
00000000
00001000
00000000
00010000
00001000
00010000
00001000
00010000
00001000
00010000
00001000
00010000
00001000
00010000
00001000
00010000
00001000
00010000
00001000
,
00010000
00000000
00000100
00001000
00000100
00000000
00001000
00000000
00000001
00000000
00000100
00000001
00000100
00000000
00000001
00001000
,
00000010
00001000
00000000
00001000
00000100
00010000
00001000
01000000
,
00010000
00000000
00100000
01000000
00000000
10000000
01000000
00000000
10000000
00000000
00100000
01000000
00000000
00010000
01000000
00000000
,
00010000
10000000
01000000
00000000
00100000
00000000
00000000
00000000
00001000
00000000
00010000
00001000
00010000
00001000
00010000
00001000
,
00010000
00000000
00000100
00000010
00000100
00000000
00001000
00000000
00000010
00000000
00000100
00000001
00001000
00000000
00000001
00001000
,
00000010
00000100
00000000
00000100
00001000
00010000
01000000
10000000
,
00100000
00000000
01000000
00010000
00000000
10000000
00010000
00000000
10000000
00000000
01000000
00100000
00000000
00010000
10000000
00000000
,
00100000
00000000
00010000
00000000
00000000
00000000
00010000
00000000
00001000
00010000
00001000
00000000
00010000
00001000
00010000
00001000
,
00200000
00000000
00000000
00000000
00010000
00000000
01300000
10000000
01000000
00000000
10000000
00100000
01000000
00000000
00010000
00000000
,
10000000
00000000
00000000
01000000
00100000
00010000
00100000
01000000
10000000
00000000
00000000
00100000
01000000
00010000
10000000
00010000
,
00100000
00000000
00001000
00010000
00000010
00000000
00001000
00000100
00000010
00000000
00000001
00000100
00000010
00000000
00001000
00000010
,
00002000
00000100
00003002
00000100
,
00001003
00000000
00001000
00000000
00000001
00000000
00000100
00000010
00000100
00000000
00000100
00000000
00000001
00000000
00000010
00000100
,
00000010
00000000
00000010
00000000
00000100
00000000
00010000
00001000
00010000
00000000
00010000
00000000
00001000
00000000
01000000
00000000
,
00100000
00000000
00000000
10000000
00010000
00100000
00010000
00000000
01000000
00100000
10000000
00000000
00010000
00100000
01000000
00000000
,
10000000
00100000
01000000
00010000
10000000
00000000
01000000
00100000
00001000
00000000
00010000
00001000
00010000
00001000
00010000
00001000
,
00010000
00000000
00000000
00000000
00001000
00000000
00000010
00000000
00000100
00000000
00001000
00000000
00000010
00000000
00000100
00000001
,
00001000
00000100
00000000
00001000
00000001
00000010
00000100
00001000
,
00010000
00100000
00010000
10000000
00000000
00100000
01000000
00000000
00010000
00100000
00000000
00100000
00010000
00000000
10000000
00000000
,
00100000
01000000
00010000
00000000
10000000
01000000
00100000
00010000
10000000
01000000
00100000
00000000
00001000
00010000
00001000
00010000
,
00001000
00000000
00000000
00000000
00010000
00000000
00100000
00000000
01000000
00000000
00010000
00000000
00100000
00000000
01000000
10000000
,
00010000
01000000
00000000
00010000
10000000
00100000
01000000
00010000
,
00001000
00000010
00001000
00000001
00000000
00000010
00000100
00000000
00001000
00000010
00000000
00000010
00001000
00000000
00000001
00000000
,
00000010
00000100
00001000
00000000
00000001
00000100
00000010
00001000
00000001
00000100
00000010
00000000
00010000
00001000
00010000
00001000
,
00020000
00000000
00000000
00000000
00001000
00000000
00030100
00001000
00000100
00000000
00001000
00000000
00000010
00000000
00000100
00000001
,
00001000
00000000
00000000
00000001
00000010
00000100
00001000
00000001
00000100
00000000
00000000
00000001
00001000
00000001
00000010
00000100
,
00001000
00000000
00010000
00100000
01000000
00000000
10000000
00100000
01000000
00000000
00010000
10000000
00100000
00000000
00010000
00001000
,
00020000
00000100
00032000
01000000
,
00013000
00000000
00010000
00000000
00001000
00000000
00000100
00000010
00000100
00000000
00000100
00000000
00000001
00000000
00000010
00000100
,
00000010
00000000
00000010
00000000
00001000
00000000
00010000
00001000
00010000
00000000
00010000
00000000
00100000
00000000
10000000
00000000
,
00010000
00000000
00000000
10000000
00100000
00000000
01000000
00010000
10000000
00010000
00100000
00010000
10000000
00000000
01000000
00000000
,
00010000
00001000
00010000
00000010
00001000
00000000
00000001
00000000
00000100
00000000
00001000
00010000
00001000
00010000
00001000
00010000
,
00002000
00000000
01000000
00023000
00000000
00000100
00032000
00000000
,
01000000
00023000
00000000
00000010
00032000
00000000
00100000
00023000
,
00000000
01000000
01000000
00000000
00001000
00001000
00000000
00000100
,
00000100
00000000
00000010
00000010
00000000
00031000
00011000
00000000
,
00020000
00000000
00000100
00032000
00000000
01000000
00023000
00000000
,
00000100
00032000
00000000
00100000
00023000
00000000
00000010
00032000
,
00000000
00000100
00000100
00000000
00010000
00010000
00000000
01000000
,
01000000
00000000
00000000
00000000
00100000
00000000
00100000
00000000
00000000
00000000
00013000
00000000
00001000
00010000
00001000
00010000
,
00002000
00000000
01000000
00023000
00000000
00000010
00032000
00000000
,
00100000
00023000
00000000
00000100
00032000
00000000
00010000
02003000
,
00000000
10000000
10000000
00000000
00100000
00100000
00000000
00010000
,
00010000
00000000
00100000
00100000
00000000
03010000
01010000
00010000
,
20000000
00000000
01000000
30020000
00000000
01000000
00230000
00000000
,
00010000
00302000
00000000
00010000
00003020
00000000
00000100
00000032
,
00000000
00000100
00002003
00000000
00000010
00003002
00000000
00000103
,
00001000
00000000
00000000
00000000
00011000
00000000
00000000
00000000
00100000
00000000
00001000
00010000
00001000
00010000
00001000
00010000
,
00002000
00000000
00000000
00000000
00000000
00000000
02003000
00000000
00000000
00000000
00000000
00000000
03100000
00000000
10000000
01000000
00100000
00000000
00020000
00000000
00000000
00000000
00000000
00000000
20030000
00000000
00000000
00000000
30200000
00000000
00000000
00000000
,
00320000
00000000
00000000
00000000
00000000
00000000
00032000
00000000
00000000
00000000
00000000
00000000
00003010
00000000
00000100
00001000
00000001
00000000
00000200
00000000
00000000
00000000
00000000
00000000
00000320
00000000
00000000
00000000
00001030
00000000
00000001
00000000
,
00000020
00000000
00000000
00001030
00010000
00000000
00001000
00000000
02000000
00010000
00000000
03200000
00000000
00000000
20300000
00000000
,
31000000
00000000
00100000
00001000
00010000
00000000
00001000
00010000
00000010
00000000
00001000
00000100
00000010
00000000
00000001
00000100
00000020
00000000
00000000
00000000
00000000
00000000
00000000
00000000
00010030
00001000
00010000
00001000
00010000
00001000
00010000
00001000
,
00010000
00000000
01000000
10000000
00010000
00000000
01000000
00000000
00100000
00000000
10000000
01000000
00100000
00000000
00010000
00000000
,
01000000
00000000
10000000
01000000
10000000
00000000
01000000
00000000
00100000
00000000
01000000
00010000
01000000
00000000
00010000
00000000
,
10000000
00000000
01000000
00100000
00001000
00010000
00001000
00010000
00000010
00000000
00001000
00000100
00000010
00000000
00000001
00000000
,
00001000
00000000
00000010
00000001
00000010
00000000
00000100
00000000
00000001
00000000
00001000
00000100
00000010
00000001
00001000
00000000
,
00000100
00000000
00010000
00001000
01000000
00000000
00001000
00010000
00000100
00000000
00010000
00001000
01000000
00000000
00001000
00000000
,
00010000
01000000
00100000
01000000
10000000
00000000
00100000
00000000
01000000
00000000
00010000
10000000
01000000
00000000
00010000
00000000
,
00001000
00000100
00000010
00000100
00000001
00000000
00000010
00000000
00000100
00000000
00001000
00000001
00000100
00000000
00001000
00000000
,
00010000
00000100
00010000
00000100
00010000
00000100
00010000
00000100
00010000
00001000
00010000
00001000
00010000
00001000
00010000
00001000
,
00010000
00000000
00000000
00011000
00000000
00000000
10010000
00000000
,
00000000
00011000
00000000
00000000
00001001
00000000
00000000
00000110
,
00000010
00000000
00011000
00010000
00000000
01100000
00100000
00000000
,
10010000
00000000
00010000
00000000
00000000
00000000
11000000
00000000
01000000
00000000
00000000
00000000
00010000
00001000
00010000
00001000
,
00010000
00001000
00001100
00000000
00000100
00000110
00000000
00001000
,
00001001
00000000
00000001
00000011
00000000
00000010
00000110
00000000
,
00000100
00010000
00001000
01000000
01010000
00000000
01000000
00001000
,
00010000
00000000
00000100
00000010
00000001
00000000
00000100
00000010
00001000
00000100
00010000
00001000
01000000
00010000
00100000
01000000
,
10000000
10000000
00100000
01000000
00010000
10000000
01000000
00010000
00001000
00000010
00000001
00000100
00001000
00010000
00100000
10000000
,
01000000
01000000
00100000
00010000
10000000
00100000
00010000
00001000
00000100
00000001
00000010
00001000
00010000
01000000
10000000
00100000
,
02200000
00000000
00000000
00000000
,
03300000
00000000
00000000
00000000
;
