#TITLE:SP-TRIP MACHINE -JUNGLE MIX-;
#SUBTITLE:(FROM NONSTOP MEGAMIX);
#ARTIST:DE-SIRE REMIXED BY KCP;
#TITLETRANSLIT:;
#SUBTITLETRANSLIT:;
#ARTISTTRANSLIT:;
#GENRE:;
#CREDIT:KAYSTAR;
#MUSIC:SP-TRIP MACHINE ~JUNGLE MIX~ (FROM NONSTOP MEGAMIX).ogg;
#BANNER:bn.png;
#BACKGROUND:bg.png;
#CDTITLE:;
#SAMPLESTART:29.963;
#SAMPLELENGTH:10.003;
#SELECTABLE:YES;
#OFFSET:-0.018;
#BPMS:0.000=160.200
,16.000=80.100
,17.000=160.200
,45.000=80.100
,46.000=320.400
,104.000=160.200
,108.000=320.400
,619.500=160.200
;
#STOPS:16.000=11.236
,46.000=0.375
;
#BGCHANGES:16.875=SP-TRIP MACHINE ~JUNGLE MIX~ (FROM NONSTOP MEGAMIX).avi=1.000=0=0=1===CrossFade_Fastest==,
624.250=bg.png=1.000=0=0=1,
99999.000=-nosongbg-=1.000=0=0=0=StretchNoLoop====
;
#FGCHANGES:;

//--------------- dance-single - KAYSTAR ----------------
#NOTES:
     dance-single:
     KAYSTAR:
     Beginner:
     5:
     0.194952,0.330276,0.090978,0.118971,0.003499,195,182,13,17,0,0,0.194952,0.330276,0.090978,0.118971,0.003499,195,182,13,17,0,0:
0000
0000
0000
0000
,
0000
0000
0000
0000
,
0000
0000
0000
0000
,
0000
0000
0000
0000
,
0000
0010
0000
0010
,
0000
0010
0000
1000
,
1000
0000
0001
0000
,
0001
0000
0001
0000
,
0000
0100
0000
0100
,
0000
0100
0000
0010
,
0010
0000
1000
0000
,
0000
1001
0000
0000
,
0001
0000
0000
0000
,
0010
0000
0000
0000
,
0100
0000
0100
0000
,
0100
0000
0000
0000
,
0000
0000
1000
0000
,
0000
0000
0010
0000
,
0000
0000
0100
0000
,
0100
0000
0100
0000
,
0001
0000
0000
0000
,
1000
0000
0000
0000
,
0001
0000
0000
0000
,
0010
0000
0010
0000
,
0010
0000
0000
0000
,
0100
0000
0000
0000
,
0020
0000
0030
0000
,
1001
0000
0000
0000
,
0000
0000
0000
0000
,
1000
0000
1000
0000
,
1000
0000
0000
0000
,
0110
0000
0000
0000
,
0000
0000
0000
0000
,
0001
0000
0001
0000
,
0001
0000
0000
0000
,
0220
0000
0000
0000
,
0330
0000
0000
0000
,
0100
0000
0000
0000
,
0100
0000
0000
0000
,
0100
0000
0000
0000
,
0100
0000
0000
0000
,
0010
0000
0000
0000
,
0000
0000
0000
0000
,
1000
0000
0000
0000
,
0001
0000
0000
0000
,
1000
0000
0000
0000
,
0010
0000
0010
0000
,
0000
0000
0100
0000
,
0000
0000
0001
0000
,
0000
0000
0000
0000
,
1000
0000
1000
0000
,
0001
0000
0000
0000
,
0010
0000
0000
0000
,
0100
0000
0000
0000
,
1000
0000
1000
0000
,
0000
0000
0010
0000
,
0000
0000
0100
0000
,
0000
0000
0001
0000
,
0001
0000
0000
0000
,
2002
0000
0000
0000
,
0000
0000
3003
0000
,
0000
0000
0000
0000
,
0010
0000
0010
0000
,
0000
0000
1001
0000
,
0000
0000
0000
0000
,
0000
0100
0000
0100
,
0000
0100
0000
0000
,
2002
0000
0000
0000
,
0000
0000
0000
0000
,
3003
0000
0000
0000
,
0010
0000
0010
0000
,
0000
0000
1001
0000
,
0000
0000
0000
0000
,
0100
0000
0100
0000
,
0100
0000
0100
0000
,
1001
0000
0000
0000
,
0000
0000
0000
0000
,
2000
0000
0000
0000
,
0000
0000
0000
0000
,
3000
0000
0001
0000
,
0000
0001
0000
0000
,
1000
0000
1000
0000
,
1000
0000
0000
0000
,
0200
0000
0000
0000
,
0000
0000
0000
0000
,
1300
0000
1000
0000
,
1000
0000
0000
0000
,
0000
0000
0001
0000
,
0000
0001
0000
0000
,
0000
0000
0000
0000
,
0000
0000
0000
0000
,
0001
0000
1000
0000
,
0001
0000
1000
0000
,
0001
0000
0000
0000
,
0100
0000
0100
0000
,
0001
0000
1000
0000
,
0001
0000
1000
0000
,
0001
0000
0000
0000
,
0200
0000
0000
0000
,
0301
0000
1000
0000
,
0010
0000
1000
0000
,
0010
0000
0000
0000
,
0100
0000
0100
0000
,
0001
0000
1000
0000
,
0100
0000
0010
0000
,
0001
0000
0000
0000
,
0000
0000
0000
0000
,
0001
0000
0010
0000
,
0000
0000
0001
0000
,
1000
0000
0010
0000
,
0100
0000
0100
0000
,
0001
0000
1000
0000
,
0000
0000
0010
0000
,
1000
0000
0001
0000
,
0200
0000
0000
0000
,
0301
0000
0010
0000
,
0000
0000
0001
0000
,
1000
0000
0010
0000
,
0100
0000
0100
0000
,
0001
0000
1000
0000
,
0000
0000
0100
0000
,
1000
0000
0001
0000
,
1000
0000
0000
0000
,
0220
0000
0000
0000
,
0000
0000
0330
0000
,
0000
0000
0000
0000
,
1000
0000
1000
0000
,
0000
0000
0110
0000
,
0000
0000
0000
0000
,
0000
0001
0000
0001
,
0000
0001
0000
0000
,
0220
0000
0000
0000
,
0000
0000
0000
0000
,
0330
0000
0000
0000
,
0000
0000
0000
0000
,
0001
0000
0000
0000
,
1000
0000
0000
0000
,
0001
0000
1000
0000
,
0001
0000
1000
0000
,
0001
0000
0000
0000
,
1000
0000
0000
0000
,
0010
0000
0000
0000
,
0100
0000
0100
0000
,
0001
0000
0000
0000
,
1000
0000
0000
0000
,
0000
0100
0000
0100
,
0000
0100
0000
0100
,
2000
0000
0000
0000
,
0000
0000
0000
0000
,
3001
0100
0000
0100
,
0000
0100
0000
0100
,
0000
0100
0001
0000
,
0000
0000
1001
0000
,
0000
0000
0010
0000
,
0010
0000
0010
0000
,
0000
2000
0000
0000
0000
0000
0000
0000
0000
0000
0000
0000
0000
0000
0000
0000
,
0000
0000
0000
0000
,
0000
0000
0000
0000
0000
3000
0000
0000
0000
0000
0000
0000
0000
0000
0000
0000
;

//--------------- dance-single - KAYSTAR ----------------
#NOTES:
     dance-single:
     KAYSTAR:
     Easy:
     9:
     0.340917,0.550459,0.349915,0.300927,0.003499,341,291,50,43,0,0,0.340917,0.550459,0.349915,0.300927,0.003499,341,291,50,43,0,0:
0000
0000
0000
0000
,
0000
0000
0000
0000
,
0000
0000
0000
0000
,
0000
0000
0000
0000
,
2002
3003
0010
0000
1000
0000
0100
0000
,
0001
0100
1000
0001
,
0001
0000
1000
0010
,
0001
0010
1000
0001
,
1000
0000
0000
0101
0000
0000
1000
0000
,
0100
0010
0100
1000
,
1000
0000
0010
1000
,
0100
0020
0030
0000
,
0011
0000
1001
0000
,
0000
0010
0000
1000
,
0000
0100
0000
1000
,
0001
0000
0100
0000
,
0000
0000
0101
0000
,
0000
1000
0000
0100
,
0000
0010
0000
0100
,
1000
0000
1001
0000
,
0101
0000
0110
0000
,
0000
1000
0000
0010
,
0000
0100
0000
0100
,
0001
0000
1001
0000
,
0010
0000
0000
0000
,
0010
0000
0000
0000
,
0010
0010
0010
0000
,
1001
0000
1010
0000
,
0000
0000
0000
0000
,
1000
0000
0100
0000
,
0001
0000
0010
0000
,
1000
0000
1001
0000
,
0000
0000
0101
0000
,
0010
0000
1000
0000
,
0100
0000
0001
0000
,
0020
0002
0000
0000
,
0000
0000
0033
0000
,
2000
0000
0000
3000
0000
0000
0000
0000
,
2000
0000
0000
3000
0000
0000
0000
0000
,
2000
0000
0000
3000
0000
0000
0000
0000
,
2000
0000
0000
3000
0000
0000
0000
0000
,
0001
0000
1000
0000
,
0001
0000
0110
0000
,
1001
0000
0011
0000
,
1000
0010
0000
0100
,
0000
0001
0000
0100
,
0010
0000
1001
0000
,
0000
0000
1001
0000
,
0000
1000
0000
0010
,
0000
0001
0000
0010
,
1000
0000
0001
0000
,
0011
0000
1001
0000
,
1000
0100
0000
0001
,
0000
0100
0000
1000
,
0001
0000
1001
0000
,
0000
0000
1010
0000
,
0100
0001
0000
1000
,
0000
0100
0000
0010
,
0001
0000
1100
0000
,
0101
0000
1100
0000
,
0000
0000
0000
0000
,
0001
0000
0000
1000
,
0001
1000
0001
0100
,
0000
0000
1010
0000
,
0000
1100
0000
0000
,
0000
0002
0000
0100
,
0000
1003
0000
0001
,
0200
0000
0020
0000
,
0000
0000
0000
0000
,
0330
0000
0000
1000
,
0010
0100
0001
0100
,
0000
0000
1010
0000
,
0000
0011
0000
0000
,
1000
0000
0010
0000
,
0001
0000
0100
0000
,
1000
0000
0000
0000
,
0000
0000
0000
0000
,
0000
0001
0010
0200
,
0000
1300
0000
0000
,
0000
0000
0101
0000
,
0000
1100
0000
0000
,
0000
1000
0001
0010
,
0100
1000
0100
0020
,
0000
0002
0000
0000
,
0000
0000
0000
0033
,
0000
0001
1000
0100
,
0010
0002
0000
1003
,
0000
0000
1100
0000
,
0000
0101
0000
0000
,
0001
0000
0010
0000
,
1000
0000
0100
0000
,
0001
0000
0100
0000
,
1000
0000
0010
0000
,
0001
0000
0000
0000
,
0200
0000
0000
0300
0000
0000
0000
0000
0200
0000
0000
0300
0000
0000
0000
0000
,
0002
0000
0000
0003
0000
0000
0000
0000
0010
0000
0000
0000
0000
0000
0000
0000
,
1000
0000
0100
0000
,
0001
0000
0000
0000
,
0200
0000
0000
0000
,
0302
0000
0000
0003
0000
0000
0000
0000
0010
0000
0000
0000
0000
0000
0000
0000
,
1000
0000
0100
0000
,
0001
0000
0000
0000
,
0200
0000
0000
0300
0000
0000
0000
0000
0200
0000
0000
0300
0000
0000
0000
0000
,
0002
0000
0000
0003
0000
0000
0000
0000
1000
0000
0000
0000
0000
0000
0000
0000
,
0100
0000
0001
0000
,
0010
0000
1000
0000
,
0001
0000
0000
0000
,
1001
0000
0110
0000
,
0000
1000
0000
0001
,
0010
0000
1001
0000
,
0200
0000
0000
0300
0000
0000
0000
0000
0200
0000
0000
0300
0000
0000
0000
0000
,
0002
0000
0000
0003
0000
0000
0000
0000
0100
0000
0000
0000
0000
0000
0000
0000
,
0000
0001
0000
1000
,
0100
0000
1001
0000
,
0200
0000
0000
0000
,
0302
0000
0000
0003
0000
0000
0000
0000
1000
0000
0000
0000
0000
0000
0000
0000
,
0000
0010
0000
1000
,
0001
0000
0101
0000
,
0200
0000
0000
0300
0000
0000
0000
0000
0200
0000
0000
0300
0000
0000
0000
0000
,
0002
0000
0000
0003
0000
0000
0000
0000
1000
0000
0000
0000
0000
0000
0000
0000
,
0000
0001
0000
0010
,
0001
1000
0001
0000
,
0000
1001
0000
0000
,
0010
0000
1100
0000
,
0010
0000
1100
0000
,
1001
0000
0000
0001
,
0100
0010
1000
0001
,
0000
0000
1010
0000
,
0001
0000
1010
0000
,
0000
0002
0000
1000
,
0000
0103
0000
0001
,
1000
0000
0011
0000
,
1000
0000
0011
0000
,
1001
0000
0000
1000
,
0010
1000
0001
1000
,
0001
0000
0000
0000
,
1000
0000
0000
0000
,
0001
0000
1000
0000
,
0001
0000
1000
0000
,
0001
0000
0010
0000
,
1000
0000
0100
0000
,
0001
0000
0010
0000
,
0200
0000
0000
0300
0000
0000
0000
0000
0200
0000
0000
0300
0000
0000
0000
0000
,
0002
0000
0000
0003
0000
0000
0000
0000
0100
0000
0000
0000
0000
0000
0000
0000
,
1000
0000
0010
0000
,
0000
1010
0000
1100
,
0000
1010
0000
1000
,
0001
0000
0010
0000
,
1000
0000
0100
0000
,
0001
0000
0000
0000
0200
0000
0000
0300
0000
0000
0000
0000
0200
0000
0000
0300
,
0000
0000
0000
0000
0200
0000
0000
0300
0000
0000
0000
0000
0200
0000
0000
0300
,
0000
0000
0000
0000
0200
0000
0000
0300
0002
0000
0000
0003
0000
0000
0000
0000
,
1000
0000
0010
0000
,
0100
0001
1000
0001
,
0000
0010
0000
0000
,
0000
0200
0000
0000
0000
0000
0000
0000
0000
0000
0000
0000
0000
0000
0000
0000
,
0000
0000
0000
0000
,
0000
0000
0000
0000
0000
0300
0000
0000
0000
0000
0000
0000
0000
0000
0000
0000
;

//--------------- dance-single - KAYSTAR ----------------
#NOTES:
     dance-single:
     KAYSTAR:
     Medium:
     12:
     0.464887,0.715597,0.272933,0.356913,0.003499,465,426,39,51,0,0,0.464887,0.715597,0.272933,0.356913,0.003499,465,426,39,51,0,0:
0000
0000
0000
0000
,
0000
0000
0000
0000
,
0000
0000
0000
0000
,
0000
0000
0000
0000
,
2002
3003
0100
0010
0100
0000
0000
1000
,
0010
0001
0000
0000
1000
0001
1000
0001
,
0010
0000
1000
0100
0001
0000
1000
0000
,
0010
0000
1000
0001
0010
0100
0010
0001
,
1000
0000
0100
0010
0100
0000
0000
0001
,
0010
1000
0000
0000
0001
1000
0001
1000
,
0010
0000
0001
0100
1000
0000
0001
0000
,
0010
0002
0003
0000
,
1000
0010
0001
0000
,
1000
0100
0001
1000
,
0000
1001
0000
0001
,
0010
0010
0001
0001
,
0000
1000
0010
0000
,
1000
0001
0100
1000
,
0000
0100
0000
0001
,
0100
0010
1000
0000
,
0000
1001
0000
0000
,
1000
0001
0000
0010
,
0000
1000
0000
0010
,
0001
0000
1001
0000
,
0001
0000
0000
0000
,
1000
0000
0000
0000
,
0002
2003
3200
0320
,
0031
0010
0100
0000
,
1000
0100
0001
0000
,
0000
0001
0100
1000
,
0010
0001
0000
0000
,
0010
0000
1000
0000
,
0100
0000
0001
0000
,
0001
0100
1000
0010
,
0001
0010
1000
0001
,
0000
1010
0000
0000
,
0001
0000
0100
0000
,
0020
0000
0000
0030
0000
0000
0000
0000
,
0020
0000
0000
0030
1000
0000
1000
0000
,
0020
0000
0000
0030
0000
0000
0000
0000
,
0020
0000
0000
0030
0000
0000
0000
0000
,
1001
0000
1010
0000
,
0011
0000
1001
0000
,
1000
0100
0001
1000
,
0010
0001
0000
1010
,
0000
0011
0000
1000
,
0100
0001
1000
0010
,
0001
0000
1001
0000
,
1000
0010
0001
1000
,
0100
0001
1000
0000
,
0101
0000
1100
0000
,
0001
0010
0100
0000
,
1000
0010
0100
1000
,
0000
0110
0000
0001
,
1000
0100
0001
1000
,
0010
0001
1000
0000
,
1000
0100
0010
0001
,
0010
0000
1100
0000
,
0101
0000
1100
0000
,
0001
0000
0010
0000
,
1000
0000
0100
0000
,
0001
0000
0010
0100
,
1000
0010
0100
0001
,
0100
1000
0100
0000
,
0001
0000
1000
0000
,
0000
1100
0000
0110
,
0000
1001
0000
0020
,
2000
0000
0000
0000
,
0000
0000
3030
0000
0000
0000
0001
0100
,
0001
0000
0000
1000
,
0010
0001
1000
0100
,
0001
1000
0100
0001
,
0100
1000
0001
0000
,
0011
0000
0101
0000
,
0011
0000
1010
0000
,
1001
0000
0000
0000
,
0000
0000
0000
0000
,
0000
1000
0001
0010
,
0000
0000
0000
0000
,
0100
0100
1000
0000
,
0000
0010
0000
0000
,
0001
0000
0010
0000
,
0100
0000
0001
0000
,
1000
0000
0100
0000
,
0001
0000
0100
0000
,
0000
1000
0010
0100
,
0001
0010
0000
0000
,
0000
0000
0001
0000
,
0000
0001
0000
0000
,
1000
0000
0010
0000
,
0100
0000
0001
0000
,
1000
0010
0001
1000
,
0100
0001
1000
0000
,
0010
0100
0000
0010
,
0200
0000
0000
0300
0000
0000
0000
0000
0200
0000
0000
0300
0000
0000
0000
0000
,
0002
0000
0000
0003
0100
0000
0000
0000
1000
0000
0000
0000
0001
0000
0000
0000
,
0010
1000
0000
1001
,
0000
1010
0000
0010
,
0200
0000
0000
0300
0200
0000
0000
0300
0200
0000
0000
0300
0200
0000
0000
0300
,
0002
0000
0000
0003
1000
0000
0000
0000
0100
0000
0000
0000
0001
0000
0000
0000
,
1000
0010
0001
0000
,
1000
0001
0000
0001
,
0200
0000
0000
0300
0000
0000
0000
0000
0200
0000
0000
0300
0000
0000
0000
0000
,
0002
0000
0000
0003
0010
0000
0000
0000
1000
0000
0000
0000
0001
0000
0000
0000
,
0100
1000
0000
1100
,
0000
0110
0000
0001
,
1000
0001
0010
0100
,
1000
0001
0020
0000
,
0130
1000
0010
0100
,
0100
0001
0020
0000
,
0200
0000
0000
0300
0000
0000
0000
0000
0200
0000
0000
0300
0000
0000
0000
0000
,
0032
0000
0000
0003
1000
0000
0000
0000
0020
0000
0000
0000
0000
0000
0000
0000
,
0130
0001
1000
1000
,
0100
0010
0002
0000
,
0200
0000
0000
0300
0200
0000
0000
0300
0200
0000
0000
0300
0200
0000
0003
0300
,
0002
0000
0000
0003
0100
0000
0000
0000
0020
0000
0000
0000
0000
0000
0000
0000
,
1030
0100
0001
0100
,
1000
0010
2000
0000
,
0200
0000
0000
0300
0000
0000
0000
0000
0200
0000
0000
0300
0000
0000
0000
0000
,
3002
0000
0000
0003
0010
0000
0000
0000
0200
0000
0000
0000
0000
0000
0000
0000
,
0310
0100
1000
1000
,
0010
1000
0100
0000
,
0010
0001
0100
0020
,
2000
0000
0000
0000
,
0000
0000
3030
0000
0000
0000
0001
0100
,
0001
0000
0000
1000
,
0100
0001
0100
1000
,
0010
0001
1000
0100
,
0001
1000
0000
0001
,
1000
0011
0000
1100
,
0000
0011
0000
1000
,
0010
0100
0101
0000
,
1100
0000
0001
1000
,
0110
0000
0001
1000
,
0010
0001
1000
0100
,
0001
0000
0000
0000
,
1000
0000
0000
0000
,
0001
0000
1000
0000
,
0001
0000
1000
0000
,
0001
0010
0100
1000
,
0001
0100
0010
1000
,
0010
0001
0010
1000
,
0200
0000
0000
0300
0000
0000
0000
0000
0200
0000
0000
0300
0000
0000
0000
0000
,
0002
0000
0000
0003
0100
0000
0000
0000
1000
0000
0000
0000
0001
0000
0000
0000
,
0010
1000
0010
0001
,
1000
0010
0000
0101
,
0000
1010
0000
0001
,
0100
0010
1000
0100
,
0001
0100
1000
0010
,
0100
0000
0000
0000
0200
0000
0000
0300
0001
0000
0000
0000
0200
0000
0000
0300
,
0010
0000
0000
0000
0200
0000
0000
0300
0001
0000
0000
0000
0200
0000
0000
0300
,
1000
0000
0000
0000
0200
0000
0000
0300
0002
0000
0000
0003
1000
0000
0000
0000
,
0100
0001
0100
1000
,
0000
0001
0010
1000
,
0000
0011
0000
0000
,
0000
2020
0000
0000
0000
0000
0000
0000
0000
0000
0000
0000
0000
0000
0000
0000
,
0000
0000
0000
0000
,
0000
0000
0000
0000
0000
3030
0000
0000
0000
0000
0000
0000
0000
0000
0000
0000
;

//--------------- dance-single - KAYSTAR ----------------
#NOTES:
     dance-single:
     KAYSTAR:
     Hard:
     14:
     0.640844,0.990827,0.48988,0.391904,0.003499,641,571,70,56,0,0,0.640844,0.990827,0.48988,0.391904,0.003499,641,571,70,56,0,0:
0000
0000
0000
0000
,
0000
0000
0000
0000
,
0000
0000
0000
0000
,
0000
0000
0000
0000
,
2002
3003
0010
0000
1100
0000
0010
0001
,
0100
1000
0000
0101
0000
1000
0010
0010
,
1000
1000
0001
0010
0110
0000
0100
0001
,
0100
1000
0000
1100
0000
1010
1000
0010
,
0100
0001
0100
0020
0000
1000
1030
0010
,
0100
0001
0000
1100
0000
1001
0001
0010
,
0100
0001
0100
0010
1100
0000
1000
0010
,
0100
0001
0020
0000
0030
0000
0000
0000
,
0110
0000
1001
0000
,
0001
0000
1000
0010
1000
0000
0100
0010
,
0000
0000
0010
0001
0000
0000
0001
1000
,
0001
1000
0010
0001
,
0010
1000
1001
0000
,
0001
0000
0010
0100
0010
0000
0001
0010
,
0000
0000
0010
0001
0000
0000
0001
0100
,
0001
0100
0010
1000
,
0100
2100
0000
0000
,
3100
0000
0010
0100
1000
0000
0001
0100
,
0000
0000
0100
0001
0000
0000
1000
0100
,
0010
0001
1000
0000
0001
0000
1000
0000
,
0010
0010
0010
0000
,
0100
0100
0100
0000
,
1010
0011
1100
0101
,
0001
0000
1000
0100
,
0001
0100
0000
1000
,
0010
0001
0100
0001
,
0010
1000
0001
1001
,
0000
0100
0110
0000
,
1000
0100
0001
0100
,
1000
0010
0001
0010
,
1000
0010
0100
0101
,
0010
1010
0000
0001
,
0100
0010
1000
0100
,
0020
0000
0000
0030
0001
0000
0001
0000
,
0020
0000
0100
0030
1000
0000
1000
0000
,
0020
0000
0000
0030
0100
0000
0100
0000
,
0020
0000
1000
0030
1000
0000
0100
0000
,
0010
0000
1100
0000
,
0011
0000
0110
0000
,
1001
0000
1010
0000
,
0100
0000
0001
0100
0001
0000
1000
0001
,
0000
0000
0001
0010
0000
0000
0010
0100
,
1000
0100
0001
0100
,
1000
0001
1001
0000
,
0001
0000
0100
0001
0100
0000
0001
0100
,
0000
0000
0100
1000
0000
0000
1000
0100
,
0010
0100
0010
1000
,
1001
0000
0101
0000
,
1000
0000
0001
0010
0100
0000
1000
0100
,
0000
0000
0100
0010
0000
0000
0010
0001
,
1000
0001
1000
0010
0100
0000
0010
0000
,
1000
0001
1001
0000
,
1000
0000
0001
0010
0100
0000
1000
0100
,
0000
0000
0100
0001
0000
0000
0001
0100
,
0010
0010
0100
0100
,
0210
0010
2000
0000
,
0000
0000
3300
0000
,
0101
0000
1000
0010
,
0001
0100
0001
0010
,
1000
0100
0001
0100
,
1000
0000
1001
0000
0000
0000
0001
0010
,
0100
0000
1000
0100
0000
0000
0001
0100
,
0000
0000
1000
0100
0000
0000
0001
0100
,
0010
0100
1000
0010
,
0001
0010
1000
0100
,
0011
0000
1001
0010
,
1000
0100
0001
0010
,
0001
0100
1000
0010
,
0100
0000
1001
0000
0000
0000
0001
1000
,
0001
0001
1000
1000
,
0010
0010
0100
0100
,
1001
0000
0000
0000
,
0000
0000
0000
0000
,
0000
0001
0100
1000
,
0000
0100
0000
0000
,
0001
0000
1100
0000
,
0000
0011
0000
0000
,
0000
1000
0100
0001
,
0100
1000
0001
0100
,
0000
0000
0202
0000
,
0003
0020
0000
0000
,
0330
1000
0010
0100
,
0001
0010
0000
0100
,
1000
0000
1001
0000
,
0000
1100
0000
0000
,
0001
0000
0010
0001
0000
0010
0000
0100
,
0010
0000
0100
0000
1000
0000
0100
0010
,
0100
1000
1001
0000
,
1000
0000
0010
1000
0001
0000
0100
0001
,
1000
0001
0000
0001
,
0200
0000
0000
0300
0000
0000
0000
0000
0200
0000
0000
0300
0000
0000
0000
0000
,
0002
0000
0000
0003
0010
0000
0000
0000
0011
0000
0000
0000
0000
0000
0000
0000
,
1000
0000
0100
0010
0100
0000
1000
0001
,
1000
0000
0010
0100
0010
0000
1000
0000
,
0200
0000
0000
0300
0200
0000
0000
0300
0200
0000
0000
0300
0200
0000
0000
0300
,
0002
0000
0000
0003
0100
0000
0000
0000
0110
0000
0000
0000
0000
0000
0000
0000
,
1000
0000
0001
1000
0010
0000
1000
0001
,
0010
0001
0000
0001
,
0200
0000
0000
0300
0000
0000
0000
0000
0200
0000
0000
0300
0000
0000
0000
0000
,
0002
0000
0000
0003
0100
0000
0000
0000
1010
0000
0000
0000
0000
0000
0000
0000
,
0001
0000
0100
0010
0100
0000
0001
0000
,
0010
1000
0010
0001
,
0100
1000
0100
0001
,
0010
1000
0120
0000
,
0031
0001
1000
1010
,
0010
1000
0102
0000
,
0203
0000
0010
0300
0100
0000
0010
0000
0200
0000
0000
0300
0000
0000
0000
0000
,
0002
0000
0000
0003
1000
0000
0000
0000
1200
0000
0000
0000
0000
0000
0000
0000
,
0310
0010
0001
0110
,
0001
1000
1020
0000
,
0230
0000
0000
0300
0200
0000
0000
0300
0200
0000
0000
0300
0200
0000
0000
0300
,
0002
0000
0000
0003
1000
0000
0000
0000
1200
0000
0000
0000
0000
0000
0000
0000
,
0310
0100
1000
1001
,
0001
0100
0120
0000
,
0230
0000
0010
0300
0100
0000
0010
0000
0200
0000
0000
0300
0000
0000
0000
0000
,
0002
0000
0000
0003
0100
0000
0000
0000
0210
0000
0000
0000
0000
0000
0000
0000
,
0310
0100
1000
0100
,
0010
1000
0100
0001
,
1000
0010
0001
0010
,
0021
0001
0200
0000
,
0000
0000
0330
0000
,
0001
0000
0000
0000
1100
0000
0001
0010
,
0100
1000
0010
0100
,
1000
0100
0010
1000
,
0100
0001
0010
0001
,
0100
0000
0010
0001
0000
0000
0010
1000
,
0000
0000
0010
0001
0000
0000
1000
0001
,
1000
0010
0001
0100
,
0001
0010
1000
0100
,
0110
0000
0000
0000
0011
0000
0001
0100
,
0010
1000
0001
0100
,
0001
0000
0000
0000
,
1000
0000
0000
0000
,
0001
0000
1000
0000
,
0001
0000
1000
0000
,
0001
0000
0010
0000
1000
0000
0010
0001
,
0010
0000
0001
0000
0100
0000
1000
0100
,
1000
0000
0100
0000
0001
0000
1000
0001
,
0200
0000
0000
0300
0001
0000
1000
0000
0200
0000
0000
0300
1000
0000
0000
0000
,
0002
0000
0000
0003
0010
0000
0000
0000
1000
0000
0000
0000
0001
0000
0100
0000
,
0001
0000
0100
0000
1000
0000
0001
0100
,
0001
0000
1000
0100
0000
0000
0100
0001
,
0000
0000
0001
0100
0000
0000
0100
1000
,
0100
0000
0001
0000
1000
0000
0001
0100
,
0001
0000
0100
0000
1000
0000
0001
1000
,
0001
0000
0000
0000
0200
0000
0000
0300
1000
0000
0000
0000
0200
0000
0000
0300
,
0001
0000
0000
0000
0200
0000
0000
0300
1000
0000
0000
0000
0200
0000
0000
0300
,
0001
0000
1000
0000
0200
0000
0000
0300
0002
0000
0000
0003
0100
0000
0000
0000
,
1000
0010
1000
0100
,
1000
0000
0011
0000
0000
0001
0000
0100
,
0010
1000
0001
0000
0010
0001
1000
0001
,
0000
2002
0000
0000
0000
0000
0000
0000
0000
0000
0000
0000
0000
0000
0000
0000
,
0000
0000
0000
0000
,
0000
0000
0000
0000
0000
3003
0000
0000
0000
0000
0000
0000
0000
0000
0000
0000
;

//--------------- dance-single - KAYSTAR ----------------
#NOTES:
     dance-single:
     KAYSTAR:
     Challenge:
     17:
     0.875786,1.431195,0.356913,0.559863,0.104974,876,825,51,80,0,0,0.875786,1.431195,0.356913,0.559863,0.104974,876,825,51,80,0,0:
0000
0000
0000
0000
,
0000
0000
0000
0000
,
0000
0000
0000
0000
,
0000
0000
0000
0000
,
2002
0000
3003
0000
0010
0000
0100
1000
0001
0000
1000
0000
0010
0100
0001
0100
,
0000
0000
0100
0001
0000
0000
0001
0010
0000
0000
0010
0100
0010
0000
0001
0000
,
1000
0000
0100
0000
0001
0000
0100
0000
1000
0000
0001
0100
0010
0100
0001
1000
,
0000
0000
1000
0010
0000
0000
0010
1000
0000
0000
1000
0001
0010
0000
0100
0000
,
0001
0000
0100
0000
1000
0000
0001
0000
0000
0000
0100
0001
1000
0001
0010
0100
,
0000
0000
0100
1000
0000
0000
1000
0010
0000
0000
0010
0100
0010
0000
1000
0000
,
0010
0000
0001
0000
0010
0000
1000
0000
0100
0000
0000
0000
1000
0100
0001
0100
,
1000
0001
0100
0010
2000
0000
0000
0000
3000
0000
0000
0000
0000
0000
0000
0000
,
0001
0100
1000
0100
0010
0000
1000
0000
,
0001
0010
0100
1000
0001
0100
0010
0100
,
0000
0000
0020
0000
2000
0030
0200
3000
,
0002
0300
2000
0003
0001
0000
3001
0000
,
0100
0000
1000
0001
0100
0000
0010
0000
,
0100
0010
0100
1000
0100
1000
0100
0010
,
0000
0100
1001
0001
,
1000
0001
0010
0100
1000
0000
1001
0000
,
0000
0000
2010
0000
0000
0000
3100
0010
,
0001
0100
0010
1000
0000
0000
1000
0010
,
0000
0000
0010
0001
0000
0000
0001
0010
,
1000
0010
1000
0010
0001
0010
0001
0010
,
1000
0001
1001
0000
,
0001
0000
1000
0100
0010
0000
0000
0000
,
0010
0000
0000
0001
0010
0001
0010
0000
0000
0100
0000
0000
0010
0000
0000
0000
0000
0000
0001
0000
0000
0000
0000
0000
,
0110
0000
0000
0000
1001
0000
0001
0100
,
1000
0100
1000
0100
0000
0000
0001
1000
,
0000
0000
0002
0000
0020
0003
2030
0000
,
0020
3000
0001
0000
0001
0000
0031
0000
,
0000
0000
0010
0000
0001
0000
0100
0001
,
0100
1000
0100
1000
0100
0000
0010
0100
,
0000
1001
0000
0011
,
0010
1000
0100
0001
,
0000
0021
0000
1000
,
1030
0010
0001
1000
0001
0000
1000
0000
,
1020
0000
0000
0000
0130
0000
0001
0010
,
0200
0000
0310
0001
1000
0000
0010
0100
,
0020
0000
0000
0000
1030
0000
0001
0010
,
0200
0000
0310
0001
1000
0000
0010
1000
,
0001
0000
0011
0010
,
0100
0001
0100
0010
0001
0000
0100
0000
,
0001
0000
0010
0001
0100
0000
0001
1000
,
0100
0010
0200
1000
0000
0300
0200
0001
,
0000
0000
0300
0000
0200
0000
1000
0000
0000
0000
0000
0300
0100
0000
0010
0000
,
0001
0100
0010
1010
,
1000
0000
0010
0000
1001
0000
0001
0100
,
0010
1000
0200
1000
0000
0300
0200
0001
,
0000
0300
0200
1000
0000
0300
0100
0001
,
0100
0000
1000
0100
0010
0000
0011
0000
,
1001
0000
1000
0010
1000
0000
0001
0100
,
0010
0100
0002
0100
0000
0003
0002
0010
,
0000
0003
0002
0100
0000
0003
0001
0010
,
0100
1000
0010
0100
0010
0000
0110
0000
,
0010
0000
1000
0000
1001
0000
1000
0010
,
0100
0001
0020
0001
0000
0030
0020
1000
,
0000
0030
0020
0001
0000
0030
0010
0001
,
1000
0010
0100
0001
0100
0000
0001
0000
,
1001
0000
1010
0000
,
0001
0000
1000
0001
0100
0000
0001
1000
,
0100
0000
0000
0000
1010
0000
0100
0001
,
0020
1000
2030
0002
,
3000
0000
0103
0000
0110
0000
0010
0100
,
1000
0000
0001
1000
0000
0000
1000
0010
,
0000
0000
0110
0001
0000
0000
2000
0010
,
0000
0000
3020
0001
0000
0000
0130
0000
,
0210
0000
0000
0000
0001
0000
0001
1000
,
0000
1000
0001
0000
0001
1000
0000
1000
,
0301
0000
0000
0000
0011
0000
0100
1000
,
0010
0000
0100
0010
1000
0000
0101
0000
,
0100
0000
0001
0000
0011
0000
0100
0010
,
0100
1000
0100
0001
0100
0000
1000
0000
,
0001
0000
0100
0000
0001
0000
1000
0100
,
1000
0100
0001
0100
0001
0000
0110
0000
,
1001
0000
0000
0000
,
0000
0000
0000
0000
,
0000
0001
0100
0010
,
1000
1100
0000
0000
,
1000
0100
0101
0000
,
0000
1100
0000
0000
,
1000
0000
0000
0100
1000
0000
0000
0000
0001
0000
0000
0000
0100
0000
0000
0000
,
0010
1000
0010
0001
,
0000
0020
2000
0030
,
0200
3000
0002
0000
0000
0300
0000
0000
,
0103
0010
0010
0100
,
0100
1001
0000
0101
,
0001
1000
1100
0000
,
0000
1010
0000
0000
,
1000
0000
0100
1000
0000
0001
0000
0100
,
0010
1000
0010
1000
0001
0100
0001
0100
,
0010
1000
0100
1000
0010
0000
0100
0001
,
0010
0000
0100
1000
0010
0000
0100
0001
,
1000
0000
0100
1000
0001
0000
0100
0001
,
0200
0000
0010
0300
1000
0000
0010
0000
0200
0000
0000
0300
0000
0000
0000
0000
,
0002
0000
0000
0003
0010
0000
0001
0000
0100
0000
0000
0000
0010
0000
1000
0000
,
0100
0000
0010
0001
0100
0000
1000
0100
,
0001
0000
1000
0010
0001
0000
0010
1000
,
0200
0300
0200
0300
0200
0300
0200
0300
,
0002
0000
0000
0003
0100
0000
1000
0000
0001
0000
0000
0000
0100
0000
0001
0000
,
0010
0000
0001
1000
0010
0000
1000
0100
,
0001
0000
1000
0010
0001
0000
1000
0010
,
0200
0000
0010
0300
1000
0000
0010
0000
0200
0000
0000
0300
0000
0000
0000
0000
,
0002
0000
0000
0003
1000
0000
0100
0000
0001
0000
0000
0000
0100
0000
0001
0000
,
0100
0000
1000
0001
0100
0000
1000
0100
,
1000
0000
0100
0001
0100
0000
0110
0000
,
0010
1000
0100
0010
0001
0100
0010
0100
,
0001
0100
0001
0100
2000
0000
0100
3000
,
1000
0100
0001
1000
0001
0000
1000
0000
,
0001
0010
0100
1000
0200
0000
0001
0300
,
0200
0000
1000
0300
0100
0000
0010
0000
0200
0000
0000
0300
0000
0000
0000
0000
,
0002
0000
0100
0003
1000
0000
0001
0000
2000
0000
0000
0000
0010
0000
3000
0000
,
1000
0100
1000
0100
0010
0000
0100
0000
,
1000
0001
1000
0010
0200
0000
1000
0300
,
0200
0310
0200
1300
0200
0300
0200
0300
,
0002
0000
0100
0003
1000
0000
0100
0000
0020
0000
0000
0000
1000
0000
0030
0000
,
0001
0010
1000
0010
0100
0000
0010
0000
,
0001
1000
0001
0100
0020
0000
1000
0030
,
0010
0000
1000
0000
0100
0000
0010
0000
0200
0000
0000
0300
0000
0000
0000
0000
,
0002
0000
0100
0003
1000
0000
0100
0000
2000
0000
0000
0000
0001
0000
3000
0000
,
1000
0010
0001
0010
1000
0000
0001
0000
,
0001
0000
1000
0000
0100
0000
0001
0100
,
1000
0001
1000
0010
0001
1000
0100
0001
,
1000
0000
0001
0100
1000
0000
0100
0010
,
0100
0001
1000
0100
0001
0000
0100
1000
,
0001
0000
0000
0000
0110
0000
0001
0100
,
1000
0100
0010
0100
0010
0000
1010
0000
,
0001
0000
0010
0000
0011
0000
0001
0100
,
0010
1000
0010
1000
0000
0010
0001
0010
,
0001
0000
0010
1000
0000
0000
1000
0100
,
0000
0000
1100
0001
0000
0000
0010
0100
,
0020
0000
0001
1000
0001
0000
0100
1000
,
0100
0000
0001
1000
0001
0000
0130
1000
,
0100
0000
0000
0000
0110
0000
1000
0100
,
0010
0001
0010
0100
1000
0000
0100
0000
,
1000
0001
0001
0000
,
1000
0001
0001
0000
,
0010
0001
0001
1000
,
0001
0000
0100
0000
0001
0010
0100
1000
,
0001
0100
0010
1000
0010
0100
0001
0010
,
0100
1000
0010
0100
0001
1000
0100
1000
,
0100
0010
0100
1000
0001
0100
0010
1000
,
0200
0000
0010
0300
0100
0000
0010
0000
0200
0000
0000
0300
0000
0000
0000
0000
,
0002
0000
0100
0003
1000
0000
0100
0000
1000
0000
0010
0000
1000
0000
0001
0000
,
0100
0010
0100
0010
1000
0100
0010
0001
,
1000
0000
0110
0001
0000
0000
0110
1000
,
0000
0000
0110
0001
0000
0000
1001
0000
,
0001
0100
0010
1000
0100
0010
0001
0010
,
1000
0010
1000
0010
0001
0010
0001
1000
,
0010
0000
1000
0000
0200
0000
0010
0300
0100
0000
0010
0000
0200
0000
1000
0300
,
0100
0000
1000
0000
0200
0000
0010
0300
0001
0000
0010
0000
0200
0000
1000
0300
,
0001
0000
1000
0000
0200
0000
0010
0300
0002
0000
1000
0003
0010
0000
0100
0000
,
0001
0010
0100
1000
0010
0100
0001
0100
,
1000
0100
0001
1000
0001
0010
1000
0010
,
0001
0100
1000
0100
0001
1000
0100
0001
,
0000
0220
0000
0000
0000
0000
0000
0000
0000
0000
0000
0000
0000
0000
0000
0000
,
0000
0000
0000
0000
,
0000
0000
0000
0000
0000
0330
0000
0000
0000
0000
0000
0000
0000
0000
0000
0000
;
