#TITLE:Ray of Moonlight;
#SUBTITLE:;
#ARTIST:RYO;
#TITLETRANSLIT:;
#SUBTITLETRANSLIT:;
#ARTISTTRANSLIT:;
#GENRE:;
#CREDIT:Braeden;
#MUSIC:Ray of Moonlight.ogg;
#BANNER:BR2023-bn.png;
#JACKET:BR2023-jacket.png;
#BACKGROUND:BR2023-bg.png;
#CDTITLE:;
#SAMPLESTART:56.051;
#SAMPLELENGTH:25.600;
#SELECTABLE:YES;
#OFFSET:-0.232;
#BPMS:0.000=150.000;
#STOPS:132.000=1.200;
#BGCHANGES:;
#FGCHANGES:;

//--------------- dance-single - ----------------
#NOTES:
     dance-single:
     :
     Beginner:
     5:
     0,0,0,0,0:
0000
0000
0000
0000
,
0000
0000
0000
0000
,
0000
0000
0000
0000
,
0000
0000
0000
0000
,
2002
0000
3003
0000
,
0001
0000
1000
0000
,
0020
0000
0030
0000
,
0100
0000
0001
0000
,
2000
0000
3001
0000
,
1001
0000
0001
0000
,
0100
0000
0010
0000
,
1000
0000
0100
0000
,
0010
0000
0001
0000
,
1001
1000
0000
0001
,
0000
0100
0000
0010
,
0000
1000
0000
0001
,
1000
0010
1000
0001
,
1001
0000
0000
0001
,
0010
0001
0010
0000
,
0100
1000
0000
0001
,
0100
0001
0100
0000
,
1001
0000
0001
0000
,
1000
0000
0010
0000
,
0100
0000
0001
0000
,
1000
0001
1000
0000
,
1001
0000
0000
1000
,
0010
1000
0001
0000
,
0100
0001
0000
1000
,
0100
0010
0100
0000
,
1001
0000
0100
0000
,
0010
0000
0100
0000
,
0001
0000
1000
0000
,
0001
1000
0001
1000
,
0001
1001
0000
1000
,
0000
0001
0000
0010
,
0000
0100
0000
0010
,
0000
0001
0000
1000
,
0000
0010
0000
0100
,
0000
0001
0000
0100
,
0000
0010
0000
1000
,
0000
0001
0100
0001
,
0000
1001
0001
0000
,
1000
1000
0010
0000
,
1000
0001
0010
0000
,
0001
0100
0010
0000
,
1000
0001
1000
0000
,
0001
0100
0010
0000
,
1000
0100
1000
0000
,
0001
0100
0000
0000
,
0010
1001
1000
0000
,
0001
0010
0001
0000
,
1000
0010
0100
0000
,
0001
0010
0100
0000
,
0010
0100
0010
0000
,
0001
1000
0001
0000
,
0010
0100
0000
1000
,
0000
0001
0000
1000
,
0000
1001
0000
0000
,
0000
0001
0000
0000
,
0000
0100
0000
0000
,
0000
0010
0000
0000
,
0000
1000
0000
0001
,
0000
0100
0000
0010
,
0000
1000
0000
0001
,
0000
0010
0000
0100
,
0000
1001
0000
1000
,
0000
0001
0000
0010
,
0000
0100
0000
0010
,
0000
0100
0000
1000
,
0000
0001
0100
0001
,
0000
1000
0000
0010
,
0000
0100
0000
0001
,
0000
0010
0000
0100
,
0000
1001
0000
0001
,
0000
0100
0000
0010
,
0000
1000
0000
0100
,
0000
0010
0000
0001
,
0000
0100
0010
1000
,
0000
0001
0000
1000
,
0000
0001
0000
0100
,
0000
1001
0000
1000
,
0000
1001
0000
1000
,
0000
0001
1000
0100
,
0010
0001
0100
0010
,
1000
2000
0000
0000
,
0000
0000
3000
0000
;

//--------------- dance-single - ----------------
#NOTES:
     dance-single:
     :
     Easy:
     9:
     0,0,0,0,0:
0000
0000
0000
0000
,
0000
0000
0000
0000
,
0000
0000
0000
0000
,
0000
0000
0000
0000
,
1001
0000
1000
0001
0000
1000
0000
0000
,
0020
0000
0130
0001
,
1000
0000
0001
1000
0000
0010
0000
0000
,
2000
0000
3002
0000
,
2003
0000
3020
0030
,
0110
0100
0001
1000
,
0100
0000
0000
0000
0010
0000
0000
0000
0001
0000
0000
1000
0000
0000
0001
0000
,
0100
0000
0000
0000
0010
0000
0000
0000
1000
0000
0000
0100
0000
0000
1000
0000
,
0010
0100
0001
1000
,
1001
0001
1000
1000
,
0010
0100
0001
0001
,
1000
0100
0010
0010
,
0001
1000
0001
1000
0001
0000
1000
0010
,
1000
0000
0000
0000
0010
0000
0000
0100
0000
0000
0000
0000
0001
0000
0000
0000
,
0010
0100
0010
0000
0001
0000
1000
0000
,
0010
0000
0000
0000
0100
0000
0000
0001
0000
0000
0000
0000
1000
0000
0010
0000
,
1000
0000
0001
0100
0001
0000
1000
0000
,
1001
0000
0001
1000
0001
0000
0100
0000
,
0010
1000
0010
0000
0100
0001
0100
0000
,
0001
0000
0000
0000
0000
0000
1000
0000
0010
0000
0000
0100
0000
0000
0001
0000
,
1000
0010
0100
0001
,
1001
0000
0000
0000
1000
0000
0000
0010
0000
0000
0000
0000
1000
0000
0100
0000
,
1000
0000
0001
0010
0001
0000
1000
0000
,
0010
0000
0000
0000
1000
0000
0000
0001
0000
0000
0000
0000
0100
0000
0001
0000
,
1000
0000
0100
0000
0010
0001
1000
0000
,
1010
0000
0010
0100
0001
0000
1000
0000
,
0100
0010
0001
0000
1000
0010
1000
0000
,
0001
0000
0000
0000
0000
0000
1000
0000
0001
0000
0000
0100
0000
0000
0010
0000
,
1000
0000
0100
0000
0010
0000
0001
1000
,
00M1
0000
0000
0000
1001
0000
0000
0000
1000
0000
0000
0000
0010
0000
0000
0100
,
0000
0000
0010
0000
2000
0000
0000
0000
3001
0000
0000
0000
1000
0000
0000
0100
,
0000
0000
0010
0000
0001
0000
0000
0000
0200
0000
0000
0000
0310
0000
0000
1000
,
0000
0000
0100
0000
2000
0000
0000
0000
3001
0000
0000
0000
1000
0000
0000
0100
,
0000
0000
0010
0000
0001
0000
0000
0000
2000
0000
0000
0000
3010
0000
0000
1000
,
0000
0000
0100
0000
0010
0000
0000
0000
0002
0000
0000
0000
1003
0000
0000
0010
,
0000
0100
0001
0000
1000
0000
0010
0000
,
1000
0000
0000
0000
0100
0000
0010
0000
0000
0000
0001
0000
1000
0000
0000
0010
,
0000
0000
0100
0000
0001
0000
0000
1000
0000
0010
0000
1000
0000
0000
0000
0010
,
0000
0000
0100
0000
0001
0000
0000
0010
0000
0100
0000
0010
0000
0000
0000
0001
,
0000
0000
1000
0000
0100
0000
0000
0010
0000
0001
0000
0010
0000
0000
0000
0100
,
0000
0000
1000
0000
0001
0000
0000
1000
0000
0010
0000
1000
0000
0000
0001
0000
,
0010
0000
0000
0000
0100
0000
0000
1000
0000
0001
0000
1000
0000
0000
0000
0010
,
0000
0000
0100
0000
0001
0000
0000
0010
0000
0100
0000
0010
0000
0000
0000
0001
,
0000
0000
0000
0000
1000
0000
0000
0010
0000
0100
0000
0010
0000
0000
0000
1000
,
0000
0000
0000
0000
0001
0000
0000
0000
1000
0000
0000
0010
0000
0000
0100
0000
,
0001
0000
0000
0000
1001
0000
0000
1000
0000
0001
0000
1000
0000
0000
0000
0010
,
0000
0000
0000
0000
0100
0000
0000
0001
0000
0010
0000
0001
0000
0000
0000
1000
,
0000
0000
0000
0000
0001
0000
0000
1000
0000
0010
0000
1000
0000
0000
0000
0001
,
0000
0000
0000
0000
0010
0000
0000
0100
0000
1000
0000
0100
0000
0000
0000
0000
,
1000
0000
0000
0000
0001
0000
0000
0010
0000
0100
0000
0010
0000
0000
0000
0001
,
0000
0000
0000
0000
1000
0000
0000
0010
0000
0100
0000
0010
0000
0000
0000
1000
,
0000
0001
1000
0100
,
0010
0000
0000
0000
0001
0000
0000
0000
1000
0000
0000
0010
0000
0000
0100
0000
,
0001
1001
0000
1000
,
0000
0010
0000
0100
,
0000
0001
0000
0010
,
0000
0100
0000
1000
,
0000
0001
1000
0010
,
0100
0001
0010
0100
,
1000
0010
0100
0001
,
0010
0100
1000
0001
,
0100
0000
0000
0000
0001
0000
0000
0010
0000
0000
0001
0000
1000
0000
0000
0000
,
0100
0000
0000
0000
1000
0000
0000
0010
0000
0000
0100
0000
0001
0000
0000
0000
,
0010
0000
0000
0000
0100
0000
0000
1000
0000
0000
0100
0000
1000
0000
0000
0100
,
0000
0010
0001
0000
0000
0000
1000
0000
,
0010
0000
0000
0000
0100
0000
0000
0001
0000
0000
0100
0000
0010
0000
0000
1000
,
0000
0100
1000
0000
0001
0000
1000
0000
,
0010
0000
0100
0001
0100
0000
0001
0010
,
0001
1000
0100
0010
,
0001
0000
0000
0000
1001
0000
0000
1000
0000
0000
0010
0000
0100
0000
0000
0000
,
0001
0000
0000
0000
0010
0000
0000
0100
0000
0000
1000
0000
0010
0000
0000
0000
,
0100
0000
0000
0000
0001
0000
0000
1000
0000
0000
0001
0000
0100
0000
0000
0001
,
0000
0010
0001
0000
1000
0000
0001
0000
,
0010
0000
0000
0000
0100
0000
0000
1000
0000
0000
0010
0000
0100
0000
0000
0001
,
0000
1000
0100
0000
0010
0000
0001
0000
,
1000
0000
0010
0100
0010
0000
1000
0001
,
1000
1001
0001
0100
,
0010
0000
1000
0100
1000
0000
0001
0010
,
0001
0000
1000
0001
1000
0001
0100
0010
,
0100
0010
1000
0001
1000
0001
1000
0001
,
0100
0001
2000
0000
0000
0000
0000
0000
,
0000
0000
3000
0000
;

//--------------- dance-single - XO ----------------
#NOTES:
     dance-single:
     XO:
     Medium:
     13:
     0,0,0,0,0:
0000
0000
0000
0000
,
0000
0000
0000
0000
,
0000
0000
0000
0000
,
0000
0000
0000
0000
,
1001
0000
1000
0010
0000
2000
0000
0000
,
3002
0000
0103
0010
,
1000
0001
0100
0010
0000
1000
0100
0010
,
0001
1000
0001
1000
0000
0000
0010
0100
,
0002
0000
2003
3000
,
1001
0001
1000
0010
,
0100
0000
0001
0000
0100
0000
0000
0000
0010
0000
0000
1000
0000
0000
0010
0000
,
1000
0000
0100
0000
0010
0000
0000
0000
0001
0000
0000
1000
0000
0000
0001
0000
,
0100
0000
0010
0000
0100
0000
0000
0000
0001
0000
0000
0010
0000
0000
0100
0000
,
1100
0000
0000
0000
1001
0000
0000
0000
0001
0000
0000
0100
0000
0000
0010
0000
,
1000
0000
0100
0000
0010
0000
0000
0000
0001
0000
0000
0010
0000
0000
0001
0000
,
0100
0010
0100
0000
0001
1000
0001
0000
,
1000
0000
0010
0000
1000
0000
0010
0000
0200
0000
0000
0000
0301
1000
0001
1000
,
0001
0000
1000
0000
0100
0000
0000
0001
0000
0000
0100
0000
1000
0000
0010
0000
,
0100
0001
0100
0010
1000
0001
0001
1000
,
0001
0000
1000
0000
0010
0000
0000
0001
0000
0000
0010
0000
0100
0000
0001
0000
,
1000
0100
1000
0001
0100
0010
0010
1000
,
0001
0100
0010
0100
1000
0000
0100
0000
,
0010
1000
0010
1000
0001
0010
0100
1000
,
0001
0000
0000
0000
1000
0000
0010
0000
0010
0000
0000
0100
0000
0000
0001
0000
,
0010
0100
1000
0001
1000
0000
0001
0000
,
0001
0000
0100
0000
0010
0000
0000
0001
0000
0000
0010
0000
0100
0000
0010
0000
,
1000
0100
1000
0100
1000
0001
0001
0100
,
0001
0000
1000
0000
0100
0000
0000
0001
0000
0000
0100
0000
0010
0000
0001
0000
,
1000
0010
0100
0001
0010
0100
0100
0000
,
1100
0000
1000
0010
0001
0000
0010
0000
,
0100
0001
0100
0010
1000
0100
1000
0001
,
1000
0000
0000
0000
0000
0000
0010
0000
0010
0000
0000
0100
0000
0000
0001
0000
,
1000
0001
0010
0001
0100
0010
1000
0001
,
10M0
0000
0000
0000
1001
0000
0001
0000
0000
0100
0000
0000
0010
0000
0000
1000
,
0000
0000
0001
0000
0100
0000
1000
0000
0000
0100
0000
0000
0010
0000
0000
1000
,
0000
0000
0001
0000
1000
0000
0100
0000
0000
0001
0000
0000
0100
0000
0000
0010
,
0000
0000
0100
0000
1000
0000
0001
0000
0000
0100
0000
0000
0010
0000
0000
1000
,
0000
0000
0001
1000
0000
0000
0100
0000
0000
0001
0000
0000
0100
0000
0000
0010
,
0000
0000
0001
0000
1000
0000
0100
0000
0000
1000
0000
0000
0001
0000
0000
0100
,
0000
0010
1000
0100
1000
0000
0001
0010
,
0001
0000
0000
0000
0100
0000
1000
0000
0100
0000
0010
0000
1000
0000
0000
0001
,
0000
0000
0100
0000
0001
0000
1000
0010
0000
0100
0000
0010
0000
0100
0001
0000
,
0100
0000
0001
0000
0010
0000
0100
1000
0000
0100
0000
1000
0000
0100
0010
0000
,
0001
0000
0100
0000
0001
0000
1000
0010
0000
1000
0000
0010
0000
1000
0001
0000
,
0000
0000
0100
0000
0001
0000
1000
0100
0000
0010
0000
0001
0000
0000
1000
0000
,
0010
0000
1000
0000
0001
0000
1000
0010
0000
1000
0000
0010
0000
1000
0001
0000
,
0000
0000
1000
0000
0100
0000
0010
0001
0000
0010
0000
0001
0000
0000
1000
0000
,
0000
0000
0001
0000
1000
0000
0001
0010
0000
0001
0000
0010
0000
0001
1000
0000
,
0000
0000
0001
0000
1000
0000
0000
0000
0100
0000
0000
0010
0000
0000
0001
0000
,
1000
0000
0001
0000
0100
0000
0000
1000
0000
1000
0000
1000
0000
0100
0000
0001
,
0000
0000
1000
0000
0100
0000
0000
0010
0000
0010
0000
0010
0000
0001
0000
1000
,
0000
0000
0001
0000
0100
0000
0000
1000
0000
1000
0000
1000
0000
0100
0000
0001
,
0000
0000
1000
0000
0100
0000
0000
0010
0000
0010
0000
0010
0000
0000
0001
0000
,
1000
0000
0010
0000
0100
0000
0000
0001
0000
0001
0000
0001
0000
1000
0000
0100
,
0000
0000
1000
0000
0100
0000
0000
0001
0000
0001
0000
0001
0000
0100
0000
1000
,
0000
0000
0001
0000
1000
0000
0000
0100
0000
0100
0000
0100
0000
0010
0000
0001
,
0000
0000
1000
0000
0001
0000
0000
0000
0100
0000
0000
0010
0000
0000
1000
0000
,
0001
0000
1000
0000
1001
0000
0000
0001
0000
0000
0010
0000
0100
0000
0000
1000
,
0000
0000
0010
0000
0100
0000
0000
0001
0000
0000
0010
0000
0100
0000
0000
1000
,
0000
0000
0001
0000
0100
0000
0000
0010
0000
0000
1000
0000
0100
0000
0000
0010
,
0000
0000
0001
0000
1000
0000
0000
0010
0000
0000
0100
0000
0001
0000
0000
0000
,
0010
0000
0000
0000
0100
0000
0000
1000
0000
0000
0000
0000
0001
0000
0000
0010
,
0000
0000
0001
0100
0010
1000
0100
0010
,
0001
1000
0010
0100
0001
0010
0001
1000
,
0100
0000
0000
0010
0000
0000
0001
0000
0000
0000
0100
0000
0010
0000
0000
0000
1000
0000
0010
0000
0000
0000
0100
0000
,
0001
0000
0000
0000
1000
0000
0000
0000
0001
0000
0000
0000
0100
0000
0000
0000
0000
0000
0000
0000
0000
1000
0000
0000
0000
0000
0000
0000
0000
0000
0100
0000
0000
0000
0000
0000
0010
0000
0000
0000
0000
0000
0000
0000
0000
1000
0000
0000
,
0000
0000
0001
0000
1000
0000
0000
1000
0000
0000
0100
0000
0010
0000
0000
0001
,
0000
0000
0100
0000
0010
0000
0000
1000
0000
0000
0100
0000
1000
0000
0000
0001
,
0000
0000
1000
0000
0001
0010
0000
0001
0000
0000
1000
0000
0100
0000
0010
0000
,
0001
0000
0100
0000
0010
0000
0000
1000
0000
0000
0100
0000
0010
0000
0000
0001
,
0000
1000
0010
0100
0010
0100
0001
0010
,
0100
1000
0001
0100
0010
1000
0001
0010
,
0100
0000
0000
1000
0000
0000
0001
0000
0000
0000
1000
0000
0100
0000
0000
0000
0010
0000
0001
0000
0000
0000
1000
0000
,
0100
0000
0000
0000
1000
0000
0000
0000
0001
0000
0000
0000
1000
0000
0000
0000
0000
0000
0000
0000
0000
0100
0000
0000
0000
0000
0000
0000
0000
0000
0001
0000
0000
0000
0000
0000
0100
0000
0000
0000
0000
0000
0000
0000
0000
0010
0000
0000
,
0000
0000
0100
0000
1000
0000
0000
0001
0000
0000
0100
0000
1000
0000
0000
0100
,
0000
0000
0010
0000
1000
0000
0000
0001
0000
0000
0100
0000
1000
0000
0000
0100
,
0000
0000
0010
0000
0100
0000
0000
0001
0000
0000
1000
0000
0100
0000
1000
0000
,
0010
0000
1000
0000
0001
0000
0000
0010
0000
0000
0001
0000
0100
0000
0000
0001
,
0000
1000
0100
0010
0100
1000
0001
0100
,
0010
1000
0010
0100
0001
1000
0100
0010
,
0001
0000
0000
0100
0000
0000
0010
0000
0000
0000
1000
0000
0001
0000
0000
0000
0010
0000
0001
0000
0000
0000
1000
0000
,
0100
0000
0010
0000
0001
0000
1000
0000
0000
0100
0000
0000
0001
0000
0000
0100
0000
0000
1000
0000
0000
0010
0000
0000
,
0001
0000
0010
0000
1000
0001
1000
0000
0100
0010
0100
0000
1000
0001
1000
0000
,
0001
0100
0001
0000
1000
0000
0100
0000
1000
0000
0100
0000
1000
0001
1000
0001
,
1000
0001
0010
0001
2000
0000
0000
0000
0000
0000
0000
0000
0000
0000
0000
0000
,
0000
0000
3000
0000
;

//--------------- dance-single - XO FS ----------------
#NOTES:
     dance-single:
     XO FS:
     Hard:
     16:
     0,0,0,0,0:
0000
0000
0000
0000
,
0000
0000
0000
0000
,
0000
0000
0000
0000
,
0000
0000
0000
0000
,
1001
1000
0100
0020
0000
0032
0000
0000
,
1003
0010
1000
0010
0100
0001
0100
0001
,
1000
0100
0010
0002
0000
1003
0010
0100
,
0010
1000
0100
0010
0002
0000
1003
0000
,
0020
0000
0230
0300
,
1001
0000
0001
0000
1000
0100
0000
0010
0001
0000
1000
0000
0010
0000
0100
0000
,
0001
0000
0010
0000
0100
1000
0000
0100
1000
0000
0010
0100
0000
0010
0100
0000
,
0001
0000
1000
0000
0100
0010
0000
0100
0010
0000
0001
1000
0000
0001
1000
0000
,
0001
0000
0010
0000
0100
1000
0000
0100
1000
0000
0001
0100
0000
0001
0100
0000
,
0110
0000
0010
0000
1000
0001
0000
1000
0001
0000
0010
0000
0100
1000
0000
0100
,
0000
0000
1000
0000
0001
0010
0000
0100
1000
0000
0001
0000
1000
0010
0000
1000
,
0000
0001
0010
0001
0100
0010
1000
0001
,
1000
0001
1000
0001
0100
0010
0100
0010
1000
0000
0001
1000
0010
0100
0001
0010
,
0001
0000
1000
0000
0001
0000
1000
0010
0M00
0010
0001
0000
1000
0000
0010
0000
,
1000
0100
1000
0000
0001
0010
0001
0000
1000
0000
0010
0000
0010
0000
0100
0000
,
0001
1000
0001
0000
1000
0000
0001
0010
0M00
0010
1000
0000
0001
0000
0100
0000
,
0001
0010
0001
0000
1000
0100
1000
0000
0010
0000
0100
0000
0100
0000
0001
0000
,
0101
0000
0100
0000
0010
1000
0010
0000
0100
0000
1000
0000
0100
0000
0001
0000
,
1000
0010
1000
0000
0001
0100
0001
0000
1000
0010
1000
0000
0001
0100
0001
0100
,
0010
0000
1000
0000
0010
0000
1000
0000
1000
0000
0000
0001
0000
0000
1000
0010
,
1000
0000
0001
0010
0100
1000
0100
0010
0001
0000
1000
0000
0010
0000
1000
0000
,
0001
0000
1000
0000
0001
0000
1000
0010
0M00
0010
0001
0000
1000
0000
0010
0000
,
0100
0001
0100
0000
0001
1000
0100
0000
1000
0000
0010
0000
0010
0000
0100
0000
,
0001
0010
0001
0000
1000
0000
0001
0010
0M00
0010
1000
0000
0100
0000
0010
0000
,
0001
1000
0001
0000
1000
0010
1000
0000
0010
0000
1000
0000
1000
0000
0001
0000
,
1001
0000
1000
0000
0001
1000
0010
0000
0001
0000
0010
0000
1000
0000
0100
0000
,
1000
0001
1000
0000
0010
0100
0010
0000
1000
0100
0010
0000
0001
1000
0001
1000
,
0010
0000
0100
0000
0001
0000
1000
0000
1000
0000
0000
0001
0000
0000
0100
0001
,
0100
0000
0010
1000
0010
1000
0100
0010
0001
1000
0010
0100
0001
1000
0001
1000
,
0M01
0000
0000
0000
1001
0000
1000
0000
0010
0100
0000
0100
0001
0000
0001
1000
,
0000
1000
0002
0000
0010
0000
1003
0000
0100
0010
0000
0010
0001
0000
0001
1000
,
0000
0100
0010
0000
0001
0000
1000
0000
0010
0100
0000
1000
0100
0000
0010
1000
,
0000
0001
0100
0000
0001
0000
1000
0000
0001
0010
0000
0100
1000
0000
0001
1000
,
0000
0001
1000
0001
0010
0000
0100
0000
0001
0100
0000
0010
0001
0000
1000
0010
,
0000
0100
0001
0000
0010
0000
0100
0000
1000
0001
0000
1000
0010
0000
1000
0100
,
0000
0010
0001
0000
1000
0000
0100
0000
0001
0100
0000
0010
0100
0000
1000
0001
,
0000
1000
0010
0000
1000
0100
0010
0000
0001
0010
0100
0000
1000
0000
0001
0100
,
0000
0010
1000
0000
0001
0100
0001
0100
0000
1000
0000
0100
0000
0010
1000
0010
,
0000
1000
0100
0000
0010
0001
0010
0100
0000
0001
0000
0100
0000
1000
0001
1000
,
0000
0010
0100
0000
0001
1000
0010
0100
0000
1000
0000
0100
0000
0010
1000
0001
,
0000
1000
0010
0000
1000
0001
0010
0100
0000
0001
0000
0100
0000
0010
0001
0000
,
1000
0000
0010
0000
1000
0001
0100
0010
0000
0001
0000
0010
0000
0100
0010
1000
,
0000
0001
0010
0000
0100
1000
0100
0010
0000
1000
0000
0010
0000
0001
1000
0001
,
0000
1000
0010
0000
1000
0001
1000
0100
0000
0010
0000
1000
0000
0010
0100
1000
,
0000
0001
0100
0000
0001
0010
0000
0100
1000
0000
0100
0010
0000
0001
1000
0000
,
0001
0000
1000
0000
0001
0100
0001
1000
0000
0010
0M00
0010
0000
0001
1000
0001
,
0000
1000
0100
0000
0010
0001
0010
0001
0000
0100
00M0
0100
0000
1000
0001
1000
,
0000
0001
0010
0000
0100
1000
0001
1000
0000
0010
0M00
0010
0000
0001
1000
0100
,
0000
0010
0001
0000
1000
0010
0100
0001
0000
0100
00M0
0100
0000
1000
0010
0000
,
0100
0000
0001
0000
1000
0001
1000
0100
0000
0010
000M
0010
0000
1000
0001
1000
,
0000
0001
0010
0000
0100
1000
0100
1000
0000
0100
00M0
0100
0000
0001
1000
0100
,
0000
0010
0001
0000
1000
0010
0100
0001
0000
0010
0M00
0010
0000
0100
0001
1000
,
0000
0001
0010
0000
0100
1000
0000
0001
0100
0000
0010
1000
0000
0100
0010
0000
,
0001
1000
0001
1000
0010
0000
0000
0100
0000
0000
0001
1000
0001
0000
0000
1000
,
0000
0000
0100
0000
0010
0000
0000
0001
0000
0000
1000
0010
1000
0000
0000
0001
,
0000
0000
0010
0000
0100
0000
1000
0001
0000
1000
0001
1000
0001
0000
0100
0010
,
0000
0100
0010
0000
1000
0001
0000
1000
0000
0010
0100
0000
0001
0000
0010
0000
,
0100
0000
1000
0000
0001
0010
0001
1000
0000
0010
1000
0000
0001
1000
0100
1000
,
0000
0001
0100
0000
0001
0010
0001
0000
1000
0000
0010
0000
0100
0001
0100
0000
,
0001
0000
1000
0000
0010
0100
0010
0000
1000
0000
0001
0000
1000
0010
1000
0000
,
0001
0000
0000
1000
0000
0000
0001
0000
0010
0000
0100
0000
1000
0000
0100
0000
0010
0000
0001
0000
0100
0000
0001
0000
,
1000
0000
0000
0000
0010
0000
0000
0000
1000
0000
0000
0000
0001
0000
0000
0000
0000
0000
1000
0000
0000
0100
0000
0000
0000
0000
0000
1000
0000
0000
0100
0000
0000
0000
0000
0000
1000
0000
0000
0000
0000
0000
0010
0000
0000
0100
0000
0000
,
0000
0010
0100
0000
0001
0000
1000
0010
0000
1000
0100
0000
1000
0000
0001
0010
,
0000
0001
0100
0000
0010
0000
1000
0001
0000
1000
0010
0000
0001
0000
0010
0100
,
0000
0001
1000
0001
1000
0001
0000
0100
0000
0010
1000
0000
0100
0000
0010
0000
,
0001
0000
1000
0000
0001
0010
0001
0010
0000
0100
1000
0000
0001
0100
0001
0100
,
0000
0010
0100
0000
0001
1000
0001
0000
0100
0000
0010
0000
1000
0100
1000
0000
,
0001
0000
0010
0000
1000
0010
0100
0000
1000
0000
0001
0000
1000
0010
1000
0000
,
0001
0000
0000
1000
0000
0000
0001
0000
0010
0000
0100
0000
1000
0000
0010
0000
1000
0000
0001
0000
0100
0000
0010
0000
,
1000
0000
0000
0000
0100
0000
0000
0000
0010
0000
0000
0000
0001
0000
0000
0000
0000
0000
1000
0000
0000
0010
0000
0000
0000
0000
0000
1000
0000
0000
0010
0000
0000
0000
0000
0000
0100
0000
0000
0000
0000
0000
0001
0000
0000
0010
0000
0000
,
0000
0001
0010
0000
0100
0000
1000
0001
0000
1000
0001
0000
0010
0000
0100
1000
,
0000
0100
1000
0000
0001
0000
1000
0001
0000
1000
0010
0000
0001
0000
0010
0100
,
0000
0001
1000
0001
1000
0100
0000
0010
0000
0001
1000
0000
0010
0000
0100
0000
,
0001
0000
0010
0000
0100
1000
0100
1000
0000
0000
0001
0000
1000
0010
1000
0010
,
0000
0000
0100
0000
0001
1000
0001
0000
1000
0000
0010
0000
0100
0001
0100
0000
,
0010
0000
0100
0000
1000
0100
0010
0000
1000
0000
0100
0000
1000
0001
1000
0000
,
0001
0000
0000
0010
0000
0000
0001
0000
1000
0000
0001
0000
0100
0000
0010
0000
0100
0000
0010
0000
1000
0000
0100
0000
,
0010
0000
0000
0000
0001
0000
0000
0000
1000
0000
0000
0000
0001
0000
0000
1000
0000
0000
0001
0000
0000
0000
0000
0000
1000
0000
0000
0100
0000
0000
1000
0000
0000
0100
0000
0000
0000
0000
0000
0010
0000
0000
0001
0000
0000
0000
0000
0000
,
1000
0010
0100
0010
1000
0100
0010
0001
1000
0010
0100
0001
1000
0100
0010
0001
,
1000
0010
0100
0001
1000
0010
1000
0010
0100
0001
0100
0001
1000
0010
0100
0001
,
1000
0100
0010
0001
0020
0000
0000
0000
0000
0000
0000
0000
0000
0000
0000
0000
,
0000
0000
0030
0000
;

//--------------- dance-single - XO+ FS BU- ----------------
#NOTES:
     dance-single:
     XO+ FS BU-:
     Challenge:
     18:
     0,0,0,0,0:
0000
0000
0000
0000
,
0000
0000
0000
0000
,
0000
0000
0000
0000
,
0000
0000
0000
0000
,
1001
1000
0010
0200
0000
0302
0000
0000
,
1003
0100
1000
0000
0001
0010
0001
0000
1000
0010
1000
0000
0001
0100
0001
0000
,
1000
0010
0100
0002
0000
1003
0100
0010
,
0002
2003
3020
0100
,
0230
0000
0302
0000
,
1003
0010
1000
0000
0001
0010
0000
0100
1000
0000
0001
0000
1000
0010
1000
0010
,
0100
0000
0001
0000
1000
0100
1000
0100
0010
0000
0001
0100
0000
0010
1000
0000
,
0001
0010
0001
0000
1000
0100
0000
0010
0001
0000
0010
0100
0000
1000
0001
0000
,
1000
0100
1000
0000
0010
0100
0000
0001
0010
0000
0100
1000
0000
0001
1000
0000
,
1001
0000
0001
0000
1000
0010
0000
0100
0001
0000
1000
0010
0100
0010
1000
0000
,
0001
0010
0001
0000
1000
0010
0000
1000
0001
0000
1000
0001
0000
0010
0001
0000
,
1000
0000
0010
0000
0100
0001
0000
0100
0001
0000
1000
0000
0010
0000
0100
0000
,
0001
0010
0100
1000
0001
0100
0010
1000
0001
0000
1000
0100
0010
0001
0010
0001
,
1000
0010
0100
0001
1000
0010
0100
1000
0000
0100
0001
1000
0010
0100
0010
1000
,
0100
0000
0000
0010
0000
0000
0100
0000
0000
0010
0000
0000
0001
0000
0000
1000
0000
0000
0001
0000
0000
0010
0000
0000
0100
0000
0000
0000
0000
0000
1000
0000
0001
0000
1000
0000
0001
0000
0000
0000
0000
0000
0100
0000
0000
0000
0000
0000
,
0001
0010
0100
1000
0010
0100
0010
0001
0000
0010
1000
0010
0100
0001
0010
0001
,
1000
0000
0000
0010
0000
0000
1000
0000
0000
0100
0000
0000
0010
0000
0000
0001
0000
0000
0100
0000
0000
0001
0000
0000
0010
0000
0000
0000
0000
0000
0100
0000
1000
0000
0100
0000
0010
0000
0000
0000
0000
0000
0001
0000
0000
0000
0000
0000
,
1000
0001
1000
0100
1000
0001
0100
0010
0001
0000
0010
0000
0100
0000
0001
0000
,
1000
0100
0010
0001
1000
0001
0100
0010
0001
0010
0100
0001
1000
0001
0010
0100
,
1000
0000
0000
0000
0000
0000
0001
0000
0000
0000
0000
0000
1000
0000
0000
0000
0000
0000
0001
0000
0100
0000
0010
0000
1000
0000
0000
0000
0000
0000
0000
0000
0000
0010
0000
0000
0000
0000
0000
0000
0000
0000
1000
0000
0000
0001
0000
0000
,
1000
0000
0001
0010
0100
1000
0100
1000
0001
0000
0100
0000
0010
0000
1000
0000
,
0001
0010
0001
0100
0010
1000
0010
0001
0000
0010
0100
0001
1000
0100
0010
0001
,
1000
0000
0000
0010
0000
0000
1000
0000
0000
0100
0000
0000
1000
0000
0000
0001
0000
0000
0010
0000
0000
0001
0000
0000
1000
0000
0000
0000
0000
0000
0001
0000
0100
0000
0010
0000
1000
0000
0000
0000
0000
0000
0001
0000
0000
0000
0000
0000
,
1000
0010
0100
0001
1000
0001
0100
1000
0000
0100
0001
1000
0100
0010
0001
1000
,
0001
0000
0000
0100
0000
0000
0010
0000
0000
0100
0000
0000
0001
0000
0000
0100
0000
0000
0010
0000
0000
1000
0000
0000
0001
0000
0000
0000
0000
0000
1000
0000
0100
0000
1000
0000
0100
0000
0000
0000
0000
0000
1000
0000
0000
0000
0000
0000
,
0001
0010
0100
1000
0001
1000
0100
0010
1000
0000
0010
0000
0001
0000
0100
0000
,
0001
0010
0100
1000
0001
0100
0010
1000
0001
0010
0100
1000
0001
0100
0010
1000
,
0001
0000
0000
0000
0000
0000
0100
0000
0000
0000
0000
0000
0001
0000
0000
0000
0000
0000
1000
0000
0010
0000
0100
0000
0001
0000
0000
0000
0000
0000
0000
0000
0000
1000
0000
0000
0000
0000
0000
0000
0000
0000
0001
0000
0000
1000
0000
0000
,
0001
0010
0100
1000
0001
0100
0010
1000
0100
0010
0001
1000
0010
1000
0010
1000
,
0M01
0000
0000
0000
1000
0001
1000
0000
0001
0010
0M00
0010
1000
0000
0001
0100
,
0000
0001
0010
0100
1000
0100
0010
0000
0001
0100
00M0
0100
1000
0000
0001
0010
,
0M00
0010
1000
0000
0001
1000
0001
0000
1000
0010
0000
0001
0010
0000
0100
0010
,
0000
1000
0001
0000
1000
0001
1000
0000
0100
0010
0000
1000
0010
0000
0001
1000
,
0000
0001
0100
0001
0000
1000
0010
0M00
0010
0001
0000
1000
0100
0000
0010
0001
,
0000
1000
0010
0000
1000
0001
1000
0000
0001
0010
M000
0010
0100
0000
0010
1000
,
0000
0001
0100
0000
0001
1000
0001
0000
0100
1000
0000
0100
0010
0000
1000
0001
,
0000
1000
0010
0000
1000
0100
0010
0001
1000
0010
0100
0010
1000
0000
0000
0001
,
0000
1000
0100
0010
0001
0100
0010
1000
0000
0010
0M00
0010
0000
0001
0100
0001
,
0000
1000
0100
0010
0001
0100
0010
1000
0000
0100
00M0
0100
0000
0001
1000
0001
,
0000
1000
0100
0010
0001
1000
0010
1000
0000
0100
00M0
0100
0000
0001
1000
0001
,
0000
1000
0100
0010
0001
1000
0010
1000
0000
0010
0M00
0010
0000
0001
1000
0001
,
0010
0100
1000
0001
1000
0100
0010
0001
0000
0100
00M0
0100
0000
1000
0001
1000
,
0000
0001
0010
0001
1000
0100
0010
0001
0000
0010
0M00
0010
0000
0100
0001
1000
,
0000
0001
0010
0100
1000
0001
0100
0001
0000
0100
00M0
0100
0000
1000
0001
1000
,
0000
0001
0010
0100
1000
0001
0000
1000
0001
0000
0100
0010
0000
0100
0010
0000
,
1000
0100
0010
0001
1000
0010
0100
0010
0000
0001
0000
0010
0000
1000
0001
1000
,
0000
0001
0010
0100
1000
0001
0100
0010
0000
0001
0000
0010
0000
1000
0001
1000
,
0000
0001
0010
0100
1000
0001
1000
0010
0000
0001
0000
0010
0000
0100
0001
1000
,
0000
0001
0010
0100
1000
0001
1000
0010
0000
0100
0000
1000
0000
0100
0010
1000
,
0001
0010
0100
1000
0001
1000
0010
0100
0000
1000
0000
0100
0000
0001
0100
0010
,
0000
1000
0100
1000
0001
1000
0010
0001
0000
0010
0000
1000
0000
0100
0010
0100
,
0000
0010
0001
1000
0001
0100
0001
0100
0000
1000
0000
0100
0000
0001
1000
0001
,
0000
1000
0100
0010
0001
1000
0000
0001
0100
0000
0001
0010
0000
0001
0100
0000
,
0010
1000
0010
1000
0001
0000
0000
0100
0000
0000
0001
1000
0001
0000
0000
1000
,
0000
0000
0010
0000
0100
0000
0000
0001
0000
0000
1000
0010
1000
0000
0000
0100
,
0000
0000
0010
0000
0001
0000
1000
0010
0000
1000
0100
1000
0001
0000
0010
0100
,
0000
1000
0010
0100
0001
0010
0000
0100
0000
1000
0001
0100
0010
0000
1000
0000
,
0010
0000
1000
0000
0001
0100
0010
1000
0000
1000
0100
0010
0001
0100
0010
1000
,
0000
1000
0001
0010
0100
1000
0001
1000
0001
0010
0100
1000
0001
0100
0010
1000
,
0001
0010
0001
0100
0001
1000
0010
0100
0001
0010
0100
1000
0001
0100
0010
1000
,
0001
0000
0000
0100
0000
0000
0001
0000
0000
1000
0000
0000
0001
0000
0000
0000
0010
0000
0000
0000
0100
0000
0000
0000
1000
0000
0000
0000
0001
0000
0000
0000
0100
0000
0000
0000
0010
0000
0000
0000
1000
0000
0000
0000
0100
0000
0000
0000
,
0010
0000
0000
0000
0001
0000
0000
0000
1000
0000
0000
0000
0001
0000
0000
0000
0000
0000
1000
0000
0000
0020
0000
0000
0000
0000
0000
0130
0000
0000
0001
0000
0000
1000
0000
0000
0001
0000
0000
0000
0000
0000
0010
0000
0000
0100
0000
0000
,
0000
0100
1000
0001
0200
0000
0301
0010
0000
0100
1000
0001
0200
0000
0301
1000
,
0000
0100
0010
0001
2000
0000
3010
0100
0000
0001
0010
0100
0020
0000
0031
1000
,
0000
0001
0010
0100
1000
0010
0000
0001
0000
0010
0100
0001
1000
0100
0010
0001
,
1000
0010
1000
0010
0100
0001
0100
0001
1000
0100
0010
0001
1000
0010
0100
1000
,
0000
0100
0010
1000
0010
0100
0001
1000
0100
0010
0001
1000
0001
0010
0100
1000
,
0010
1000
0001
0100
1000
0100
0010
1000
0001
0010
0100
1000
0001
0100
0010
1000
,
0100
0000
0000
0010
0000
0000
0001
0000
0000
1000
0000
0000
0001
0000
0000
0000
0100
0000
0000
0000
0001
0000
0000
0000
1000
0000
0000
0000
0010
0000
0000
0000
1000
0000
0000
0000
0001
0000
0000
0000
0010
0000
0000
0000
0100
0000
0000
0000
,
1000
0000
0000
0000
0001
0000
0000
0000
0100
0000
0000
0000
0020
0000
0000
0000
0000
0000
1030
0000
0000
0100
0000
0000
0000
0000
0000
1000
0000
0000
0010
0000
0000
0100
0000
0000
0002
0000
0000
0000
0000
0000
0013
0000
0000
0100
0000
0000
,
0000
1000
0100
1000
0002
0000
0013
0100
0000
1000
0001
0100
0002
0000
0013
0100
,
0000
1000
0001
1000
0020
0000
1030
0100
0000
0010
0001
1000
0002
0000
0013
0100
,
0000
1000
0001
1000
0001
0100
0000
1000
0000
0100
0001
1000
0001
0010
0100
1000
,
0001
0100
0010
1000
0001
0100
0010
0001
0000
0010
1000
0001
1000
0010
0100
1000
,
0000
0100
0010
1000
0001
0010
0100
1000
0001
0100
0010
1000
0001
0010
0001
0100
,
0010
1000
0100
0010
0001
0100
0010
1000
0001
1000
0100
1000
0001
0010
0100
1000
,
0001
0000
0000
0100
0000
0000
0010
0000
0000
1000
0000
0000
0001
0000
0000
0000
0100
0000
0000
0000
0001
0000
0000
0000
1000
0000
0000
0000
0010
0000
0000
0000
1000
0000
0000
0000
0001
0000
0000
0000
0100
0000
0000
0000
0001
0000
0000
0000
,
1000
0000
0000
0000
0100
0000
0000
0000
0010
0000
0000
0000
0001
0000
0000
1000
0000
0000
0001
0000
0000
0010
0000
0000
1000
0000
0000
0010
0000
0000
0100
0000
0000
1000
0000
0000
0000
0000
0000
0001
0000
0000
0100
0000
0000
0010
0000
0000
,
0001
0010
0100
0001
1000
0010
1000
0100
0010
0001
0100
0010
1000
0100
1000
0001
,
1000
0100
0010
0001
1000
0010
1000
0010
0100
0001
0100
0010
1000
0001
1000
0001
,
1000
0100
0010
0001
2000
0000
0000
0000
0000
0000
0000
0000
0000
0000
0000
0000
,
0000
0000
3000
0000
;

//--------------- dance-double - ----------------
#NOTES:
     dance-double:
     :
     Hard:
     16:
     0,0,0,0,0:
00000000
00000000
00000000
00000000
,
00000000
00000000
00000000
00000000
,
00000000
00000000
00000000
00000000
,
00000000
00000000
00000000
00000000
,
00011000
00001000
00100000
00001000
00000000
00200000
00000000
00000000
,
00301000
00010000
00000100
00001000
00000010
00000100
00000001
00000010
,
00000001
00000010
00000100
00001000
00000000
00010000
00100000
01000000
,
10000000
00010000
10000000
00100000
00000000
01000000
00010000
00100000
,
00020000
00000000
20030000
30000000
,
10010000
00000000
00010000
00000000
10000000
01000000
00000000
00100000
00010000
00000000
00100000
00000000
00001000
00000000
00010000
00000000
,
00001000
00000000
00010000
00000000
00000010
00000100
00000000
00000010
00001000
00000000
00000001
00001000
00000000
00000001
00001000
00000000
,
00000001
00000000
00000010
00000000
00000100
00001000
00000000
00000100
00000010
00000000
00000001
00001000
00000000
00000100
00010000
00000000
,
00001000
00000000
00010000
00000000
00001000
01000000
00000000
00010000
00100000
00000000
00010000
00000000
10000000
00000000
00100000
00000000
,
10100000
00000000
10000000
00000000
01000000
00100000
00000000
00010000
00100000
00000000
01000000
00000000
00010000
00000000
01000000
00000000
,
00100000
00000000
00001000
00000000
00010000
00001000
00000000
00010000
00000100
00000000
00001000
00010000
00000000
00001000
00000100
00000000
,
00001000
00000001
00001000
00000001
00001000
00000100
00000010
00000001
,
00001000
00000100
00001000
00000100
00010000
00001000
00010000
00001000
00010000
00000000
00000000
00000000
00001000
01000000
00001000
01000000
,
00010000
00000000
10000000
00000000
00010000
00000000
01000000
10000000
00000000
10000000
01000000
00000000
00100000
00000000
01000000
00000000
,
00001000
00000000
00000000
00010000
00000000
00000000
00001000
00000000
00000000
00000000
00000000
00000000
00010000
00000000
00000000
00000100
00000000
00000000
00010000
00000000
00000000
00000100
00000000
00000000
00010000
00000000
00000000
00000000
00000000
00000000
00000100
00000000
00001000
00000000
00000100
00000000
00001000
00000000
00000000
00000000
00000000
00000000
00000001
00000000
00000000
00000000
00000000
00000000
,
00001000
00000000
00000100
00000000
00001000
00000000
00000100
00000001
00000000
00000100
00000010
00000000
00000001
00000000
00001000
00000000
,
00000001
00000000
00000000
00000010
00000000
00000000
00000100
00000000
00000000
00000000
00000000
00000000
00001000
00000000
00000000
00000100
00000000
00000000
00000010
00000000
00000000
00000001
00000000
00000000
00001000
00000000
00000000
00000000
00000000
00000000
00000100
00000000
00010000
00000000
00000100
00000000
00010000
00000000
00000000
00000000
00000000
00000000
00001000
00000000
00000000
00000000
00000000
00000000
,
00101000
00100000
00010000
00001000
00010000
00100000
00010000
01000000
,
00100000
10000000
00100000
00000000
01000000
00010000
01000000
00000000
00010000
00100000
00010000
00000000
01000000
00001000
00010000
00001000
,
01000000
00000000
00000000
00000000
00000000
00000000
00000000
00000000
00000000
00000000
00000000
00000000
00001000
00000000
00000000
00000000
00000000
00000000
00010000
00000000
00000100
00000000
00010000
00000000
00000100
00000000
00000000
00000000
00000000
00000000
00000000
00000000
00000000
00001000
00000000
00000000
00000000
00000000
00000000
00000000
00000000
00000000
00000001
00000000
00000000
00001000
00000000
00000000
,
00000001
00000000
00000100
00000010
00000100
00000000
00000001
00000000
00000010
00000000
00000100
00000000
00001000
00000000
00000100
00000000
,
00010100
00000000
00010000
00000000
00001000
00000000
00010000
00100000
00000000
00010000
00001000
00000000
00010000
00000000
00000010
00000000
,
00001000
00000000
00000000
00000100
00000000
00000000
00001000
00000000
00000000
00000000
00000000
00000000
00000100
00000000
00000000
00010000
00000000
00000000
00001000
00000000
00000000
00010000
00000000
00000000
00000100
00000000
00000000
00000000
00000000
00000000
00010000
00000000
00001000
00000000
00010000
00000000
00001000
00000000
00000000
00000000
00000000
00000000
00010000
00000000
00000000
00000000
00000000
00000000
,
00001000
00000000
01000000
00000000
00100000
00000000
00010000
00100000
00000000
01000000
00001000
00000000
01000000
00000000
00100000
00000000
,
10000000
00000000
00000000
00010000
00000000
00000000
10000000
00000000
00000000
00000000
00000000
00000000
00010000
00000000
00000000
00100000
00000000
00000000
01000000
00000000
00000000
10000000
00000000
00000000
00010000
00000000
00000000
00000000
00000000
00000000
10000000
00000000
00100000
00000000
10000000
00000000
00100000
00000000
00000000
00000000
00000000
00000000
10000000
00000000
00000000
00000000
00000000
00000000
,
10010000
00010000
01000000
00001000
00010000
00001000
00000100
00001000
,
00010000
00000010
00010000
00000000
00001000
00010000
00001000
00000000
00010000
00001000
00100000
00000000
00010000
10000000
00010000
01000000
,
00010000
00000000
00000000
00000000
00000000
00000000
00100000
00000000
00000000
00000000
00000000
00000000
00001000
00000000
00000000
00000000
00000000
00000000
00010000
00000000
00000010
00000000
00010000
00000000
00000010
00000000
00000000
00000000
00000000
00000000
00000000
00000000
00000000
00001000
00000000
00000000
00000000
00000000
00000000
00000000
00000000
00000000
00000001
00000000
00000000
00000010
00000000
00000000
,
00000100
00001000
00000100
00000010
00000001
00001000
00000010
00000100
00000001
00000010
00000100
00001000
00000010
00000100
00000001
00001000
,
000M0010
00000000
00000000
00000000
00001000
00000000
00000001
00000000
00000010
00000100
00000000
00001000
00010000
00000000
00100000
01000000
,
00000000
10000000
00010000
00000000
10000000
00000000
00010000
00000000
01000000
00001000
00000000
00100000
00001000
00000000
00010000
00001000
,
00000000
00100000
00001000
00000000
00010000
00000000
00001000
00000000
00010000
00000100
00000000
00001000
00000100
00000000
00010000
00000100
,
00000000
00001000
00000001
00000000
00001000
00000000
00000010
00000000
00001000
00000001
00000000
00000010
00000100
00000000
00001000
00000001
,
00000000
00000010
00000100
00001000
00000000
00000000
00000100
00000000
00000010
00001000
00000000
00000010
00000100
00000000
00001000
00000010
,
00000000
00010000
00001000
00010000
00001000
00000000
01000000
00000000
00001000
00010000
00000000
00001000
00100000
00000000
00010000
01000000
,
00000000
00100000
10000000
00000000
00010000
00000000
01000000
00000000
00100000
00000000
00010000
00000000
00100000
00000000
01000000
00000000
,
00001000
00000000
00010000
00000000
00001000
00010000
00001000
00000000
00010000
00000100
00010000
00000000
00000100
00000000
00000000
00001000
,
00000000
00000001
00001000
00000000
00001001
00000000
00000001
00000100
00000000
00001000
00000000
00010000
00000000
00100000
10000000
00100000
,
00000000
00000000
10000000
00000000
00010000
00000000
10000000
01000000
00000000
00010000
00000000
00001000
00000000
00000010
00000000
00000001
,
00000000
00000000
00001000
00000000
00001000
00000000
00000001
00000010
00000000
00001000
00000000
00010000
00000000
01000000
10000000
01000000
,
00000000
00000000
10000000
00000000
00010000
00000000
10000000
00100000
00000000
00010000
00000000
00001000
00000000
00000100
00000001
00000100
,
00000010
00000000
00001000
00000000
00000001
00000000
00001000
00000100
00000000
00000001
00000000
00000100
00000000
00000010
00000001
00000010
,
00000000
00000000
00000001
00000000
00001000
00000000
00000100
00001000
00000000
00010000
00000000
00001000
00000000
00000100
00001000
00000100
,
00000000
00000000
01000000
00000000
00001000
00000000
00100000
00010000
00000000
00001000
00000000
00010000
00000000
00100000
00010000
00100000
,
00000000
00000000
00010000
00000000
10000000
01000000
00000000
00100000
00010000
00000000
00100000
01000000
00000000
10000000
00010000
00000000
,
01000000
00000000
00001000
00000000
00011000
00000000
00010000
00100000
00000000
00010000
00000000
00001000
00000000
00010000
00001000
00010000
,
00000000
00000010
00000100
00000000
00000001
00000000
00001000
00000100
00000000
00000001
00000000
00000100
00000000
00000010
00000100
00001000
,
00000000
00000000
00010000
00000000
00100000
00000000
10000000
01000000
00000000
00010000
00000000
01000000
00000000
00100000
00010000
01000000
,
00000000
00000000
00001000
00000000
00010000
00000000
00001000
00010000
00000000
00100000
00000000
00010000
00000000
00001000
00010000
00001000
,
00010000
00000000
00000010
00000000
00000100
00000000
00000001
00000100
00000000
00000010
00000000
00000001
00000000
00000010
00000100
00000010
,
00000000
00000000
00000001
00000000
00001000
00000000
00000010
00001000
00000000
00000100
00000000
00000010
00000000
00000001
00001000
00000001
,
00000000
00010000
00001000
01000000
00010000
10000000
01000000
00100000
,
00010000
00000000
00001000
00000000
00000100
00000010
00000000
00000001
00000010
00000000
00000100
00001000
00000000
00000001
00001000
00000000
,
00000100
00001000
00000100
00001000
00000001
00000000
00000000
00001000
00000000
00000000
00000100
00000000
00010000
00000000
00000000
00001000
,
00000000
00000000
01000000
00000000
00100000
00000000
00000000
10000000
00000000
00000000
00010000
00000000
10000000
00000000
00000000
01000000
,
00000000
00000000
00100000
00000000
00010000
00000000
00000000
00001000
00000000
00000000
00000100
00000000
00000010
00000000
00000000
00000001
,
00000000
00000000
00001000
00000000
00000010
00000000
00000000
00000100
00000000
00000000
00000001
00000000
00000010
00000000
00000100
00000000
,
00001000
00000000
00000100
00000000
00000010
00000000
00000001
00000000
00000010
00000000
00000001
00000000
00010000
00000000
00000000
00001000
,
00000000
00010000
00001000
01000000
00100000
01000000
00010000
10000000
,
01000000
00100000
00010000
00001000
00000100
00000010
00000001
00001000
,
00000010
00000000
00000000
00001000
00000000
00000000
00000001
00000000
00000100
00000000
00000001
00000000
00001000
00000000
00000010
00000000
00001000
00000000
00000001
00000000
00000010
00000000
00000100
00000000
,
00001000
00000000
00000000
00000000
00000010
00000000
00000000
00000000
00000100
00000000
00000000
00000000
00000001
00000000
00000000
00000000
00000000
00000000
00001000
00000000
00000000
00000100
00000000
00000000
00000000
00000000
00000000
00001000
00000000
00000000
00000100
00000000
00000000
00001000
00000000
00000000
00000100
00000000
00000000
00000000
00000000
00000000
00010000
00000000
00000000
00001000
00000000
00000000
,
00000000
00010000
00001000
00100000
00010000
00000000
00000000
10000000
00000000
00010000
01000000
00100000
10000000
00000000
00000000
01000000
,
00000000
00000000
00100000
00000000
00010000
00000000
10000000
00010000
00000000
01000000
00100000
01000000
00020000
00000000
10030000
01000000
,
00000000
00100000
00010000
00100000
00010000
00100000
00000000
00001000
00000000
00010000
00000100
00000000
00001000
00000000
00000100
00000000
,
00000001
00000000
00000100
00000000
00001000
00000010
00001000
00000010
00000000
00000000
00000100
00000000
00000001
00001000
00000001
00001000
,
00000000
00000000
00000001
00000000
00010000
00001000
00010000
00000000
00001000
00000000
01000000
00000000
00010000
10000000
00010000
00000000
,
10000000
00010000
10000000
00100000
01000000
10000000
01000000
00100000
,
10000000
00000000
00000000
00010000
00000000
00000000
01000000
00000000
00001000
00000000
00100000
00000000
00010000
00000000
00100000
00000000
00001000
00000000
00010000
00000000
00000100
00000000
00001000
00000000
,
00000010
00000000
00000000
00000000
00001000
00000000
00000000
00000000
00000001
00000000
00000000
00000000
00001000
00000000
00000000
00000000
00000000
00000000
00000100
00000000
00000000
00001000
00000000
00000000
00000000
00000000
00000000
00000001
00000000
00000000
00000010
00000000
00000000
00000100
00000000
00000000
00001000
00000000
00000000
00000000
00000000
00000000
00010000
00000000
00000000
00100000
00000000
00000000
,
00000000
00010000
10000000
00000000
00010000
00000000
10000000
01000000
00000000
00100000
00010000
00100000
00010000
00000000
00001000
00000100
,
00000000
00010000
00000100
00000000
00010000
00000000
00000010
00000100
00000000
00000010
00010000
00000010
00001000
00000000
00000100
00000010
,
00000000
00000100
00001000
00000001
00001000
00000001
00000000
00001000
00000000
00000010
00001000
00000000
00000001
00000000
00000100
00000000
,
00000010
00000000
00001000
00000000
00000001
00000100
00000001
00000100
00000000
00000010
00000000
00000000
00010000
00001000
00010000
00001000
,
00000000
01000000
00010000
01000000
00100000
00010000
00100000
01000000
,
00010000
00000000
10000000
00000000
00010000
00100000
01000000
10000000
00010000
01000000
00100000
10000000
00010000
00100000
01000000
10000000
,
00010000
00000000
00000000
01000000
00000000
00000000
00100000
00000000
00000000
10000000
00000000
00000000
00010000
00000000
00000000
00000000
00100000
00000000
00000000
00000000
00010000
00000000
00000000
00000000
00100000
00000000
00000000
00000000
00001000
00000000
00000000
00000000
00010000
00000000
00000000
00000000
00001000
00000000
00000000
00000000
00010000
00000000
00000000
00000000
00000100
00000000
00000000
00000000
,
00001000
00000000
00000000
00000000
00000100
00000000
00000000
00000000
00001000
00000000
00000000
00000000
00000001
00000000
00000000
00000010
00000000
00000000
00000100
00000000
00000000
00000000
00000000
00000000
00001000
00000000
00000000
00000001
00000000
00000000
00001000
00000000
00000000
00000001
00000000
00000000
00000000
00000000
00000000
00010000
00000000
00000000
00001000
00000000
00000000
00000000
00000000
00000000
,
00010000
00001000
00100000
00010000
10000000
01000000
00100000
00010000
10000000
00100000
01000000
00010000
01000000
00010000
00100000
00001000
,
00100000
00010000
00100000
00001000
00010000
00001000
00010000
00001000
00010000
00000100
00001000
00000100
00001000
00000001
00001000
00000100
,
00000010
00000001
00000100
00000010
00000200
00000000
00000000
00000000
00000000
00000000
00000000
00000000
00000000
00000000
00000000
00000000
,
00000000
00000000
00000300
00000000
;
