#TITLE:ランカーキラーガール;
#SUBTITLE:(STARDOM Remix);
#ARTIST:中島由貴 × いちか;
#TITLETRANSLIT:Ranker killer girl;
#SUBTITLETRANSLIT:(STARDOM Remix);
#ARTISTTRANSLIT:Yuki Nakashima x Ichika;
#GENRE:;
#CREDIT:;
#BANNER:Ranker killer girl (STARDOM Remix).png;
#BACKGROUND:Ranker killer girl (STARDOM Remix)-bg.png;
#LYRICSPATH:Ranker killer girl (STARDOM Remix).lrc;
#CDTITLE:;
#MUSIC:Ranker killer girl (STARDOM Remix).ogg;
#OFFSET:-0.652000;
#SAMPLESTART:75.311378;
#SAMPLELENGTH:18.920004;
#SELECTABLE:YES;
#BPMS:0.000000=135.000000
;
#STOPS:
;
#BGCHANGES:0.000=Ranker killer girl (STARDOM Remix).avi=1.000=0=0=0=StretchNoLoop====,
99999=-nosongbg-=1.000=0=0=0 // don't automatically add -songbackground-
;
#KEYSOUNDS:;
#ATTACKS:;

//---------------dance-single - ----------------
#NOTES:
     dance-single:
     :
     Hard:
     13:
     0.603249,0.625949,0.263373,0.272152,0.539914,481.000000,451.000000,30.000000,31.000000,0.000000,0.000000,0.603249,0.625949,0.263373,0.272152,0.539914,481.000000,451.000000,30.000000,31.000000,0.000000,0.000000:
0000
0000
0000
0000
,
0000
0000
0000
0000
,
0000
0000
0000
0000
,
0000
0000
0000
0000
,
0001
0000
0100
0000
0020
0000
0000
0100
0000
0000
0130
0000
0001
0000
0000
0000
,
1000
0000
0100
0000
0020
0000
0000
0100
0000
0000
0130
0000
1000
0000
0000
0000
,
0002
0103
2000
3100
0002
0103
2000
3100
,
0001
0010
1000
0100
0001
1000
0001
0000
,
2001
0100
3002
0100
,
2003
0000
0010
0000
3001
0010
0100
0000
,
1000
0100
1000
0000
0001
0100
0001
0000
,
1000
0000
0010
0000
0100
0000
0001
1000
0000
0001
0000
1000
0010
0000
0000
0000
,
1000
0000
0100
0000
1000
0010
0000
1000
0010
0000
0100
0000
0001
0010
0000
0001
,
0010
0000
0100
0000
1000
0010
0000
1000
0010
0000
0100
0000
0001
0000
0000
0000
,
1001
1000
0100
0000
1001
0001
0100
0000
,
0001
0100
0001
0000
1000
0100
1000
0000
0001
0010
0001
0000
1000
0001
1000
0000
,
0001
0000
0100
0000
0001
0010
0000
0010
0000
0100
1000
0000
0001
0100
0000
0100
,
0000
0010
1000
0000
0001
0010
0000
0100
0000
0100
0000
1000
0001
1000
0001
0000
,
1000
0000
0010
0000
1000
0100
0000
0100
0000
0010
0001
0000
1000
0010
0000
0010
,
0000
0100
0001
0000
1000
0100
0000
0010
0000
0010
0000
0001
1000
0001
1000
0000
,
0001
0000
0100
0000
0001
0000
1000
0100
0000
1000
0100
0000
0010
0000
0001
0100
,
0000
0001
0100
0000
0010
0000
1000
0100
0000
0100
0000
0010
0001
1000
0001
0000
,
2010
0000
3001
0010
0012
0000
1003
0100
,
1000
0001
1000
0000
0001
0000
0100
0000
0010
0100
0010
0000
1000
0001
1000
0001
,
0200
0000
1000
0000
0010
0000
0301
0010
,
0200
0000
0001
0000
0010
0000
1300
0010
,
0200
0000
1000
0000
0010
0000
0301
0010
,
0100
0000
1001
0000
0010
0000
1001
0000
0000
0000
0113
0000
1001
0000
1000
0001
,
0100
0000
0000
0000
0101
0000
0000
1000
0100
0000
0001
0000
0100
0000
1000
0000
,
0001
0000
0000
0000
1010
0000
0000
0001
0010
0000
1000
0000
0010
0000
0001
0000
,
1000
0000
0000
0000
0101
0000
0000
1000
0100
0000
0001
0000
0100
0000
1000
0000
,
0001
0000
0100
0000
0010
0000
1000
0100
0000
0010
0001
0000
1000
0001
1000
0010
,
0200
1000
0010
0001
,
0320
0300
0000
0000
0001
0000
0000
0000
0100
0000
0000
0000
1000
0000
0000
0000
,
0230
0000
0000
0000
0302
0300
0000
0000
0023
0000
0000
0000
0230
0000
0000
0000
,
2300
0000
0000
0000
3001
0000
0000
0000
0000
0000
0001
0000
1000
0000
0001
0100
,
0010
0000
0000
0000
1010
0000
0000
0000
0000
0000
1000
0000
0001
0000
1000
0100
,
0010
0000
0000
0000
0011
0000
0000
0000
0000
0000
0001
0000
1000
0000
0100
1000
,
0000
0000
1000
0000
0001
0000
0100
0001
0000
0000
1000
0000
0001
0000
1000
0100
,
1000
0000
0001
0100
0001
0000
1000
0010
1000
0000
0001
0010
0001
0000
0000
0000
,
1001
0000
0000
0000
,
1000
0000
0001
0000
0200
0000
0000
0010
0000
0010
0000
0310
0000
0000
0000
1000
,
0100
0000
0001
0000
0100
1000
0000
0001
0100
0000
1000
0000
0100
0001
0000
1000
,
0100
0000
0001
0000
0100
1000
0000
0001
0100
0000
0010
0000
0120
0000
0000
0000
,
1030
0001
0010
1000
0001
1000
0001
0100
,
1000
0000
0010
0000
0100
0000
0001
0000
1000
0100
0010
0000
1001
0000
0000
0001
,
0010
0000
1000
0000
0010
0001
0000
1000
0010
0000
0001
0000
0010
1000
0000
0001
,
0010
0000
1000
0000
0010
0001
0000
1000
0010
0000
0100
0000
0210
0000
0000
0000
,
0301
1000
0100
0001
1000
0001
1000
0010
,
0001
0000
0100
0000
0010
0000
1000
0000
0001
0010
0100
0000
1001
0000
0000
0000
,
0201
0000
0000
0000
0310
1000
0010
1000
0010
0000
0000
1000
0100
0000
0000
0000
,
1200
0000
0000
0000
0310
0001
0010
0001
0010
0000
0001
0000
1000
0001
0100
0000
,
1001
0000
0000
0000
0000
0000
0000
0000
0000
0000
0001
1000
0001
1000
0001
1000
,
0020
0130
0020
0031
0020
1030
1001
0000
,
1010
0000
0010
0000
0100
0000
0001
0010
0000
0010
0100
0000
1000
0000
0001
0100
,
0000
0010
1000
0010
0000
0100
0000
0001
0000
0001
0000
1000
0000
1000
0100
0000
,
0010
0000
0001
0000
1000
0000
0001
0100
0000
0100
0010
0000
1000
0000
0001
0000
,
0010
0000
1001
0000
0100
0000
1001
0000
0000
0000
0110
0000
1001
0000
0001
1000
,
0010
0000
0100
0000
0001
0000
1000
0100
0000
0100
0010
0000
0001
0000
1000
0010
,
0000
0100
0001
0100
0000
0010
0000
1000
0000
1000
0000
0001
0000
0001
0010
0000
,
0210
0000
1300
0010
1020
0000
0130
0001
,
1000
0100
1000
0000
0001
0100
0001
0000
1000
0100
0010
0000
0001
0100
0010
1000
,
0001
0000
0000
0000
;

//---------------dance-single - ----------------
#NOTES:
     dance-single:
     :
     Challenge:
     16:
     0.753748,0.925316,0.245815,0.509187,1.097386,601.000000,573.000000,28.000000,58.000000,0.000000,0.000000,0.753748,0.925316,0.245815,0.509187,1.097386,601.000000,573.000000,28.000000,58.000000,0.000000,0.000000:
0000
0000
0000
0000
,
0000
0000
0000
0000
,
0000
0000
0000
0000
,
0000
0000
0000
0000
,
1000
0000
0100
0000
1000
0000
0000
0001
0000
0001
0100
0000
0010
0000
1000
0000
,
0001
0000
0010
0000
0001
0000
0000
1000
0000
1000
0010
0000
0100
0000
0001
0000
,
2001
3100
1002
0103
2001
3100
1002
0103
,
1001
0000
0000
1100
0000
0000
1001
0000
0000
0101
0000
0000
0100
0010
0100
0010
0100
0010
0100
0000
0000
0001
0000
0000
,
1000
0000
0100
0000
0001
0000
0000
0002
0000
0000
0103
0000
1000
0000
0000
2000
,
0000
0000
3010
0000
0001
0000
0000
0001
0000
0010
0000
0200
0000
0000
0000
0000
,
0301
0000
1000
0000
0100
0000
0000
0010
0000
0100
0000
0010
0000
0000
0000
0000
,
0001
1000
0000
0001
0000
1000
0000
0010
0000
0010
0000
1000
0100
0010
0001
0000
,
1000
0000
0001
0100
1000
0000
0100
0020
0000
0000
1030
0100
0001
0000
0100
0020
,
0000
0000
0031
0100
1000
0000
0100
0010
0000
0010
0000
0010
0000
1000
0001
0000
,
1000
0010
1000
0000
0010
0000
0100
0000
0001
0010
0001
0000
0010
0000
0100
0000
,
1000
0100
1000
0000
0001
0100
0001
0000
1000
0100
0010
0000
0001
0100
0010
0000
,
1000
0000
0010
0000
1000
0000
0000
0000
0001
0000
0100
0000
0001
0000
0020
0030
0000
0000
0020
0030
0100
0000
0000
0000
0001
0000
0100
0000
0001
0000
0020
0030
,
0000
0000
0020
0030
0100
0000
0000
0000
0001
0000
0010
0000
0100
0000
2000
0000
0000
0000
3002
0000
0000
0000
0023
0000
3000
0000
0130
0000
1000
0000
0000
0000
,
0001
0000
0100
0000
0001
0000
0000
0000
1000
0000
0010
0000
1000
0000
0200
0300
0000
0000
0200
0300
0010
0000
0000
0000
1000
0000
0010
0000
1000
0000
0200
0300
,
0000
0000
0200
0300
0010
0000
0000
0000
1000
0000
0100
0000
0010
0000
0002
0000
0000
0000
2003
0000
0000
0000
3010
0000
0103
0000
0031
0000
1000
0000
0000
0000
,
0001
0000
0100
0000
0010
0000
0000
0000
1000
0000
0100
0000
1000
0000
0020
0030
0030
0000
0020
0030
0001
0000
0000
0000
1000
0000
0100
0000
1000
0000
0020
0030
,
0000
0000
0020
0030
0001
0000
0000
0000
1000
0000
0100
0000
1000
0000
0002
0000
0000
0000
0203
0000
0000
0000
0320
0000
0000
0000
1030
0000
0001
0000
0000
0000
,
0101
0000
0100
0000
0010
0000
1000
0100
0010
0000
0001
0000
1000
0000
0001
0100
,
0010
0000
0000
0000
0000
0000
1000
0000
0000
0100
0000
0000
0010
0000
0000
0000
0000
0000
0001
0000
0000
0100
0000
0000
0010
0000
0000
1000
0000
0000
0001
0000
0000
1000
0000
0000
0010
0000
0100
0000
0010
0000
0100
0000
0010
0000
0100
0000
,
0002
0000
0000
0000
0100
0000
0000
0100
0000
0000
0000
0000
0013
0000
0001
0000
,
2000
0000
0000
0000
0010
0000
0000
0010
0000
0000
0000
0000
3001
0000
0010
0000
,
0200
0000
0000
0000
0010
0000
0000
0010
0000
0000
0000
0000
1300
0000
0001
0000
,
1000
0000
1100
0000
0001
0000
0101
0000
1000
0000
0110
0000
1001
0000
1000
0100
,
0010
0000
0001
0000
1000
0000
0001
0100
0000
0001
0100
0000
0010
0000
0000
1000
,
0100
0000
0010
0000
0001
0000
1000
0010
0000
1000
0010
0000
0100
0001
1000
0001
,
0010
0000
0100
0000
1000
0000
0001
0100
0000
0001
0100
0000
0010
0000
0000
1000
,
0100
0000
0010
0000
0001
0000
1000
0010
0100
0000
0001
0010
0100
1000
0001
1000
,
0020
0001
0100
1000
,
0230
0001
0010
1000
,
0302
0010
2003
0100
,
3002
0000
0000
0000
1033
0000
0000
0000
0000
0000
1000
0000
0001
0000
0010
0100
,
1000
0000
0000
0000
1100
0000
0000
0000
3300
0000
0001
0000
1000
0000
0010
0100
,
0001
0000
0000
0000
0101
0000
0000
0000
0303
0000
1000
0000
0001
0000
0010
0100
,
1000
0000
0001
0000
1000
0000
0010
0100
0001
0000
1000
0000
0001
0000
0010
0100
,
1000
0000
0000
0000
0000
0000
0010
0000
0000
0100
0000
0000
0001
0000
0000
0000
0000
0000
0010
0000
0000
0100
0000
0000
1000
0000
0000
0000
0000
0000
0001
0000
1000
0000
0001
0000
1000
0000
0000
0000
0000
0000
0010
0000
0000
0000
0000
0000
,
1001
0000
0000
0000
,
1000
0000
0001
0100
0001
1000
0100
0020
0000
0032
0000
2000
0000
0000
3003
0001
,
0100
0001
0100
1000
0100
0001
0000
1000
0100
1000
0100
0001
0100
1000
0000
0001
,
0100
0001
0100
1000
0100
0001
0000
0101
0000
0110
0000
1010
0000
1000
0001
0000
,
1000
0100
0010
0000
0001
0000
1000
0010
0100
0010
1000
0000
0001
0000
0010
0100
,
1000
0100
0010
0000
0001
0000
1000
0010
0000
0100
0001
1000
0100
0010
0001
1003
,
0010
1000
0010
0001
0010
1000
0000
0001
0010
0001
0010
1000
0010
0001
0000
1000
,
0010
1000
0010
0001
0010
1000
0000
1010
0000
0110
0000
0101
0000
0301
1000
0000
,
0001
0010
0100
0000
1000
0000
0001
0100
0010
0100
0001
0000
1000
0000
0100
0010
,
0001
0010
0100
1000
0010
0000
1000
0100
0000
0010
0001
0000
1000
0000
0010
0000
,
1020
0000
0000
0000
0130
1000
0100
1000
0100
0000
0001
0010
0100
0000
1000
0010
,
0200
0000
0000
0000
0310
0001
0010
0001
0010
0000
1000
0100
0010
0001
0100
0001
,
1000
0000
0000
0000
0000
0000
0000
0000
0000
0000
0000
0000
0000
0000
0000
0000
0000
0000
0000
0000
0000
0000
0000
0000
0000
0000
0000
0000
0000
0000
0001
0000
1000
0000
0001
0000
1000
0000
0000
0010
0000
0000
0100
0000
0000
0010
0000
0000
,
1000
0000
0000
0100
0000
0000
0010
0000
0000
0001
0000
0000
0100
0000
0000
0010
0000
0000
1000
0000
0000
0100
0000
0000
0010
0000
0000
0001
0000
0000
0100
0000
0000
0010
0000
0000
1000
0000
0001
0000
1000
0000
0001
0000
1000
0000
0001
0000
,
0100
0000
0010
0000
1000
0000
0000
0000
0001
0000
1000
0000
0001
0000
0020
0030
0000
0000
0020
0030
0100
0000
0000
0000
0001
0000
1000
0000
0001
0000
0020
0000
,
0000
0130
1000
3002
0000
0203
0000
2300
0000
3002
0000
0013
1000
0331
0010
0100
,
1000
0000
0000
0000
0010
0000
0000
0000
1000
0000
0001
0000
1000
0000
0020
0030
0000
0000
0020
0030
0100
0000
0000
0000
1000
0000
0100
0000
0010
0000
0000
0000
,
0001
0000
0011
0000
1000
0000
1010
0000
0001
0000
0110
0000
1001
0000
0001
1000
,
0001
0000
0100
0000
0001
0000
0000
0000
1000
0000
0001
0000
1000
0000
0200
0300
0000
0000
0200
0300
0010
0000
0000
0000
1000
0000
0001
0000
1000
0000
0200
0000
,
0000
0310
0001
2003
0000
3020
0000
0032
0000
2003
0000
3100
0001
1330
0001
0000
,
1001
0000
1000
0000
0001
0000
0010
0100
1000
0000
0010
0000
0100
0000
0001
1000
,
0001
0000
0000
0010
0000
0000
0100
0000
0000
1000
0000
0000
0010
0000
0000
0100
0000
0000
0001
0000
0000
0010
0000
0000
0100
0000
0000
1000
0000
0000
0010
0000
0000
0100
0000
0000
0001
0000
1000
0000
0001
0000
1000
0000
0001
0000
1000
0000
,
0010
0000
0000
0000
;

//---------------dance-single - ----------------
#NOTES:
     dance-single:
     :
     Medium:
     8:
     0.372484,0.462658,0.237035,0.517966,0.004390,297.000000,270.000000,27.000000,59.000000,0.000000,0.000000,0.372484,0.462658,0.237035,0.517966,0.004390,297.000000,270.000000,27.000000,59.000000,0.000000,0.000000:
0000
0000
0000
0000
,
0000
0000
0000
0000
,
0000
0000
0000
0000
,
0000
0000
0000
0000
,
1000
0100
1000
0000
0100
0000
0010
0000
,
0001
0100
0001
0000
0100
0000
0010
0000
,
1010
0101
0011
1100
,
0001
1000
0001
1000
0001
1000
0010
0000
,
2020
0030
0002
3000
,
0020
0003
0200
0330
,
1000
0100
0010
0010
,
0001
0100
0010
0010
,
1000
0001
0200
0000
0301
1000
0200
0000
,
1300
0001
0020
0000
0031
1000
0020
0000
,
0130
0000
0001
0000
1000
0100
1000
0000
,
0101
0110
2020
3030
,
0002
0000
1003
0100
0020
0000
0031
0100
,
0020
0000
1030
0001
1000
0010
0100
0000
,
0002
0000
0013
0100
2000
0000
3010
0100
,
0002
0000
1003
0100
0010
0001
1000
0000
,
2010
0000
3001
0100
0020
0000
1030
0100
,
0020
0000
0031
1000
0010
0100
0001
0000
,
1000
0100
1000
0000
0001
0100
0001
0000
,
1010
0101
0011
1100
,
0002
0100
0000
0100
,
2003
0010
0000
0010
,
3002
0010
0000
0013
,
0000
0101
0000
1010
0000
0001
1000
0001
,
0200
0000
0310
0000
1000
0100
0010
0000
,
0002
0000
1003
0000
0001
0100
0010
0000
,
2000
0000
3100
0000
1000
0100
0010
0000
,
0001
0000
1000
0000
0000
0001
0100
0010
,
2000
0000
3200
0000
,
0320
0300
0000
0000
0000
0000
0000
0000
0032
0000
0000
0000
0000
0000
0000
0000
,
0203
0000
0320
0000
,
2030
0000
0000
0000
3000
0001
0100
0001
,
0100
0000
0000
0000
0000
0010
1000
0010
,
1000
0000
0000
0000
0000
1000
0100
1000
,
0000
0001
0100
0001
0000
1000
0010
1000
,
0002
0023
0230
1300
,
1001
0000
0000
0000
,
1000
0001
0100
0000
0001
1000
0100
0000
,
1000
0010
1000
0010
0100
0010
0100
0000
,
0001
0100
0001
0100
0010
0100
0010
0000
,
2000
3100
0020
0031
,
1000
0001
0100
0000
0001
1000
0100
0000
,
0010
0001
0010
0001
1000
0010
1000
0000
,
0001
0100
0001
0100
0010
1000
0010
0000
,
2000
3100
0020
0031
,
1000
0001
0200
0000
0320
0000
1030
0000
,
2002
0000
3003
0000
1000
0001
0100
0000
,
0202
0000
0303
0000
0001
0100
0010
0000
,
1001
0000
0000
0000
,
0001
1000
0001
1000
0001
1000
0100
0000
,
2100
3002
0023
0130
,
0120
0032
2003
3301
,
0201
0320
2030
3001
,
0000
0101
0000
1010
0000
0001
1000
0001
,
0020
0230
1300
1100
,
0002
0203
0310
1010
,
0001
0100
0010
0000
1000
0100
0010
0000
,
0001
1000
0001
1000
0010
0100
0010
0000
,
1001
0000
0000
0000
;

//---------------dance-single - ----------------
#NOTES:
     dance-single:
     :
     Easy:
     5:
     0.227002,0.326582,0.175582,0.210698,0.000000,181.000000,161.000000,20.000000,24.000000,0.000000,0.000000,0.227002,0.326582,0.175582,0.210698,0.000000,181.000000,161.000000,20.000000,24.000000,0.000000,0.000000:
0000
0000
0000
0000
,
0000
0000
0000
0000
,
0000
0000
0000
0000
,
0000
0000
0000
0000
,
0001
0100
0001
0000
,
1000
0100
1000
0000
,
0010
0010
0010
0010
,
1000
0001
0100
0000
,
0002
0003
2000
3000
,
0200
0300
0020
0030
,
0001
0001
0100
0000
,
0010
0010
1000
0000
,
0001
0010
0001
0000
,
1000
0100
1000
0000
,
0001
0100
0010
0000
,
1000
0100
0010
0000
,
0002
0003
0001
0001
,
0200
0300
0100
0010
,
2000
3000
1000
1000
,
0200
0300
1000
0100
,
0020
0030
0001
1000
,
0020
0030
0100
0100
,
0020
0030
1000
0001
,
0020
0030
0100
0100
,
2000
0000
3000
1000
,
0002
0000
0003
0001
,
0200
0000
0300
0100
,
0000
1001
0000
1001
0000
1001
0000
0000
,
0001
0010
0001
0000
,
1000
0100
1000
0000
,
0001
0100
0001
0000
,
1000
0010
0100
0100
,
2002
0000
0000
3003
,
0002
0000
0000
0003
,
0020
0000
0000
0030
,
0200
0000
0300
1000
,
1100
0000
0000
0001
,
0101
0000
0000
1000
,
1010
0000
0011
0000
,
0101
0000
1100
0000
,
1001
0000
0000
0000
,
0001
1000
0010
0000
,
1000
0100
0010
0001
,
0100
0010
1000
0000
,
0001
0001
0100
0100
,
0001
1000
0001
0000
,
1000
0100
0010
0001
,
0100
0010
1000
0000
,
0010
0010
0100
0100
,
0001
0001
1000
0000
,
0002
0003
0001
1000
,
0200
0300
0100
0100
,
0010
0000
0000
0000
,
0220
0000
0000
0330
,
1001
1000
0010
0000
,
1000
1000
0001
0000
,
0001
0001
0010
0000
,
0000
1001
0000
1001
0000
1001
0000
0000
,
0001
0100
0010
0000
,
1000
0100
0110
0000
,
0001
0001
1000
1000
,
0010
0110
0100
0110
,
1001
0000
0000
0000
;

//---------------dance-single - ----------------
#NOTES:
     dance-single:
     :
     Beginner:
     2:
     0.114128,0.272152,0.070233,0.000000,0.000000,91.000000,83.000000,8.000000,0.000000,0.000000,0.000000,0.114128,0.272152,0.070233,0.000000,0.000000,91.000000,83.000000,8.000000,0.000000,0.000000,0.000000:
0000
0000
0000
0000
,
0000
0000
0000
0000
,
0000
0000
0000
0000
,
0000
0000
0000
0000
,
1000
0000
0000
0000
,
0001
0000
0000
0000
,
0100
0000
0100
0000
,
0100
0000
0100
0000
,
0100
0000
0000
0000
,
0010
0000
0000
0000
,
1000
0000
0000
0000
,
0001
0000
0000
0000
,
1000
0000
1000
0000
,
1000
0000
0000
0000
,
0100
0000
0100
0000
,
0100
0000
0000
0000
,
0010
0000
0000
0000
,
0001
0000
0001
0000
,
0001
0000
0000
0000
,
0100
0000
0100
0000
,
0100
0000
0000
0000
,
0010
0000
0010
0000
,
0010
0000
0000
0000
,
1000
0000
1000
0000
,
1000
0000
0000
0000
,
0001
0000
0000
0000
,
0010
0000
0000
0000
,
0100
0100
0000
0100
,
0100
0000
0000
0000
,
1000
0000
0000
0000
,
0010
0000
0000
0000
,
0100
0000
0100
0000
,
0100
0000
0000
0000
,
0001
0000
0000
0000
,
1000
0000
0000
0000
,
0100
0000
0000
0000
,
1001
0000
0000
0000
,
1001
0000
0000
0000
,
1001
0000
1001
0000
,
1001
0000
1001
0000
,
1001
0000
0000
0000
,
1000
0000
0000
0000
,
0001
0001
0001
0000
,
0001
0000
0001
0000
,
0001
0000
0000
0000
,
0100
0000
0000
0000
,
0010
0010
0010
0000
,
0010
0000
0010
0000
,
0010
0000
0000
0000
,
1000
0000
0000
0000
,
1000
1000
0000
0000
,
0100
0100
0000
0000
,
0010
0000
0000
0000
,
0001
0000
0000
0000
,
1000
0000
0000
0000
,
0010
0000
0000
0000
,
0100
0000
0000
0000
,
0010
0010
0000
0010
,
0010
0000
0000
0000
,
1000
0000
0000
0000
,
0001
0000
0001
0000
,
0001
0000
0000
0000
,
1001
0000
0000
0000
;

//---------------dance-double - ----------------
#NOTES:
     dance-double:
     :
     Challenge:
     16:
     0.756256,0.898101,0.263373,0.544304,1.088607,603.000000,573.000000,30.000000,62.000000,0.000000,0.000000,0.756256,0.898101,0.263373,0.544304,1.088607,603.000000,573.000000,30.000000,62.000000,0.000000,0.000000:
00000000
00000000
00000000
00000000
,
00000000
00000000
00000000
00000000
,
00000000
00000000
00000000
00000000
,
00000000
00000000
00000000
00000000
,
00001000
00000000
00100000
00000000
00001000
00000000
00000000
00010000
00000000
00010000
00000010
00000000
00010000
00000000
00001000
00000000
,
00010000
00000000
00000100
00000000
00010000
00000000
00000000
00001000
00000000
00001000
01000000
00000000
00001000
00000000
00010000
00000000
,
00021000
00030100
00012000
01003000
00021000
00030010
00012000
00103000
,
00011000
00000000
00000000
00010100
00000000
00000000
00011000
00000000
00000000
00101000
00000000
00000000
00100000
00010000
00100000
00010000
00100000
00010000
10000000
00000000
00000000
00100000
00000000
00000000
,
10000000
00000000
01000000
00000000
00020000
00000000
00000000
02030000
00000000
00000000
03010000
00000000
00002000
00000000
00000000
00023000
,
00000000
00000000
00031000
00000000
00000200
00000000
00000000
00000010
00000000
00000010
00000000
00000310
00000000
00000000
00000000
00000000
,
00001000
00000000
00000001
00000000
00000010
00000000
00000000
00000001
00000000
00001000
00000000
00000010
00000000
00000000
00000000
00000000
,
00001000
00000000
00000001
00000000
00000100
00000010
00000000
00001000
00000000
00001000
00000000
00000100
00010000
00001000
00010000
00000000
,
00001000
00000000
01000000
00100000
02000000
00000000
03001000
00020000
00000000
00000000
00030100
00000010
00000200
00000000
00010300
00002000
,
00000000
00000000
01003000
00100000
01000000
00000000
00010000
00100000
00000000
01000000
00000000
10000000
00000000
00010000
10000000
00000000
,
00010000
01000000
00010000
00000000
01000000
00000000
00001000
00000000
00010000
00000100
00010000
00000000
00000100
00000000
00001000
00000000
,
00000001
00000100
00000001
00000000
00001000
00000010
00001000
00000000
00000001
00000100
00000010
00001000
00000001
00000010
00000100
00001000
,
00000001
00000000
00000100
00000000
00000010
00000000
00000000
00000000
00001000
00000000
00000100
00000000
00010000
00000000
00002000
00003000
00000000
00000000
00002000
00003000
00000010
00000000
00000000
00000000
00010000
00000000
00001000
00000000
00100000
00000000
00020000
00030000
,
00000000
00000000
00020000
00030000
00001000
00000000
00000000
00000000
00100000
00000000
01000000
00000000
00100000
00000000
00020000
00000000
00000000
00000000
02030000
00000000
00000000
00000000
23000000
00000000
00000000
00000000
31000000
00000000
00100000
00000000
00000000
00000000
,
10000000
00000000
00100000
00000000
01000000
00000000
00000000
00000000
00010000
00000000
00100000
00000000
00001000
00000000
00020000
00030000
00000000
00000000
00020000
00030000
01000000
00000000
00000000
00000000
00001000
00000000
00010000
00000000
00000100
00000000
00002000
00003000
,
00000000
00000000
00002000
00003000
00010000
00000000
00000000
00000000
00000100
00000000
00000010
00000000
00000100
00000000
00002000
00000000
00000000
00000000
00003002
00000000
00000000
00000000
00001033
00000000
00000010
00000000
00000103
00000000
00000001
00000000
00000000
00000000
,
00001000
00000000
00000100
00000000
00001000
00000000
00000000
00000000
00000010
00000000
00010000
00000000
00000010
00000000
00002000
00003000
00000000
00000000
00002000
00003000
00010000
00000000
00000000
00000000
00001000
00000000
00100000
00000000
00001000
00000000
00020000
00030000
,
00000000
00000000
00020000
00030000
01000000
00000000
00000000
00000000
00010000
00000000
00100000
00000000
01000000
00000000
20000000
00000000
00000000
00000000
30020000
00000000
00000000
00000000
10030000
00000000
00100000
00000000
01000000
00000000
00100000
00000000
00000000
00000000
,
10100000
00000000
10000000
00000000
01000000
00000000
00100000
00001000
00010000
00000000
00000010
00000000
00000100
00000000
00000001
00000010
,
00000100
00000000
00000000
00000000
00000000
00000000
00001000
00000000
00000000
00000010
00000000
00000000
00000100
00000000
00000000
00000000
00000000
00000000
00000001
00000000
00000000
00000100
00000000
00000000
00000010
00000000
00000000
00001000
00000000
00000000
00000100
00000000
00000000
00000010
00000000
00000000
00000001
00000000
00001000
00000000
00000001
00000000
00001000
00000000
00000001
00000000
00001000
00000000
,
00000020
00000000
00000000
00000000
00000001
00000000
00000000
00000001
00000000
00000000
00000000
00000000
00000130
00000000
00001000
00000000
,
00020000
00000000
00000000
00000000
00000100
00000000
00000000
00000100
00000000
00000000
00000000
00000000
00031000
00000000
00010000
00000000
,
02000000
00000000
00000000
00000000
10000000
00000000
00000000
10000000
00000000
00000000
00000000
00000000
03310000
00000000
00001000
00000000
,
00100000
00000000
00101000
00000000
00001000
00000000
00010100
00000000
00010000
00000000
00011000
00000000
00011000
00000000
00001000
00000100
,
00000001
00000000
00001000
00000000
00000100
00000000
00000010
00001000
00000000
00001000
00010000
00000000
01000000
00000000
00100000
00010000
,
10000000
00000000
00010000
00000000
01000000
00000000
00100000
00010000
00000000
00010000
00001000
00000000
00100000
00010000
00001000
00000100
,
00000010
00000000
00000001
00001000
00000001
00000000
00000100
00000010
00000000
00010000
00001000
00000000
00100000
00000000
00010000
01000000
,
00100000
00000000
10000000
00010000
10000000
00000000
00100000
01000000
00000000
00010000
00100000
00001000
00100000
00001000
00010000
00000010
,
00002000
00000001
00000010
00010000
,
00023000
10000000
00100000
00001000
,
00032000
00000100
00000301
00303023
,
00020030
00000000
00000000
00000000
00032000
00000000
00000000
00000000
30033000
00000000
00010000
00000000
00001000
00000000
00100000
00010000
,
01000000
00000000
00000000
00000000
01001000
00000000
00000000
00000000
00000000
00000000
00001000
00000000
00010000
00000000
00000010
00001000
,
00000100
00000000
00000000
00000000
00010100
00000000
00000000
00000000
00000000
00000000
00010000
00000000
00001000
00000000
00100000
00010000
,
01000000
00000000
00001000
00000000
00010000
00000000
00000010
00001030
00000100
00000000
00010000
00000000
00001000
00000000
00100000
00010000
,
01000000
00000000
00000000
00000000
00000000
00000000
00000010
00000000
00000000
00001000
00000000
00000000
00000100
00000000
00000000
00000000
00000000
00000000
00100000
00000000
00000000
00010000
00000000
00000000
01000000
00000000
00000000
00000000
00000000
00000000
00001000
00000000
00010000
00000000
00001000
00000000
00010000
00000000
00000000
00000000
00000000
00000000
00000100
00000000
00000000
00000000
00000000
00000000
,
00011000
00000000
00000000
00000000
,
00100000
00000000
00010000
01000000
00010000
00100000
01000000
00020000
00000000
00032000
00000000
00020000
00000000
00033000
00000000
00001000
,
00010000
00001000
00010000
01000000
00010000
00001000
00000000
00010000
00001000
00010000
00001000
00000100
00001000
00010000
00000000
00001000
,
00010000
00001000
00010000
01000000
00010000
00001000
00000000
00011000
00000000
00010010
00000000
00000110
00000000
00000001
00001300
00000000
,
00000001
00000100
00000010
00000000
00001000
00000000
00000100
00000010
00000100
00000001
00000100
00000000
00001000
00000000
00000010
00001000
,
00000010
00000100
00001000
00000000
00010000
00000000
00001000
00100000
00000000
00110000
00000000
00010000
01000000
00001000
00010000
00000000
,
00001000
00010000
00001000
00000010
00001000
00010000
00000000
00001000
00010000
00001000
00010000
00100000
00010000
00001000
00000000
00010000
,
00001000
00010000
00001000
00000010
00001000
00010000
00000000
00011000
00000000
01001000
00000000
01100000
00000000
10000000
00310000
00000000
,
10000000
00100000
01000000
00000000
00010000
00000000
00100000
01000000
00100000
10000000
00100000
00000000
00010000
00000000
01000000
00010000
,
01000000
00100000
00010000
00000000
00001000
00000000
00010000
00001000
00000000
00000010
00000001
00000000
00001000
00000000
00000010
00000000
,
00000210
00000000
00000000
00000000
00000301
00000100
00001000
00000100
00001000
00000000
00010000
01000000
10000000
00000000
00100000
00000000
,
10200000
00000000
00000000
00000000
10300000
00100000
00010000
00100000
00010000
00000000
00001000
00010000
00001000
00000010
00000001
00001000
,
00000001
00000000
00000000
00000000
00000000
00000000
00000000
00000000
00000000
00000000
00000000
00000000
00000000
00000000
00000000
00000000
00000000
00000000
00000000
00000000
00000000
00000000
00000000
00000000
00000000
00000000
00000000
00000000
00000000
00000000
00001000
00000000
00000001
00000000
00001000
00000000
00000001
00000000
00000000
00000100
00000000
00000000
00000010
00000000
00000000
00001000
00000000
00000000
,
00000001
00000000
00000000
00000010
00000000
00000000
00000001
00000000
00000000
00000010
00000000
00000000
00000100
00000000
00000000
00001000
00000000
00000000
00000010
00000000
00000000
00000100
00000000
00000000
00001000
00000000
00000000
00010000
00000000
00000000
00100000
00000000
00000000
01000000
00000000
00000000
00010000
00000000
10000000
00000000
00010000
00000000
10000000
00000000
00010000
00000000
10000000
00000000
,
00100000
00000000
00000000
00000000
10000000
00000000
00000000
00000000
00010000
00000000
01000000
00000000
00010000
00000000
00200000
00300000
00000000
00000000
00200000
00300000
10000000
00000000
00000000
00000000
01000000
00000000
00100000
00000000
00001000
00000000
00020000
00000000
,
00000000
00330010
00000100
00002000
00000000
00003200
00000000
00020300
00000000
00032000
00000000
00103000
01000000
00010000
00100000
00000000
,
00001000
00000000
00000000
00000000
00001000
00000000
00000000
00000000
00100000
00000000
00010000
00000000
00100000
00000000
00002000
00003000
00000000
00000000
00002000
00003000
00000010
00000000
00000000
00000000
00001000
00000000
00000100
00000000
00010000
00000000
00000000
00000000
,
00000100
00000000
00010100
00000000
00010000
00000000
00101000
00000000
00001000
00000000
00011000
00000000
00010100
00000000
00010000
00000100
,
00001000
00000000
00000000
00000000
00000001
00000000
00000000
00000000
00001000
00000000
00000010
00000000
00001000
00000000
00000200
00000300
00000000
00000000
00000200
00000300
00000001
00000000
00000000
00000000
00000010
00000000
00000100
00000000
00010000
00000000
00002000
00000000
,
00000000
01003300
00100000
00020000
00000000
00230000
00000000
00302000
00000000
00023000
00000000
00030100
00000010
00001000
00000100
00000000
,
00010100
00000000
00010000
00000000
00001000
00000000
00100000
00010000
01000000
00000000
00100000
00000000
10000000
00000000
00010000
00100000
,
00001000
00000000
00000000
01000000
00000000
00000000
00001000
00000000
00000000
01000000
00000000
00000000
00010000
00000000
00000000
00100000
00000000
00000000
00001000
00000000
00000000
00010000
00000000
00000000
00000010
00000000
00000000
00000100
00000000
00000000
00000001
00000000
00000000
00001000
00000000
00000000
00000100
00000000
00010000
00000000
00000100
00000000
00010000
00000000
00000100
00000000
00010000
00000000
,
00001000
00000000
00000000
00000000
;

//---------------dance-double - ----------------
#NOTES:
     dance-double:
     :
     Hard:
     13:
     0.605757,0.625949,0.175582,0.298489,0.596978,483.000000,463.000000,20.000000,34.000000,0.000000,0.000000,0.605757,0.625949,0.175582,0.298489,0.596978,483.000000,463.000000,20.000000,34.000000,0.000000,0.000000:
00000000
00000000
00000000
00000000
,
00000000
00000000
00000000
00000000
,
00000000
00000000
00000000
00000000
,
00000000
00000000
00000000
00000000
,
00001000
00000000
00010000
00000000
00000020
00000000
00000000
00000100
00000000
00000000
00000100
00000030
00001000
00000000
00000010
00000000
,
00010000
00000000
00001000
00000000
00200000
00000000
00000000
01000000
00000000
00000000
01000000
00000000
00310000
00000000
00100000
00000000
,
00002000
00013000
00200000
00310000
00002000
00013000
02000000
03010000
,
00002000
00000000
00003200
00000000
00000302
00000000
00000023
00000000
00000130
00010000
00000100
00010000
00032000
00000000
02003000
00000000
,
03200000
00000000
10000000
00000000
00320000
00300000
00001000
00000000
,
00030020
00000000
00000100
00000000
00001030
00000100
00000010
00000000
,
00000001
00001000
00000001
00000000
00001000
00000100
00010000
00000000
,
00001000
00000000
01000000
00000000
00010000
00000000
10000000
00100000
00000000
00100000
00000000
01000000
00010000
00000000
00000000
00000000
,
10000000
00000000
01000000
00000000
00100000
00010000
00000000
00100000
00010000
00000000
01000000
00000000
00001000
00010000
00000000
00001000
,
00010000
00000000
00000100
00000000
00001000
00000010
00000000
00001000
00000010
00000000
00000100
00000000
00000001
00000000
00000000
00000000
,
00001000
00000100
00001000
00000000
00000001
00000000
00000100
00000000
00000010
00000100
00000010
00000000
00001000
00000000
00000100
00000000
,
00010000
00000100
00010000
00000000
00001000
00010000
00001000
00000000
00100000
00001000
00100000
00000000
00010000
00100000
00010000
00000000
,
10000000
00000000
10000000
00000000
00010000
01000000
00000000
01000000
00000000
00100000
10000000
00000000
00010000
00100000
00000000
00100000
,
00000000
01000000
10000000
00000000
00010000
00100000
00000000
00001000
00000000
00010000
00000000
00000010
00000100
00000010
00000100
00000000
,
00000001
00000000
00000001
00000000
00001000
00000010
00000000
00000010
00000000
00000100
00000001
00000000
00001000
00000100
00000000
00000100
,
00000000
00000010
00000001
00000000
00001000
00000100
00000000
00010000
00000000
00001000
00000000
01000000
00100000
01000000
00100000
00000000
,
10000000
00000000
00100000
00000000
01000000
00010000
00000000
00010000
00000000
00100000
00001000
00000000
00010000
00000010
00000000
00000010
,
00000000
00000100
00000001
00000000
00001000
00000100
00000000
00000100
00000000
00000010
00000000
00000001
00001000
00000001
00001000
00000000
,
00002001
00000000
00003100
00010000
00012000
00000000
00103000
00010000
,
10000000
00100000
10000000
00000000
00010000
01000000
00010000
00000000
10000000
01000000
00100000
00000000
00010000
00100000
01000000
10000000
,
00200000
00000000
00010000
00000000
10000000
00000000
00310000
00001000
,
00000020
00000000
00001000
00000000
00000001
00000000
00001030
00010000
,
00200000
00000000
00010000
00000000
10000000
00000000
00310000
00001000
,
00100000
00000000
00101000
00000000
00000000
00000000
00010010
00000000
00000000
00000000
00010000
00000000
00001000
00000000
00010000
00001000
,
00100000
00000000
00000000
00000000
00101000
00000000
00000000
00001000
00010000
00000000
00100000
00000000
00010000
00000000
00001000
00000000
,
00010000
00000000
00000000
00000000
00010010
00000000
00000000
00010000
00001000
00000000
00000100
00000000
00001000
00000000
00010000
00001000
,
00010000
00000000
00000000
00000000
00001001
00000000
00000000
00000001
00000100
00000000
00000010
00000000
00010000
00000000
00001000
00010000
,
00001000
00000000
00000000
00000000
10010000
00000000
00000000
10000000
00100000
00000000
01000000
00000000
01000000
00000000
00010000
00100000
,
00002000
00000010
00000001
00000100
,
00023000
00100000
10000000
01000000
,
00032000
00000010
00000001
00000100
,
00023000
00000000
00000000
00000000
00032000
00000000
00000000
00000000
00003000
00000000
00010000
00000000
00010000
00000000
00001000
00100000
,
00010000
00000000
00000000
00000000
00110000
00000000
00000000
00000000
00000000
00000000
00001000
00000000
00001000
00000000
00010000
00000010
,
00001000
00000000
00000000
00000000
00001010
00000000
00000000
00000000
00000000
00000000
00010000
00000000
00010000
00000000
00001000
01000000
,
00000000
00000000
00001000
00000000
00001000
00000000
00010000
00000100
00000000
00000000
00010000
00000000
00010000
00000000
00001000
00100000
,
00001000
00000000
00010000
00000010
00010000
00000000
00001000
01000000
00001000
00000000
00010000
00000100
00010000
00000000
00001000
00000000
,
00011000
00000000
00000000
00000000
,
00001000
00000000
00010000
00000000
00200000
00000000
00000000
01000000
00000000
01000000
00000000
01300000
00000000
00000000
00000000
00010000
,
01000000
00000000
10000000
00000000
01000000
00010000
00000000
10000000
01000000
00000000
00010000
00000000
01000000
10000000
00000000
00010000
,
01000000
00000000
10000000
00000000
01000000
00010000
00000000
00100000
00001000
00000000
00010000
00000000
00000020
00000000
00000000
00000000
,
00000130
00001000
00010000
00001000
00000010
00001000
00000010
00001000
,
00010000
00000000
00001000
00000000
00000100
00000000
00000010
00001000
00000000
00000100
00000000
00000010
00000001
00000000
00000000
00001000
,
00000100
00000000
00000001
00000000
00000100
00001000
00000000
00000001
00000100
00000000
00001000
00000000
00000100
00000001
00000000
00001000
,
00000100
00000000
00000001
00000000
00000100
00001000
00000000
00000010
00010000
00000000
00001000
00000000
02000000
00000000
00000000
00000000
,
03100000
00010000
00001000
00010000
01000000
00010000
01000000
00010000
,
00001000
01000000
00000000
00000000
01000000
00100000
00000000
00000000
00100000
10000000
00000000
00000000
10010000
00000000
00000000
00000000
,
12000000
00000000
00000000
00000000
03100000
00010000
00100000
00010000
00100000
00000000
00000000
00001000
00010000
00000000
00000010
00000000
,
00001020
00000000
00000000
00000000
00000130
00000001
00000100
00000001
00000100
00000000
00000010
00000000
00001000
00000100
00000010
00001000
,
00010000
00000000
00000000
00000000
00000000
00000000
00000000
00000000
00000000
00000000
00001000
00010000
00001000
00010000
00001000
00010000
,
00100000
10000000
01000000
00010000
00001000
00000010
00001001
00000000
,
00000101
00000000
00000100
00000000
00000010
00000000
00001000
00000100
00000000
00001000
00000100
00000000
00000010
00000000
00001000
00020000
,
00000000
01030000
00100000
01000000
00000000
10000000
00000000
00100000
00000000
00100000
00000000
01000000
00010000
10000000
00010000
00000000
,
10000000
00000000
10000000
00000000
00010000
00100000
00000000
00010000
00100000
00000000
00001000
00000000
00010000
00000100
00010000
00000000
,
00001000
00000000
00101000
00000000
00000000
00000000
00010010
00000000
00000000
00000000
00010000
00000000
00001000
00000000
01000000
00100000
,
10000000
00000000
00100000
00000000
01000000
00000000
00010000
00100000
00000000
00010000
00100000
00000000
01000000
00000000
00010000
00002000
,
00000000
00003010
00000100
00000010
00000000
00000001
00000000
00000100
00000000
00000100
00000000
00000010
00001000
00000001
00001000
00000000
,
00002010
00000000
00003100
00010000
00012000
00000000
00103000
00010000
,
10000000
00010000
10000000
00000000
00010000
01000000
00010000
00000000
10000000
01000000
10000000
00000000
00010000
00100000
00001000
00010000
,
00000010
00000000
00000000
00000000
;

//---------------dance-double - ----------------
#NOTES:
     dance-double:
     :
     Medium:
     8:
     0.385026,0.462658,0.438955,0.482850,0.000000,307.000000,257.000000,50.000000,55.000000,0.000000,0.000000,0.385026,0.462658,0.438955,0.482850,0.000000,307.000000,257.000000,50.000000,55.000000,0.000000,0.000000:
// measure 0
00000000
00000000
00000000
00000000
,  // measure 1
00000000
00000000
00000000
00000000
,  // measure 2
00000000
00000000
00000000
00000000
,  // measure 3
00000000
00000000
00000000
00000000
,  // measure 4
00020000
00000100
00031000
00011000
,  // measure 5
00002000
01000000
00013000
00011000
,  // measure 6
00101000
00010010
01001000
00010100
,  // measure 7
00010000
00001000
00010000
00001000
00010000
00001000
00010000
00000000
,  // measure 8
00202000
00003000
00020000
00300000
,  // measure 9
20000000
00030000
00200000
30300000
,  // measure 10
10000000
01000000
00010000
00000000
,  // measure 11
00001000
00000100
00000001
00000000
,  // measure 12
00001000
00000100
00000010
00000000
00000001
00000100
00000010
00000000
,  // measure 13
00001000
00000100
00000010
00000000
00000001
00001000
00000001
00000000
,  // measure 14
00002200
00003300
00022000
00033000
,  // measure 15
00110000
11000000
10100000
01010000
,  // measure 16
10000000
00010000
01000000
00000000
00010000
10000000
01000000
00000000
,  // measure 17
00100000
00010000
01000000
00000000
00001000
00010000
00000010
00000000
,  // measure 18
00001000
00000001
00000010
00000000
00000001
00001000
00000010
00000000
,  // measure 19
00001000
00000100
00000010
00000000
00000100
00010000
00001000
00000000
,  // measure 20
00100000
00010000
00100000
00010000
01000000
00000000
00011000
00000000
,  // measure 21
00000010
00001000
00000010
00001000
00000100
00000000
00011000
00000000
,  // measure 22
00210000
00301000
00001020
00010030
,  // measure 23
01001000
00011000
00010100
00011000
,  // measure 24
20020000
00000000
30030000
00000000
10000000
00010000
01000000
00000000
,  // measure 25
00002000
00000000
00003000
00000000
00010000
00000100
00001000
00000000
,  // measure 26
00000002
00000000
00000003
00000000
00000010
00000001
00000100
00000000
,  // measure 27
00000000
00000101
00000000
00001010
00000000
00000001
00001000
00000001
,  // measure 28
00000200
00000000
00000310
00000000
00001000
00000010
00001000
00000000
,  // measure 29
00000200
00000000
00010300
00000000
00001000
00010000
00001000
00000000
,  // measure 30
00200000
00000000
00310000
00000000
10000000
00100000
10000000
00000000
,  // measure 31
00010000
01000000
00100000
00000000
10000000
01000000
00100000
00010000
,  // measure 32
02000000
00000000
03000200
00000000
,  // measure 33
00200300
00000000
00300020
00000000
,  // measure 34
00020030
00000000
00030002
00000000
,  // measure 35
00020003
00000000
00000000
00000000
00030000
00001000
00100000
00001000
,  // measure 36
00100000
00000000
00011000
00000000
00000000
00010000
00000010
00010000
,  // measure 37
00000010
00000000
00011000
00000000
00000000
00100000
00010000
00100000
,  // measure 38
00000000
00001000
00010000
00001000
00000000
00010000
00000010
00010000
,  // measure 39
00002000
00003200
00000302
00001003
,  // measure 40
00001001
00000000
00000000
00000000
,  // measure 41
00000001
00001000
00000020
00000000
00000100
00000000
00000130
00000000
,  // measure 42
00000001
00000100
00000001
00000100
00000010
00001000
00000010
00000000
,  // measure 43
00001000
00000100
00010000
00000000
00011000
00000000
00110000
00000000
,  // measure 44
10000000
00010000
01000000
00000000
00010000
00100000
01000000
00000000
,  // measure 45
00200000
00302000
00103000
10010000
,  // measure 46
10000000
00100000
10000000
00100000
01000000
00010000
01000000
00000000
,  // measure 47
00010000
00100000
00001000
00000000
00011000
00000000
00001100
00000000
,  // measure 48
00000001
00001000
00000010
00000000
00001000
00000100
00000010
00000000
,  // measure 49
00000200
00020300
00030100
00001001
,  // measure 50
00000202
00000000
00000303
00000000
00000010
00001000
00000100
00000000
,  // measure 51
00022000
00000000
00033000
00000000
00100000
00010000
01000000
00000000
,  // measure 52
10010000
00000000
00000000
00000000
,  // measure 53
10100000
01010000
00001010
00000101
,  // measure 54
00002001
00003200
00020300
00031000
,  // measure 55
00020000
00032000
00203000
00310000
,  // measure 56
00100000
00010000
01000000
00000000
00100000
10000000
01000000
00000000
,  // measure 57
00000000
11000000
00000000
00110000
00000000
10000000
00010000
10000000
,  // measure 58
00200000
00320000
00032000
00003100
,  // measure 59
00000200
00000320
00002030
00003100
,  // measure 60
00020200
00030300
00022000
00033000
,  // measure 61
00101000
00011000
00010010
00011000
,  // measure 62
01001000
00000000
00000000
00000000
;

//---------------dance-double - ----------------
#NOTES:
     dance-double:
     :
     Easy:
     5:
     0.211952,0.272152,0.070233,0.219477,0.000000,169.000000,161.000000,8.000000,25.000000,0.000000,0.000000,0.211952,0.272152,0.070233,0.219477,0.000000,169.000000,161.000000,8.000000,25.000000,0.000000,0.000000:
// measure 0
00000000
00000000
00000000
00000000
,  // measure 1
00000000
00000000
00000000
00000000
,  // measure 2
00000000
00000000
00000000
00000000
,  // measure 3
00000000
00000000
00000000
00000000
,  // measure 4
00010000
00000000
00001000
00000000
,  // measure 5
00100000
00000000
00010000
00000000
,  // measure 6
10000000
10000000
00010000
00010000
,  // measure 7
00001000
00001000
00000001
00000000
,  // measure 8
00001001
00000000
00000001
00000000
,  // measure 9
00000100
00000000
00000100
00000000
,  // measure 10
00000010
00001000
00000100
00000000
,  // measure 11
00010000
00001000
00010000
00000000
,  // measure 12
00001000
00001000
00100000
00000000
,  // measure 13
00100000
00100000
00010000
00000000
,  // measure 14
10000000
00000000
00100000
00000000
,  // measure 15
01000000
00001000
00010000
00000000
,  // measure 16
00000100
00000100
00000010
00000000
,  // measure 17
00000001
00000001
00000100
00000000
,  // measure 18
00000010
00000010
00010000
00000000
,  // measure 19
00001000
00100000
00010000
00000000
,  // measure 20
10000000
10000000
00100000
00000000
,  // measure 21
01000000
01000000
00010000
00000000
,  // measure 22
10010000
00000000
00010000
00000000
,  // measure 23
00100000
00001000
00010000
00000100
,  // measure 24
00000020
00000000
00000030
00000010
,  // measure 25
00000002
00000000
00000003
00000001
,  // measure 26
00000200
00000000
00000300
00000100
,  // measure 27
00000010
00001000
00001000
00000100
,  // measure 28
00020000
00030000
00010000
00001000
,  // measure 29
00200000
00300000
00100000
00010000
,  // measure 30
02000000
03000000
00010000
10000000
,  // measure 31
00020000
00030000
00100000
00001000
,  // measure 32
00020000
00000000
00000000
00030000
,  // measure 33
00000020
00000000
00000000
00000030
,  // measure 34
00000200
00000000
00000000
00000300
,  // measure 35
00000001
00000001
00001000
00001000
,  // measure 36
00000200
00000300
00010000
00010000
,  // measure 37
00002000
00003000
00100000
00100000
,  // measure 38
01000000
00100000
01000000
00100000
,  // measure 39
01000000
10000000
00010000
10000000
,  // measure 40
10010000
00000000
00000000
00000000
,  // measure 41
00010000
10000000
00100000
00000000
,  // measure 42
10000000
00100000
01000000
01000000
,  // measure 43
00010000
00100000
00002000
00003000
,  // measure 44
00010000
00010000
00000100
00000000
,  // measure 45
00001000
00000100
00000010
00000000
,  // measure 46
00000001
00000100
00000010
00000010
,  // measure 47
00001000
00000100
00020000
00030000
,  // measure 48
00001000
00001000
00100000
00000000
,  // measure 49
00010000
00100000
01000000
00000000
,  // measure 50
20020000
30030000
10000000
00010000
,  // measure 51
00200000
00300000
00001000
00010000
,  // measure 52
00011000
00000000
00000000
00000000
,  // measure 53
00002002
00000000
00000000
00003003
,  // measure 54
00000001
00000100
00000020
00000030
,  // measure 55
00001000
00000100
00020000
00030000
,  // measure 56
00001000
00001000
00100000
00100000
,  // measure 57
02000000
00000000
00000000
03000000
,  // measure 58
10000000
00100000
02000000
03000000
,  // measure 59
00010000
00100000
00002000
00003000
,  // measure 60
00010000
00010000
00000100
00000100
,  // measure 61
00000020
00000000
00000030
00000110
,  // measure 62
00001001
00000000
00000000
00000000
;
