#TITLE:Raison d'être~交差する宿命~;
#SUBTITLE:;
#ARTIST:Zektbach;
#TITLETRANSLIT:Raison d'etre ~Crossover of Fate~.;
#SUBTITLETRANSLIT:;
#ARTISTTRANSLIT:;
#GENRE:;
#CREDIT:;
#MUSIC:Raison d'etre ~Kousa suru shukumei~.ogg;
#BANNER:Raison d'etre ~Kousa suru shukumei~.png;
#BACKGROUND:Raison d'etre ~Kousa suru shukumei~-bg.png;
#CDTITLE:;
#SAMPLESTART:100.460;
#SAMPLELENGTH:14.980;
#SELECTABLE:YES;
#OFFSET:2.156;
#BPMS:0.000=77.500
,28.000=155.000
,44.000=77.500
,52.000=87.500
,56.000=175.000
,88.000=87.500
,104.000=175.000
,136.000=87.500
,152.000=175.000
,184.000=87.499
,200.000=175.000
,232.000=87.499
,234.000=175.000
,266.000=87.499
;
#STOPS:;
#BGCHANGES:;
#FGCHANGES:;

//--------------- dance-single - ----------------
#NOTES:
     dance-single:
     :
     Beginner:
     3:
     0,0,0,0,0:
0000
0000
0000
0000
,
0000
0000
0000
0000
,
0000
0000
0000
0000
,
0010
0000
0010
0000
,
1000
0000
0001
0000
,
1001
0000
0000
0000
,
1001
0000
0000
0000
,
0010
0000
0010
0000
,
0001
0000
0001
0000
,
1000
0000
1000
0000
,
0100
0000
0100
0000
,
1001
0000
0000
0000
,
1001
0000
0000
0000
,
0002
0000
0000
0003
,
1000
0000
1000
0000
,
0100
0000
0010
0000
,
0001
0000
0001
0000
,
0100
0000
0000
0000
,
0001
0000
0001
0000
,
0100
0000
0010
0000
,
1000
0000
1000
0000
,
0010
0000
0000
0000
,
1000
0000
1000
0000
,
0100
0000
0100
0000
,
0001
0000
0001
0000
,
0100
0000
0100
0000
,
1000
0000
0100
0000
,
1000
0000
0100
0000
,
0010
0000
0001
0000
,
0010
0000
0001
0001
,
1001
0000
0000
0000
,
0110
0000
0000
0000
,
1001
0000
0000
0000
,
0110
0000
0000
0000
,
1000
1000
0100
0000
,
1000
0010
1000
0000
,
0001
0001
0010
0000
,
0001
0100
0001
0000
,
1000
1000
1000
0000
,
0110
0000
0000
0000
,
0001
0001
0001
0000
,
0110
0000
0000
0000
,
1000
1000
0010
0000
,
0100
0000
0000
0000
,
0001
0001
0010
0000
,
0100
0000
0000
0000
,
0010
0000
0001
0000
,
0100
0000
0010
0000
,
1000
1000
0001
0001
,
0010
0010
0020
0030
,
0001
0000
0100
0000
,
1000
0000
0100
0000
,
0001
0000
0010
0000
,
0100
0100
0100
0000
,
1000
0000
0100
0000
,
0001
0000
0100
0000
,
1000
0000
0010
0000
,
0100
0100
0100
0000
,
0020
0030
2000
0000
,
3000
0000
0200
0000
,
0300
0000
0020
0000
,
0030
0000
0002
0000
,
0003
0000
1000
1000
,
0010
0000
1000
0100
,
1000
0000
0001
0001
,
0100
0000
0001
0010
,
0001
0000
2002
0000
,
0000
0000
0000
0000
,
3003
0000
0000
0000
;

//--------------- dance-single - ----------------
#NOTES:
     dance-single:
     :
     Easy:
     7:
     0,0,0,0,0:
0000
0000
0000
0000
,
0000
0000
0000
0000
,
0000
0000
0000
0000
,
2000
0000
3002
0000
,
0203
0000
0320
0030
,
2002
0000
0000
0000
0000
0000
0000
0000
0000
0000
0000
0000
3003
0000
0000
0010
,
0020
0000
0000
0030
,
1000
0100
1000
0000
,
1000
0010
1000
0000
,
0001
0010
0001
0000
,
0001
0100
0001
0000
,
2002
0000
0000
0000
0000
0000
0000
0000
0000
0000
0000
0000
3003
0000
0000
0100
,
0200
0000
0000
0300
,
2002
0000
3003
0000
,
1000
0010
1000
0010
,
0100
0001
0100
0001
,
0010
0100
0020
0000
0000
0000
0000
0000
,
0000
0000
0000
0030
,
0001
0100
0001
0100
,
0010
1000
0010
1000
,
0100
0010
0200
0000
0000
0000
0000
0000
,
0000
0000
0000
0300
,
1000
0000
0010
0000
2000
0000
0001
0001
,
3002
0000
0023
0000
0230
0000
0010
0010
,
0320
0230
2300
3002
,
0203
0000
0020
0330
,
1000
0100
1000
0100
,
0010
0001
0010
0001
,
0100
0100
0010
0010
,
0200
0000
0310
0010
,
1000
0100
1000
0010
,
1000
0100
1000
0000
,
0001
0010
0001
0100
,
0001
0010
0001
0000
,
2002
0000
0000
0000
3003
1000
0100
0000
,
0220
0000
0000
0000
0330
0010
0001
0000
,
2002
0000
0000
0000
3003
0001
0100
0000
,
0220
0000
0000
0000
0000
0330
0000
0000
,
0001
0000
0001
0000
0001
0100
0000
0100
,
0000
0010
0000
0010
0000
0100
0000
0100
,
0001
0000
1000
0000
1000
0100
0000
0100
,
0000
0010
0000
0100
0000
0010
0000
0010
,
0100
0000
0100
0000
0100
1000
0000
1000
,
0000
0001
0000
0001
0000
0100
0000
0100
,
0001
0000
0010
0000
0010
0001
0000
1000
,
0000
0001
0000
2002
0000
3003
0000
0000
,
0000
1000
0000
1100
0000
0001
0000
0011
,
0000
1000
0000
1010
0000
0001
0000
0011
,
0000
2000
0200
0000
3300
0020
0002
0000
,
0033
0100
0010
0010
2000
0000
0002
3003
,
0001
0010
0001
0010
,
0100
1000
0100
1000
,
0010
1000
0010
0100
,
0001
0001
0002
0003
,
1000
0010
1000
0010
,
0100
0001
0100
0001
,
0010
0001
0010
0100
,
1000
1000
2000
3000
,
0220
0330
0001
0001
,
0010
0010
0001
0100
,
0001
0000
1000
1000
,
0010
0010
1000
0100
,
1000
0000
0001
0100
,
0001
0100
0010
1000
,
0010
0000
1000
0100
,
1000
0100
0010
0001
,
0010
0000
0002
0000
,
0000
0000
0000
0000
,
0003
0000
0000
0000
;

//--------------- dance-single - ----------------
#NOTES:
     dance-single:
     :
     Medium:
     11:
     0,0,0,0,0:
0000
0000
0000
0000
,
0000
0000
0000
0000
,
0000
0000
0000
0000
,
2200
3300
0022
0033
,
2020
3030
0202
0303
,
1001
0100
0010
0100
0001
1000
0001
0100
,
1001
0010
0100
0010
0001
1000
0001
0100
,
0020
0000
1030
0000
1000
0001
0010
0100
,
2000
0000
3100
0000
0100
0010
0001
1000
,
0020
0000
0130
0000
0100
0001
1000
0010
,
0200
0000
0310
0000
0010
1000
0001
0000
,
0101
0010
0001
1000
0001
0100
0001
0100
,
1010
0100
0001
1000
0100
1000
0100
0010
,
0001
0002
0000
0000
1000
2000
0000
3003
,
0001
0000
0000
0000
0100
0000
0000
0000
0001
0000
0010
0000
0000
0100
0000
0000
,
1000
0000
0010
0000
1000
0100
0010
0001
,
2000
3020
0230
0302
,
1003
0000
1001
0000
0101
0000
0100
0010
,
1000
0000
0000
0000
0100
0000
0000
0000
1000
0000
0100
0000
0000
0010
0000
0000
,
0001
0000
0100
0000
0001
0100
0010
1000
,
0002
0023
0230
2300
,
3001
0100
0010
1000
0001
1000
0001
0000
,
2000
0010
3002
0000
0100
0100
0010
0010
,
0203
0000
0320
0000
1000
1000
0001
0001
,
0230
0000
0302
0000
0010
0010
0100
0010
,
2003
0000
0100
0000
0010
0002
0000
3003
,
0001
0010
0100
1000
0200
0000
0010
0000
,
0310
0001
0010
0100
2000
0000
0100
0000
,
3100
0000
0010
0000
0001
0000
0100
0000
0010
0000
1000
0000
,
0001
1000
0001
1000
0002
0000
2003
0000
,
3001
0010
0100
0000
0010
0001
0010
0000
,
0001
1000
0010
0000
1000
0100
1000
0000
,
0010
1000
0010
0000
0100
0001
0010
0000
,
0100
1000
0001
0100
0010
0000
1001
0000
,
0202
0000
0000
0000
0303
0000
0010
0000
1000
0010
2000
0000
0200
0000
3300
0000
,
0022
0000
0000
0000
0033
0000
0100
0010
0100
0000
0020
0000
2000
0000
3030
0000
,
0202
0000
0000
0000
0303
0000
1000
0100
1000
0000
0200
0000
0020
0000
0330
0000
,
0002
0000
0000
0000
1000
2000
0000
3003
,
0010
0000
0110
0000
1000
0000
0010
0100
,
0001
0000
0001
1000
0100
0010
0100
0000
,
0010
0000
0110
0000
0001
0000
0100
0010
,
1000
0000
1000
0001
0010
0100
0010
0000
,
0001
0000
0101
0000
0010
0000
1000
0010
,
0100
0000
0001
1000
0100
1000
0100
0000
,
0010
0011
0001
0100
,
0010
1000
0100
0010
0001
0010
0100
0000
,
2000
0010
3002
0010
0203
0010
0302
0010
,
2003
0010
3200
0010
2300
0010
3002
0010
,
0103
0010
2020
3030
0001
0010
0022
0033
,
1000
0100
0020
0000
0031
0100
0020
0000
1030
0010
0100
0001
1000
0001
1000
0000
,
0001
0100
0001
0000
0010
0100
0010
0000
,
1000
0000
0010
0000
0001
0010
0100
1000
,
0001
0101
0110
1010
,
1000
0010
0100
0001
2000
0000
3002
0000
,
0103
0100
0010
0010
,
2000
0100
3002
0010
,
1003
0100
0010
0001
0100
0010
0100
0000
,
0010
1000
0100
0010
0001
1000
0001
0000
,
0002
0000
2000
3003
0010
1000
0010
0000
,
0100
0001
1000
0100
0010
0001
0010
0000
,
0100
1000
0010
1000
0001
0100
0010
0000
,
0100
0010
0100
0001
1000
0100
1000
0000
,
0001
0010
0001
0000
0001
0100
0001
0100
,
1000
0100
0001
0000
0010
0001
0100
0010
,
1000
0100
0001
0000
0100
1000
0100
0010
,
0001
0010
1000
0000
0010
0001
0010
0001
,
0100
0010
1000
0000
0200
0010
0000
0001
,
0000
1000
0000
0001
0000
0010
0000
0000
,
0300
0000
0000
0000
;

//--------------- dance-single - ----------------
#NOTES:
     dance-single:
     :
     Hard:
     15:
     0,0,0,0,0:
0000
0000
0000
0000
,
0000
0000
0000
0000
,
0000
0000
0000
0000
,
1000
0100
0010
0002
0200
0000
0303
0000
0001
0100
0010
2000
0200
0000
3300
0000
,
0010
0001
1000
0002
0020
0000
0033
0000
0100
1000
0001
2000
0020
0000
3030
0000
,
0001
0100
0001
0100
0001
0010
0000
0100
0010
0001
0100
0010
1000
0100
0010
0100
,
1000
0010
1000
0010
1000
0100
0000
0010
0100
1000
0010
0100
0001
0010
0100
0010
,
0001
0000
0100
0000
0010
0000
1000
0010
1000
0000
0010
0000
0100
0000
0001
0000
,
1000
0000
0100
0000
0010
0000
0001
0010
0001
0000
0010
0000
0100
0000
1000
0000
,
0010
0000
0100
0000
0001
0000
0100
0001
1000
0000
0100
0000
0010
0000
0001
0000
,
0010
0000
0100
0000
0010
0000
0100
1000
0001
0000
0100
0000
0010
0000
1000
0000
,
0001
0010
0001
0010
1000
0010
0000
0001
0010
0100
1000
0010
0100
0001
0100
0010
,
1000
0100
1000
0100
0001
0100
0000
1000
0100
0010
0001
0100
0010
1000
0010
0100
,
0001
0000
0011
0000
0000
0001
0100
0010
1000
0000
1010
0000
0000
1000
0100
0010
,
0001
0000
0100
0000
0001
0000
0100
0000
0010
0000
1000
0000
0000
0001
0000
0000
,
1000
0000
0100
0000
0010
0000
0001
0000
0100
0010
0200
0000
0000
0000
0310
0000
,
1000
0100
0010
0001
0010
0100
0001
0100
,
1000
0100
0010
0001
0100
0010
0001
0010
,
1000
0000
0100
0000
1000
0000
0100
0000
0010
0000
0001
0000
0000
1000
0000
0000
,
0001
0000
0100
0000
0010
0000
1000
0000
0100
0010
0200
0000
0000
0000
0310
0000
,
0001
0100
0010
1000
0010
0100
1000
0100
,
0001
0100
0010
1000
0100
0010
1000
0010
,
0002
0000
0100
0000
2003
0000
3100
0010
0100
0000
0110
0000
0001
0100
0010
1000
,
0200
0000
0010
0000
2300
0000
3010
0100
0010
0000
0110
0000
0001
0000
0010
0000
,
0001
0100
0001
0100
0010
1000
0001
0100
0020
0000
1000
0000
0001
0000
1000
0030
,
1000
0100
1000
0100
0010
0001
1000
0100
0001
0000
0100
0000
1000
0000
0000
0000
,
0001
0000
0100
0000
0010
1000
0001
0000
0100
0000
0001
0000
1000
0100
0010
0000
,
0100
0000
1000
0000
0010
1000
0001
0000
0100
0000
0001
0000
0010
0001
0010
0100
,
1000
0000
0010
0000
0001
0000
0010
0000
1000
0000
0001
0000
,
1000
0100
0010
0001
2000
0000
3002
0000
,
1003
0000
0010
0000
0100
0001
0100
0000
0010
0000
1000
0000
0001
0100
0010
0000
,
1000
0000
0100
0000
0010
0001
0010
0000
0100
0000
1000
0000
0001
1000
0100
0000
,
1000
0000
0010
0000
0100
0001
0100
0000
0010
0000
1000
0000
0001
0010
0100
0000
,
1000
0000
0001
0000
0100
0001
0100
0010
1000
0000
0001
0000
0110
0000
0000
0000
,
2002
0000
0000
0000
3003
0000
1000
0010
0100
0001
0011
0000
2100
0000
0000
0000
,
0002
0000
3003
0000
0001
0000
1000
0010
0100
0000
0101
0000
2010
0000
0000
0000
,
0200
0000
3300
0000
0110
0000
0100
0010
0001
1000
0010
0000
0100
0010
1000
0001
,
0020
0000
0000
0000
0130
0000
0001
0100
2000
0000
0002
0000
0000
0000
3003
0000
,
0001
0000
0010
0000
0001
0100
0001
0000
0100
0000
1000
0000
0100
0000
1000
0000
,
0001
0010
1000
0010
0100
1000
0100
0001
,
1000
0000
0100
0000
1000
0010
1000
0000
0100
0000
0001
0000
0100
0000
0001
0000
,
1000
0010
0001
0010
0100
1000
0010
0001
,
0010
0000
0100
0000
1000
0100
1000
0000
0100
0000
0001
0000
0100
0000
0001
0000
,
0010
1000
0001
0100
1000
0100
0010
0001
,
1000
0000
0010
0000
0100
0001
0100
0000
0010
0000
0001
0000
0010
0000
1000
0000
,
0001
0100
0010
1000
0010
0000
1000
0100
0010
0001
0010
0000
0001
0000
0000
0000
,
1000
0100
0010
0001
1000
0100
0010
0001
0100
0010
1000
0001
0100
0010
1000
0001
,
0010
0100
1000
0001
0010
0100
1000
0001
0100
0010
1000
0001
0100
0010
0100
0000
,
0010
1000
1100
0000
1010
0000
1001
0000
0010
0001
0011
0000
0101
0000
1001
0000
,
1000
0100
0010
0010
0001
0100
0010
0010
0100
0001
0010
0100
1000
0000
0000
0000
,
0001
0000
0100
0000
0010
0000
0100
0000
1000
0000
0100
0000
0001
0000
1000
0100
,
1000
0000
0010
0000
1000
0000
0001
0100
0001
0000
0010
0000
0100
1000
0100
0010
,
0002
0203
2300
3200
0302
0203
0320
2030
,
3001
0000
0010
0000
0001
0000
0100
0000
0010
1000
0010
0100
0002
0000
0000
0000
,
1003
0000
0100
1000
0100
0000
0010
0000
0001
0000
0100
0001
0100
0000
0010
0000
,
1000
0000
0010
1000
0010
0000
0100
0000
0001
0000
0010
0001
0010
0000
0000
0000
,
0001
0100
0010
1000
0010
0000
0000
0000
1000
0100
0010
0001
0010
0000
0000
0000
,
0100
1000
0001
0100
0010
0000
0000
0000
0100
0001
1000
0100
0010
0000
0000
0000
,
0002
0000
0000
0000
2000
0000
3003
0000
0001
0000
0100
0001
0010
0000
0001
0010
,
0001
0000
0100
0001
0100
0000
0010
0000
1000
0000
0100
1000
0010
0000
1000
0100
,
1000
0000
0100
0010
0100
0000
0010
0000
0001
0000
1000
0010
0100
0000
0010
1000
,
0100
0000
1000
0001
1000
0000
0010
0000
0100
0000
0001
0010
0100
0000
0010
0001
,
0100
0000
0001
1000
0001
0000
0000
0000
1000
0100
0010
0001
0010
0000
0100
1000
,
0001
0000
0100
0000
0010
0000
1000
0000
0001
0010
0100
1000
0100
0000
0010
0001
,
1000
0000
0010
0000
0100
0000
0001
0000
1000
0010
1000
0001
0100
0000
0001
1000
,
0100
0000
0010
0000
0001
0000
0100
0000
0010
1000
0010
0100
0001
0000
0010
0100
,
1000
0000
0010
0100
0001
0000
0010
0000
0200
0000
0001
0000
0000
0000
1000
0000
,
0000
0001
0000
1000
0000
0001
0000
0000
,
0300
0000
0000
0000
;

//--------------- dance-single - ----------------
#NOTES:
     dance-single:
     :
     Challenge:
     18:
     0,0,0,0,0:
0000
0000
0000
0000
,
0000
0000
0000
0000
,
0000
0000
0000
0000
,
1000
0000
0001
0100
0001
0100
0001
0100
0020
0000
2000
0000
0000
0000
3030
0000
0001
0000
1000
0100
1000
0100
1000
0100
0020
0000
0002
0000
0000
0000
0033
0000
,
1000
0000
0010
0100
0010
0100
0010
0100
0002
0000
2000
0000
0000
0000
3003
0000
0001
0000
0010
0100
0010
0100
0010
0100
2000
0000
0002
0000
0000
0000
3003
0000
,
1000
0000
0001
0100
0010
0000
1000
0001
0100
0000
0010
0000
0000
0000
1000
0100
0010
0000
0001
0000
1000
0000
0001
0100
0010
1000
0001
0000
0100
0000
0100
0000
,
0001
0000
1000
0100
0010
0000
0001
1000
0100
0000
0010
0000
0000
0000
0001
0100
0010
0000
1000
0000
0001
0000
1000
0100
0010
0001
1000
0000
0010
0000
0010
0000
,
1000
0000
0100
1000
0100
1000
0010
0100
0001
0000
0010
0000
0100
0000
1000
0000
,
0001
0000
0100
0001
0100
0001
0010
0100
1000
0000
0010
0000
0100
0000
0001
0000
,
0010
0000
0001
1000
0001
1000
0010
0100
0001
0000
0010
0000
0100
0000
1000
0000
,
0010
0000
1000
0001
1000
0001
0010
0100
1000
0000
0010
0000
0100
0000
0001
0000
,
0010
0000
0001
0100
0001
0000
1000
0100
1000
0000
0010
0000
0000
0000
0100
0010
1000
0000
0100
0000
0001
0000
0100
1000
0010
0100
0001
0000
0010
0000
0010
0000
,
0100
0000
1000
0010
1000
0000
0001
0010
0001
0000
0100
0000
0000
0000
0010
0100
0001
0000
0010
0000
1000
0000
0010
0001
0100
0010
1000
0000
0100
0000
0010
0000
,
0110
0000
2002
0000
3003
0001
0100
0010
0110
0000
2002
0000
3003
1000
0100
0010
,
0001
0000
0100
0000
0010
1000
0001
0000
0010
0000
0100
0000
1000
0100
0000
0010
,
0001
0000
0100
0000
0010
0000
0001
0000
0010
1000
0200
0000
0000
0000
0310
0000
,
0001
0000
1000
0000
0001
0000
0100
0000
0010
0000
1000
0000
0001
0000
0010
0001
,
0010
0000
0100
0010
0100
0000
1000
0100
1000
0000
0010
0000
0100
0000
0001
0000
,
1000
0000
0100
0000
0010
0001
1000
0000
0010
0000
0100
0000
0001
0100
0000
0010
,
1000
0000
0100
0000
0010
0000
1000
0000
0010
0001
0200
0000
0000
0000
0310
0000
,
1000
0000
0001
0000
1000
0000
0100
0000
0010
0000
0001
0000
1000
0000
0010
1000
,
0010
0000
0100
0010
0100
0000
0001
0100
0001
0000
0010
0000
0100
0000
1000
0000
,
0001
0000
0000
0010
0000
0000
0001
0000
0000
0010
0000
0000
0001
0000
0000
0100
0000
0000
0010
0000
0000
1000
0010
1000
0010
0000
0000
0000
0000
0000
2001
0000
0000
0000
0000
0000
3001
0000
0000
0010
0000
0000
0002
0000
0000
0000
0000
0000
,
1003
0000
0000
0100
0000
0000
1000
0000
0000
0100
0000
0000
0010
0000
0000
0001
0000
0000
0100
0000
0000
0001
0100
0001
0100
0000
0000
0000
0000
0000
1002
0000
0000
0000
0000
0000
1003
0000
0000
0100
0000
0000
2000
0000
0000
0000
0000
0000
,
3001
0000
0000
0010
0000
0000
0001
0000
0000
0100
0000
0000
0001
0000
0000
1000
0000
0000
0010
0000
0000
1000
0100
1000
0100
0000
0000
0010
0000
0000
0001
0000
0000
1000
0000
0000
0100
0000
0000
1000
0000
0000
0100
0000
0000
0010
0000
0000
,
0001
0000
0000
0100
0000
0000
0010
0000
0000
1000
0000
0000
0100
0000
0000
0010
0000
0000
0001
0000
0000
1000
0001
1000
0001
0000
0000
0000
0000
0000
2010
0000
0000
0000
0000
0000
0002
0000
0000
0000
0000
0000
3003
0000
0000
0000
0000
0000
,
0001
0000
0010
0000
0100
0001
0100
0000
0010
0000
0001
0000
0100
1000
0100
0000
,
0010
0000
1000
0000
0100
0001
0100
0000
0010
0000
0001
0000
0100
0010
0100
0010
,
1000
0100
0010
0100
0010
0001
0100
0010
1000
0001
0010
0100
,
1000
0010
0001
0010
2000
0000
3002
0000
,
1003
0000
0100
0000
0010
0001
0010
0001
0100
0000
0010
0000
1000
0100
1000
0001
,
0100
0000
0010
0000
1000
0010
0100
0001
0100
0000
0010
0000
1000
0000
0001
0000
,
0100
0000
0001
0000
0010
0001
0010
0100
1000
0000
0010
0000
0100
0001
0100
0001
,
1000
0000
0100
0000
0010
0001
0010
0001
0100
0010
1000
0010
1000
0010
0100
0001
,
2000
3000
0000
0000
0020
0030
0000
0000
0200
0300
0000
0000
0002
0003
0000
0000
2000
3000
0000
0000
0020
0030
0000
0000
0200
0300
0000
0000
0002
0003
0000
0000
0020
0030
0000
0000
0200
0300
0000
0000
0002
0000
0000
0000
0000
0000
0000
0000
0203
0300
0000
0000
2000
3000
0000
0000
0020
0030
0000
0000
0200
0300
0000
0000
,
0002
0003
0000
0000
0020
0030
0000
0000
0200
0300
0000
0000
2000
3000
0000
0000
0002
0003
0000
0000
0020
0030
0000
0000
0200
0300
0000
0000
2000
3000
0000
0000
0020
0030
0000
0000
0200
0300
0000
0000
2000
0000
0000
0000
0000
0000
0000
0000
3200
0300
0000
0000
0002
0003
0000
0000
0020
0030
0000
0000
0200
0300
0000
0000
,
2000
3000
0000
0000
0020
0030
0000
0000
0002
0003
0000
0000
2000
3000
0000
0000
0200
0300
0000
0000
0002
0003
0000
0000
2000
3000
0000
0000
0020
0030
0000
0000
0002
0003
0000
0000
0020
0030
0000
0000
2000
0000
0000
0000
0000
0000
0000
0000
3200
0300
0000
0000
0020
0030
0000
0000
0200
0300
0000
0000
0020
0030
0000
0000
,
0002
0003
0000
0000
0200
0300
0000
0000
2000
3000
0000
0000
0002
0003
0000
0000
0020
0030
0000
0000
2000
3000
0000
0000
0002
0003
0000
0000
0200
0300
0000
0000
2000
3000
0000
0000
0200
0300
0000
0000
0002
0000
0000
0000
0000
0000
0000
0000
2000
0000
0000
0000
0000
0000
0000
0000
3003
0000
0000
0000
0000
0000
0000
0000
,
0001
0000
1000
0000
0010
0100
0010
0000
1000
0000
0100
0000
0001
0000
0100
0000
,
1000
0000
0001
0100
0010
0000
0100
0001
0010
0000
0100
0010
0100
0000
1000
0000
,
0010
0100
0001
1000
1100
0101
0010
1000
,
0001
0010
0001
0000
1000
0010
1000
0000
0200
0000
0000
0000
0310
0000
0010
0000
,
0001
0000
1000
0000
0100
0000
1000
0000
0010
1000
0010
0000
0100
0000
0001
0000
,
0010
0000
0100
1000
0001
0000
0010
0001
0100
0000
0010
0100
0010
0000
1000
0000
,
0100
0110
1001
0001
0100
0010
1000
0001
,
1000
0010
1000
0010
1000
0100
1000
0100
0010
0001
0010
0001
0010
0100
1000
0001
,
0200
0000
0000
0000
0310
1000
0010
0100
0002
0000
0000
0000
0013
0100
0010
0001
2000
0000
0000
0000
3010
1000
0010
0100
0002
0000
0000
0000
0103
0001
0100
0010
,
2000
0000
0000
0000
3001
1000
0100
0010
0002
0000
0000
0000
0103
0001
1000
0100
0020
0000
0000
0000
0130
1000
0001
0100
0020
0000
0000
0000
1030
0010
0100
0001
,
1000
0000
0100
0000
1000
0010
1000
0010
0100
0000
0002
0000
0020
0000
0033
0000
0001
0000
0010
0000
0001
0100
0001
0100
0010
0000
2000
0000
0200
0000
3300
0000
,
1000
0000
0010
0000
0100
0001
0100
0000
0001
0000
0010
0000
0100
1000
0100
0000
0010
0000
0010
0000
0001
0010
0001
0010
0100
1000
0010
0100
0001
0100
0010
1000
,
0001
0000
0010
0000
0001
0000
1000
0000
0010
0000
1000
0000
0100
0000
1000
0010
,
1000
0000
0001
0000
0100
0000
0001
0010
0001
0000
0100
0000
0010
1000
0010
0100
,
0001
0000
0010
0100
1000
0000
0010
0100
1000
0000
0100
0010
1000
0000
0100
0010
,
0001
0000
0100
0000
1000
0000
0100
0000
0001
1000
0001
1000
0001
0000
0000
0000
,
1000
0000
0010
0100
0001
0000
0010
0100
0001
0000
0100
1000
0010
0000
0100
0001
,
1000
0000
0010
0100
1000
0000
0100
0010
1000
0000
0001
0010
0100
0000
0010
0001
,
0100
0100
0010
0010
1000
1000
0001
0001
,
1000
0010
1000
0010
0100
0001
0010
0001
0010
0100
1000
0100
0010
0001
0100
0010
,
2000
0000
0000
0000
0002
0000
3003
0000
1000
0000
0001
0010
0100
0000
1000
0010
,
0100
0000
0001
0100
0010
0000
1000
0100
0010
0000
0001
1000
0010
0000
1000
0001
,
0010
0000
0100
0010
0100
0000
0010
0001
1000
0000
0010
1000
0100
0000
0010
0001
,
0100
0000
1000
0100
0010
0000
0001
0010
0100
0000
0001
0010
1000
0000
0001
0100
,
1000
0000
0001
0100
1000
0000
0001
0010
2000
0000
0000
0000
3001
0010
0001
0010
,
0100
1000
0100
0010
0001
0100
0001
0100
0020
0000
0000
0000
1030
0001
0100
0001
,
1000
0100
0010
0001
0100
0001
0100
0010
2000
0000
0000
0000
3100
0010
0100
0010
,
0001
0010
0100
1000
0001
0100
0010
1000
0002
0000
0000
0000
1003
0100
1000
0010
,
0100
0001
0100
0001
0010
0100
1000
0010
0200
0000
0001
0000
0000
0000
1000
0000
,
0000
0010
0000
1000
0000
0001
0000
0000
,
0300
0000
0000
0000
;
