#VERSION:0.83;
#TITLE:Rage of Dust;
#SUBTITLE:;
#ARTIST:SPYAIR;
#TITLETRANSLIT:;
#SUBTITLETRANSLIT:;
#ARTISTTRANSLIT:;
#GENRE:;
#ORIGIN:;
#CREDIT:;
#BANNER:banner.png;
#BACKGROUND:bg.png;
#PREVIEWVID:;
#JACKET:jacket.png;
#CDIMAGE:;
#DISCIMAGE:;
#LYRICSPATH:;
#CDTITLE:;
#MUSIC:Rage of Dust.ogg;
#OFFSET:0.634000;
#SAMPLESTART:40.880024;
#SAMPLELENGTH:17.000000;
#SELECTABLE:YES;
#BPMS:0.000=240.000;
#STOPS:;
#DELAYS:;
#WARPS:;
#TIMESIGNATURES:0.000=4=4;
#TICKCOUNTS:0.000=4;
#COMBOS:0.000=1;
#SPEEDS:0.000=1.000=0.000=0;
#SCROLLS:0.000=1.000;
#FAKES:;
#LABELS:0.000=Song Start;
#LASTSECONDHINT:118.000000;
#BGCHANGES:;
#KEYSOUNDS:;
#ATTACKS:
;

//---------------dance-single - XO BU- FS-----------------
#NOTEDATA:;
#CHARTNAME:;
#STEPSTYPE:dance-single;
#DESCRIPTION:XO BU- FS-;
#CHARTSTYLE:;
#DIFFICULTY:Challenge;
#METER:14;
#RADARVALUES:0.663444,0.894287,0.254239,0.855939,0.114408,548.000000,518.000000,30.000000,101.000000,11.000000,0.000000,0.000000,0.000000,0.000000,0.663444,0.894287,0.254239,0.855939,0.114408,548.000000,518.000000,30.000000,101.000000,11.000000,0.000000,0.000000,0.000000,0.000000;
#CREDIT:Kingly;
#NOTES:
0000
0000
0000
0000
,
0000
0000
0000
0000
,
0000
0000
0000
0000
,
0000
0000
0000
0000
,
0000
0000
0000
0000
,
0000
0000
0000
0000
,
0000
0000
0000
0000
,
0000
0000
0000
0000
,
0022
0033
0000
2200
3300
0000
2002
3003
,
0000
0001
0100
0000
0001
1000
0001
1000
,
0100
0000
1000
0000
0010
0000
0100
0001
,
0000
0010
0001
0000
1000
0000
0010
0000
,
0101
0000
0001
0000
0010
0000
0001
0100
,
0000
0010
0001
0000
0010
0000
0100
0000
,
0101
0000
0001
0000
0010
0000
0100
1000
,
0000
0010
1000
0000
0001
0000
0010
0000
,
0022
0033
0000
0000
0000
0000
0000
0000
0000
0000
0000
0000
2200
3300
0000
0000
0000
0000
0000
0000
0000
0000
0000
0000
0102
0000
0000
0000
0000
0000
0000
0000
,
0000
1003
2001
0000
0000
0000
3100
0000
,
0020
0000
0000
0032
0000
0000
0103
0000
,
0010
1000
0001
0100
,
2000
0000
0000
3200
0000
0000
0310
0000
,
1000
0001
1000
0000
0100
0000
0010
0000
,
0002
0000
0000
2003
0000
0000
3010
0000
,
0100
0001
0100
0010
,
2000
0000
0000
3002
0000
0000
0013
0000
,
0100
0000
1000
0000
0001
0100
0001
0100
,
0020
0000
0000
2030
0000
0000
3100
0000
,
0010
0001
1000
0100
,
0002
0000
0000
0203
0000
0000
0310
0000
,
0001
1000
0001
0000
0100
0000
0010
0000
,
2000
0000
0000
3200
0000
0000
0320
0000
,
0000
0031
1000
0001
,
0100
0000
0010
1000
0000
0001
0010
0000
,
0100
0000
1000
0001
0100
0010
1000
0010
,
1000
0000
0001
0010
0000
0001
0100
0000
,
1000
0000
0100
0010
0000
1000
0010
0000
,
0100
0000
0001
0010
0000
0001
1000
0000
,
0010
0000
0100
0001
0100
0001
1000
0000
,
1200
0000
0000
0310
,
0002
0000
0000
0000
2003
0000
0000
3000
,
1010
0000
0000
0101
0000
0000
1100
0000
,
2001
0000
0000
0000
0000
0000
0000
0000
3001
0000
0000
0000
0100
00M0
0100
0000
,
1000
0000
0000
0000
0001
0000
0000
0000
0100
00M0
0100
0000
1000
0000
0100
0000
,
0010
0000
0000
0000
0001
0000
0000
0000
0100
00M0
0100
0000
1000
0000
0100
0000
,
0020
0000
0000
2030
0000
0000
3020
0000
,
0031
0000
1000
0000
0001
0010
0000
0001
,
0100
0000
0010
0000
1000
0100
0000
1000
,
0010
0000
0100
0000
0001
1000
0100
0000
,
1000
0001
0200
0000
1300
0100
0020
0000
,
1030
0000
0001
0000
2000
0000
0000
0000
3100
00M0
0100
0000
0001
0000
0100
0000
,
0010
0000
0000
0000
1000
0000
0000
0000
0100
00M0
0100
0000
0001
0000
0100
0000
,
0010
0000
0000
0000
1000
0000
0000
0000
0100
00M0
0100
0000
0001
0000
0100
0000
,
0020
0000
0000
0032
0000
0000
0023
0000
,
1030
0000
0001
0000
1000
0010
0000
1000
,
0100
0000
0010
0000
2000
0000
0000
3020
,
0000
0000
0031
0000
0200
0020
0000
0330
,
2001
0100
3002
0103
,
0010
1000
0010
1000
0001
0010
0001
0010
,
0100
0000
1000
0000
0010
0000
0100
0001
,
0000
0010
0001
0000
1000
0000
0010
0000
,
0100
0000
0001
0000
0010
0000
0001
0100
,
0000
0010
0001
0000
0010
0000
0100
0000
,
1000
0000
0100
0000
0001
0000
1000
0100
,
0000
1000
0010
1000
0010
0100
0001
2000
,
0200
3300
0000
0000
0000
0000
0000
0000
0000
0000
0000
0000
0022
0033
0000
0000
0000
0000
0000
0000
0000
0000
0000
0000
1020
0000
0000
0000
0000
0000
0000
0000
,
0000
0130
0002
0000
2003
0000
3200
0000
,
0302
0000
0000
0203
0000
0000
0320
0000
,
0000
0000
0000
0031
0010
0100
1000
0000
0000
0001
0000
0000
,
0200
0000
0310
1000
0000
0100
1000
0000
,
0001
0000
0100
0010
1000
0010
0100
0000
,
0002
0000
0000
1003
0100
0010
0001
0000
0000
1000
0010
0100
,
0001
0000
0000
0000
0000
0000
1000
0000
0000
0001
0000
0000
0100
0000
0000
0000
0001
0000
0000
0000
0010
0000
0000
0000
,
0100
0000
1000
0000
0001
0000
0100
0000
0010
0000
0100
0000
,
2000
0000
0000
0000
,
3200
0000
0310
1000
0001
0010
0001
0100
,
0020
0000
1030
0010
0001
0010
0100
0001
,
2000
0000
3100
0010
1000
0010
0001
1000
,
0200
0000
0310
0001
2000
0000
3020
0000
,
0130
0001
0100
0001
1000
0100
1000
0100
,
0010
0001
1000
0100
0001
0100
0010
0001
,
2000
0000
0000
0000
3001
0100
0001
0000
0000
0000
1000
0100
1000
0000
0000
0000
,
1002
0000
0000
0000
0000
0000
0000
0000
1003
0000
0000
0000
0100
00M0
0200
0000
,
0002
0000
0000
0303
,
2200
0000
0000
3300
,
0220
0000
0000
0330
,
1002
0000
0103
0010
1000
0001
0000
1000
,
0200
0000
0000
0000
0310
0001
0000
1000
,
1001
0000
0001
0000
0100
0020
0000
0000
,
1030
1000
0001
0001
,
0010
0000
0100
0000
1000
0000
0001
0000
0100
00M0
0100
0000
1000
0000
0100
0000
,
0010
0000
0000
0000
0001
0000
0000
0000
0100
00M0
0100
0000
1000
0000
0100
0000
,
0010
0000
0000
0000
0001
0000
0000
0000
0100
00M0
0100
0000
1000
0000
0100
0000
,
0020
0000
0000
2030
0000
0000
3010
0000
,
0001
0000
1000
0000
0001
0010
0000
0001
,
0100
0000
0010
0000
0002
0000
0000
0023
,
0000
0000
1030
0000
0200
0020
0000
0330
,
1002
0100
2003
3100
,
0010
0001
0010
0001
1000
0010
1000
0010
,
0200
0001
0000
0001
,
0000
0000
0000
0000
0301
0000
0000
0000
0100
00M0
0100
0000
1000
0000
0100
0000
,
0002
0000
0000
2003
0000
0000
3010
0000
,
0001
0000
1000
0000
0100
1000
0000
0001
,
0100
0000
0010
0000
1000
0100
0000
1000
,
0010
0000
0100
0000
0001
1000
0001
0000
,
0010
0001
0200
0000
1300
0100
0020
0000
,
1030
0001
1000
0000
0100
0000
0000
0000
1000
0001
1000
0000
0010
0000
0100
0000
,
0001
0010
0001
0010
0100
1000
0100
1000
,
0001
0100
0010
1000
0001
0010
0100
1000
,
0001
1000
0100
0010
0001
0100
0001
1000
,
0100
1000
0010
1000
0001
0100
0010
1000
,
0001
0000
0100
0000
0020
0000
0000
2030
,
0000
0000
3001
0000
0010
0100
0000
0000
,
1000
0001
0100
0010
,
2020
3030
0000
0000
0000
0000
0000
0000
0220
0330
0000
0000
0000
0000
0000
0000
,
0101
0000
0001
0000
0010
0000
0100
1000
,
0000
0010
1000
0000
0001
0000
0010
0000
,
2200
3300
0000
0000
0000
0000
0202
0303
0000
0000
0000
0000
2010
0000
0000
0000
,
0000
3001
1001
0000
0000
0000
0000
0000
;

//---------------dance-single - ----------------
#NOTEDATA:;
#CHARTNAME:;
#STEPSTYPE:dance-single;
#DESCRIPTION:;
#CHARTSTYLE:;
#DIFFICULTY:Hard;
#METER:12;
#RADARVALUES:0.529060,0.695557,0.194917,0.771193,0.016949,437.000000,414.000000,23.000000,91.000000,0.000000,0.000000,0.000000,0.000000,0.000000,0.529060,0.695557,0.194917,0.771193,0.016949,437.000000,414.000000,23.000000,91.000000,0.000000,0.000000,0.000000,0.000000,0.000000;
#CREDIT:Kingly;
#NOTES:
0000
0000
0000
0000
,
0000
0000
0000
0000
,
0000
0000
0000
0000
,
0000
0000
0000
0000
,
0000
0000
0000
0000
,
0000
0000
0000
0000
,
0000
0000
0000
0000
,
0000
0000
0000
0000
,
1100
0000
0000
0101
0000
0000
1001
0000
,
0000
0000
1000
0000
0100
0010
0001
0010
,
0001
0000
1000
0000
0010
0000
0100
0001
,
0000
0100
0001
0000
1000
0000
0100
0000
,
0010
0000
0001
0000
1000
0000
0010
1000
,
0000
0010
1000
0000
0100
0000
0010
0000
,
0001
0000
1000
0000
0010
0000
0100
0001
,
0000
0100
0001
0000
0010
0000
0001
0000
,
1001
0000
0000
1100
0000
0000
0012
0000
,
0000
2003
0000
3200
,
0320
0000
0000
0032
0000
0000
2003
0000
,
0000
3010
0100
0001
,
0020
0000
0000
0032
0000
0000
2003
0000
,
0000
0010
0000
3001
,
0020
0000
0000
0230
0000
0000
2300
0000
,
0000
3001
0100
0010
,
2000
0000
0000
3200
0000
0000
0320
0000
,
0032
0000
0000
0000
1003
0000
0001
0100
,
0002
0000
0000
0023
0000
0000
0230
0000
,
0000
1300
0001
0100
,
0020
0000
0000
2030
0000
0000
3200
0000
,
0000
0310
0001
0010
,
0200
0000
0000
2300
0000
0000
3020
0000
,
0000
0230
0000
0301
,
2000
0000
0000
3200
0000
0000
0310
0000
,
0001
0000
0001
0000
1000
0010
1000
0010
,
2000
0000
0000
3002
0000
0000
0013
0000
,
0200
0000
0000
2300
0000
0000
3001
0000
,
0200
0000
0000
0320
0000
0000
2030
0000
,
0000
3001
0010
0100
,
2001
0000
0000
3002
,
0203
0000
0320
0000
,
1000
0000
0000
1000
0000
0000
1030
0000
,
1001
0000
0000
0000
0001
0000
1000
0001
,
0020
0000
0000
0000
0031
1000
0001
1000
,
0020
0000
0000
0000
1030
0001
1000
0001
,
0020
0000
0000
0230
0000
0000
1300
0000
,
0001
0000
0100
0000
0010
1000
0000
0010
,
1000
0000
0001
0000
0010
0001
0000
0010
,
0001
0000
1000
0000
0010
0200
0000
0000
,
0302
0000
2003
0000
,
3100
0000
0010
0000
0001
1000
0001
1000
,
0020
0000
0000
0000
1030
0001
1000
0001
,
0020
0000
0000
0000
0031
1000
0001
1000
,
0020
0000
0000
0230
0000
0000
0301
0000
,
1000
0000
0100
0000
0010
0001
0000
0010
,
0001
0000
1000
0000
0020
0000
0000
0230
,
0000
0000
0301
0000
1000
0002
0000
0000
,
0013
0100
1000
0100
,
0010
0001
0000
0100
0000
0002
0000
0000
,
1003
0000
0100
0000
0010
0000
0001
1000
,
0000
0001
1000
0000
0010
0000
0100
0000
,
0001
0000
1000
0000
0100
0000
0010
0001
,
0000
0010
0001
0000
1000
0000
0010
0000
,
0001
0000
0010
0000
0100
0000
0001
1000
,
0000
0001
1000
0000
0100
0000
0010
0000
,
0011
0000
0000
1010
0000
0000
1001
0000
,
0000
1000
0100
0010
,
0002
0000
0000
0203
0000
0000
0320
0000
,
0000
0000
1030
0001
1000
0000
0100
0000
,
0020
0000
0000
0032
0000
0000
2003
0000
,
0000
3010
0100
0001
,
1000
0000
0001
0010
0001
0000
1000
0010
,
1000
0000
0001
0010
0002
0000
0000
0000
,
1003
0000
0100
0000
1000
0000
0001
0000
0100
0000
0001
0000
,
0020
0000
0000
0000
,
0130
0000
1000
0001
1000
0000
0010
0000
,
0100
0000
0001
1000
0001
0000
0010
0000
,
0100
0000
1000
0001
1000
0000
0010
0000
,
0200
0000
0301
0010
,
0100
0000
1000
0010
1000
0000
0001
0010
,
0001
0100
0010
1000
,
1001
0000
0001
0100
0000
0010
1000
0000
,
1002
0000
0000
0000
0013
0000
0001
0200
,
0020
0000
0330
0000
,
2002
0000
3003
0000
,
0022
0000
0033
0000
,
1100
0000
0001
0000
1000
0010
0000
2000
,
0020
0000
3030
0000
,
0202
0000
0303
0000
,
1000
1000
0001
0001
,
0010
0000
0100
0000
1000
0001
1000
0001
,
0200
0000
0000
0000
0301
1000
0001
1000
,
0200
0000
0000
0000
1300
0001
1000
0001
,
0200
0000
0000
0320
0000
0000
1030
0000
,
0001
0000
0010
0000
0100
1000
0000
0100
,
1000
0000
0001
0000
0200
0000
0000
0320
,
0000
0000
1030
0000
0100
2000
0000
0000
,
3001
0001
1000
1000
,
0010
0100
0000
0001
0000
0100
0000
0000
,
0020
0000
0000
0000
,
0000
0000
0030
0000
1000
0001
1000
0001
,
0020
0000
0000
0230
0000
0000
1300
0000
,
0010
0000
1000
0000
0001
0010
0000
0001
,
0010
0000
0100
0000
1000
0010
0000
1000
,
0010
0000
0100
0000
0001
1000
0000
0001
,
1000
0100
0001
0100
,
0010
0001
0010
0000
0100
1000
0100
1000
,
0001
0000
0100
0000
0010
1000
0010
1000
,
0001
0000
0010
0000
0100
1000
0100
1000
,
0002
0000
0000
0203
0000
0000
0310
0000
,
1000
0000
0001
0000
0010
0100
0000
0010
,
0100
0000
1000
0000
0002
0000
0000
0203
,
0000
0000
0310
0000
1000
0002
0000
0000
,
0013
0100
1000
0100
,
0110
0000
1001
0000
,
0001
0000
0100
0000
0010
0000
0100
0001
,
0000
0100
0001
0000
1000
0000
0100
0000
,
0011
0000
0000
1100
0000
0000
0220
0000
,
0330
1001
0000
0000
;

//---------------dance-single - ----------------
#NOTEDATA:;
#CHARTNAME:;
#STEPSTYPE:dance-single;
#DESCRIPTION:;
#CHARTSTYLE:;
#DIFFICULTY:Medium;
#METER:8;
#RADARVALUES:0.374095,0.447144,0.000000,0.703396,0.000000,309.000000,309.000000,0.000000,83.000000,0.000000,0.000000,0.000000,0.000000,0.000000,0.374095,0.447144,0.000000,0.703396,0.000000,309.000000,309.000000,0.000000,83.000000,0.000000,0.000000,0.000000,0.000000,0.000000;
#CREDIT:Kingly;
#NOTES:
// measure 0
0000
0000
0000
0000
,  // measure 1
0000
0000
0000
0000
,  // measure 2
0000
0000
0000
0000
,  // measure 3
0000
0000
0000
0000
,  // measure 4
0000
0000
0000
0000
,  // measure 5
0000
0000
0000
0000
,  // measure 6
0000
0000
0000
0000
,  // measure 7
0000
0000
0000
0000
,  // measure 8
1000
0000
0000
1000
0000
0000
1000
0000
,  // measure 9
0000
0001
0100
0010
,  // measure 10
1000
0000
0001
0000
0010
0000
0000
0100
,  // measure 11
0000
0010
0001
0000
,  // measure 12
1000
0000
0010
0000
0100
0000
0000
0001
,  // measure 13
0000
0100
0010
0000
,  // measure 14
1000
0000
0001
0000
0010
0000
0000
0100
,  // measure 15
0000
1000
0100
0000
,  // measure 16
0010
0000
0000
0010
0000
0000
0010
0000
,  // measure 17
0000
0001
0000
1000
,  // measure 18
0020
0000
0000
0230
,  // measure 19
0000
0301
1000
0100
,  // measure 20
0020
0000
0000
0032
,  // measure 21
0000
0000
1003
0010
,  // measure 22
2000
0000
0000
3200
,  // measure 23
0000
0000
0310
0001
,  // measure 24
2000
0000
0000
0000
,  // measure 25
3020
0000
0230
0000
,  // measure 26
0302
0000
0000
2003
,  // measure 27
0000
3100
0010
0001
,  // measure 28
2000
0000
0000
3020
,  // measure 29
0000
0000
0130
0001
,  // measure 30
2000
0000
0000
3200
,  // measure 31
0000
0320
0000
0031
,  // measure 32
2000
0000
0000
3020
0000
0000
0130
0000
,  // measure 33
0001
1000
0001
1000
,  // measure 34
0100
0000
0000
0010
0000
0000
0001
0000
,  // measure 35
0100
0000
0000
0010
0000
0000
1000
0000
,  // measure 36
0001
0000
0000
0010
0000
0000
0200
0000
,  // measure 37
0000
0000
1300
0001
,  // measure 38
2000
0000
0000
3010
,  // measure 39
0200
0000
0302
0000
,  // measure 40
1000
0000
0000
1000
0000
0000
1000
0000
,  // measure 41
1003
0000
0001
0010
,  // measure 42
0001
0000
1000
0010
,  // measure 43
1000
0000
0001
0100
,  // measure 44
0020
0000
0000
2030
0000
0000
3100
0000
,  // measure 45
1000
0001
1000
0001
,  // measure 46
0200
0000
0310
1000
,  // measure 47
0010
0100
0002
0000
,  // measure 48
2003
0000
3200
0000
,  // measure 49
0320
0000
0031
0010
,  // measure 50
0001
0000
1000
0010
,  // measure 51
1000
0000
0001
0100
,  // measure 52
0020
0000
0000
2030
0000
0000
3100
0000
,  // measure 53
1000
0001
1000
0001
,  // measure 54
0200
0000
0000
0000
0320
0000
0000
2030
,  // measure 55
0000
3001
2000
0000
,  // measure 56
3100
0010
0100
0010
,  // measure 57
0001
1000
0010
0100
,  // measure 58
0001
1000
0001
0010
,  // measure 59
0000
0100
0000
1000
,  // measure 60
0001
0100
0001
1000
,  // measure 61
0000
0100
0000
0010
,  // measure 62
0001
1000
0001
0100
,  // measure 63
0000
0010
1000
0010
,  // measure 64
0100
0000
0000
0100
0000
0000
0100
0000
,  // measure 65
0000
0001
1000
0100
,  // measure 66
0020
0000
0000
0032
0000
0000
2003
0000
,  // measure 67
0000
3010
0100
0001
,  // measure 68
2000
0000
0000
3020
0000
0000
0230
0000
,  // measure 69
0000
0301
1000
0100
,  // measure 70
0010
0001
0100
0001
,  // measure 71
1000
0100
0010
0001
,  // measure 72
2000
0000
3020
0000
,  // measure 73
0230
0000
0000
0000
,  // measure 74
0301
1000
0100
0000
,  // measure 75
1000
0001
0100
0000
,  // measure 76
0010
1000
0001
0000
,  // measure 77
0020
0000
0130
1000
,  // measure 78
0020
0000
0000
0130
,  // measure 79
0002
0000
2003
0000
,  // measure 80
3100
0000
0010
0000
0000
0010
0000
0000
,  // measure 81
0002
0000
1003
0010
,  // measure 82
1000
0000
0001
0010
,  // measure 83
0001
0000
1000
0100
,  // measure 84
0020
0000
0000
0032
0000
0000
0103
0000
,  // measure 85
0001
1000
0001
1000
,  // measure 86
0200
0000
0310
0001
,  // measure 87
0010
0100
2000
0000
,  // measure 88
3002
0000
0203
0000
,  // measure 89
0320
0000
1030
0010
,  // measure 90
1000
0000
0001
0010
,  // measure 91
0001
0000
1000
0100
,  // measure 92
0020
0000
0000
0032
0000
0000
0103
0000
,  // measure 93
0001
1000
0001
1000
,  // measure 94
0200
0000
0000
0000
0320
0000
0000
0032
,  // measure 95
0000
1003
0020
0000
,  // measure 96
0130
0001
0100
0001
,  // measure 97
2000
0000
3200
0000
,  // measure 98
0320
0000
0000
0000
,  // measure 99
0000
0000
0031
1000
,  // measure 100
0020
0000
0000
0230
0000
0000
0310
0000
,  // measure 101
1000
0001
0010
0100
,  // measure 102
1000
0000
0000
0000
0002
0000
0000
0203
,  // measure 103
0000
0301
2000
0000
,  // measure 104
3200
0000
0320
0000
,  // measure 105
0032
0000
1003
0010
,  // measure 106
1000
0001
1000
0001
,  // measure 107
0010
0001
0010
0001
,  // measure 108
1000
0010
1000
0010
,  // measure 109
0100
0001
0100
0001
,  // measure 110
2000
0000
0000
0000
3200
0000
0000
0320
,  // measure 111
0000
0031
2000
0000
,  // measure 112
3020
0000
0000
0000
,  // measure 113
0100
0000
0230
0000
,  // measure 114
0301
0000
1000
0000
0002
0000
0000
0023
,  // measure 115
0000
0130
1000
0002
,  // measure 116
0100
0000
0000
0100
0000
0000
0203
0000
,  // measure 117
0000
0310
0000
0000
;
