#VERSION:0.83;
#TITLE:RAGE feat.H14 of LEONAIR;
#SUBTITLE:;
#ARTIST:DJ Mass MAD Izm*;
#TITLETRANSLIT:;
#SUBTITLETRANSLIT:;
#ARTISTTRANSLIT:;
#GENRE:MIXTURE;
#CREDIT:;
#MUSIC:RAGE feat.H14 of LEONAIR.ogg;
#BANNER:RAGE feat.H14 of LEONAIR.png;
#BACKGROUND:RAGE feat.H14 of LEONAIR-bg.png;
#CDTITLE:./CDTitles/bm IIDX 29 CastHour.png;
#SAMPLESTART:76.611;
#SAMPLELENGTH:15.000;
#SELECTABLE:YES;
#OFFSET:1.446;
#BPMS:0.000=166.000;
#STOPS:199.500=0.723;
#TIMESIGNATURES:0.000=4=4,
196.000=6=4,
202.000=4=4
;
#BGCHANGES:4.000=RAGE feat.H14 of LEONAIR.mp4=1.000=0=0=0=StretchNoLoop====,
99999.000=-nosongbg-=1.000=0=0=0=StretchNoLoop====
;
#FGCHANGES:;

//--------------- dance-single - forcednature ----------------
#NOTEDATA:;
#STEPSTYPE:dance-single;
#DESCRIPTION:forcednature;
#DIFFICULTY:Beginner;
#METER:6;
#RADARVALUES:0,0,0,0,0;
#CREDIT:forcednature;
#NOTES:
0000
0000
0000
0000
,
0000
0000
0000
0000
,
0000
0000
0000
0000
,
0000
0000
0000
0000
,
0000
0000
0000
0000
,
0000
0000
0000
0000
,
0001
0000
0100
0000
,
0000
0000
0001
0000
,
1000
0000
0100
0000
,
0000
0000
1000
0000
,
0010
0000
0000
0000
,
0010
0000
0100
0000
,
0001
0000
0000
0000
,
0001
0000
1000
0000
,
0100
0000
0000
0000
,
0100
0000
0010
0000
,
0001
0000
0000
0000
,
1000
0000
0010
0000
,
1000
0000
0100
1000
,
0000
1000
0100
0000
,
0010
0000
0001
0010
,
0000
0010
0001
0000
,
0001
0000
0100
0001
,
0000
0001
0100
0000
,
0010
0000
1000
0010
,
0000
0010
1000
0000
,
1001
0000
0010
0000
,
1001
0000
0100
0000
,
1001
0000
0010
0000
,
1000
0000
0001
0000
,
0110
0000
1000
0000
,
0110
0000
0001
0000
,
0110
0000
0010
0000
,
1000
0000
0001
0000
,
0100
0000
0001
0000
,
0100
0001
0100
0000
,
0001
0000
0010
0000
,
0001
0010
0001
0000
,
1000
0000
0010
0000
,
1000
0010
1000
0000
,
0100
0000
1000
0000
,
0100
0000
0000
0000
,
1000
0000
0001
0100
,
0000
0100
0001
0000
,
0010
0000
0001
0100
,
0000
0100
0001
0000
,
0001
0000
1000
0100
,
0000
0100
1000
0000
,
0010
0000
1000
0100
,
0000
0100
1000
0000
,
0010
0100
0000
0100
,
0010
0000
1001
0000
,
0100
0000
0001
0000
,
1000
0000
0001
0000
,
0010
0100
0000
0100
,
0010
0000
1001
0000
,
0100
0000
1001
0000
,
0010
0000
1000
0000
,
0001
0000
0100
0000
,
0001
0000
1000
0000
,
0010
0000
1000
0000
,
0001
1000
0001
0000
,
0010
0000
0001
0000
,
1000
0000
0100
0000
,
1000
0000
0001
0000
,
0100
0010
0100
0000
,
0100
0000
0001
0000
,
1000
0000
0100
0000
,
0100
0000
1000
0001
,
1000
0000
0010
0000
,
0010
0000
0100
0000
,
0001
0000
0010
0000
,
0010
0000
0001
1000
,
0001
0000
0100
0000
,
0010
0000
0000
0000
,
0010
0000
1000
0000
,
0001
0000
0000
0000
,
1000
0000
0100
0000
,
0010
0000
0000
0000
,
0010
0000
0001
0000
,
0100
0000
0000
0000
,
0010
0000
0000
0000
;

//--------------- dance-single - forcednature ----------------
#NOTEDATA:;
#STEPSTYPE:dance-single;
#DESCRIPTION:forcednature;
#DIFFICULTY:Easy;
#METER:10;
#RADARVALUES:0,0,0,0,0;
#CREDIT:forcednature;
#NOTES:
0000
0000
0000
0000
,
0000
0000
0000
0000
,
0000
0000
0000
0000
,
0000
0000
0000
0000
,
0000
0000
0000
0000
,
0000
0000
0000
0000
,
1001
0000
0001
0100
,
0000
0001
0010
0100
,
1000
0000
0010
1000
,
0001
0100
0001
0000
,
1000
1000
0100
1000
,
0010
0000
0100
0000
0001
1000
0001
0000
,
0010
0010
0100
0010
,
0001
0000
0100
0000
0001
1000
0001
0000
,
0010
0010
0100
0010
,
0001
0000
1000
0000
0001
0100
0001
0000
,
1000
1000
0010
1000
,
0100
0000
0010
0000
0100
1000
0100
0000
,
0010
0001
0101
1000
,
0000
0010
1100
0001
,
0000
0100
1010
0100
,
0011
0100
1010
0001
,
0000
0010
1100
0001
,
0000
0010
0101
1000
,
0000
0010
1100
0010
,
0101
0010
1000
1000
,
1100
0000
0000
1100
0000
0000
0001
0000
,
0101
0000
0000
0101
0000
0000
1000
0000
,
1001
0000
0000
1001
0000
0000
0001
0000
,
0200
0320
2030
3001
,
0011
0000
0000
1100
0000
0000
0001
0000
,
1010
0000
0000
0101
0000
0000
1000
0000
,
0110
0000
0000
1001
0000
0000
1000
0000
,
0020
0230
0302
2003
,
3100
0000
0010
0100
0010
0000
0001
0010
,
0002
0023
0230
2300
,
3001
0000
0100
0001
0100
0000
0010
0100
,
0020
2030
3002
0023
,
0130
0000
1000
0100
1000
0000
0010
1000
,
0020
0230
0302
2003
,
3100
0000
0010
0100
0010
0000
0001
0010
,
0002
0000
0000
0003
,
1000
0000
0000
1000
0100
0000
0010
0000
,
0000
0010
0001
0000
0100
0000
0010
0000
,
1000
0001
0010
0022
,
0033
1000
0010
1010
,
0001
0000
0000
0001
0100
0000
0010
0000
,
0000
0010
1000
0000
0100
0000
0110
0000
,
0000
0010
0001
0202
,
0303
0000
0010
0000
1000
0000
2200
3300
,
1000
0001
1000
0000
0010
0000
0100
0000
,
0001
0000
1001
0000
1000
0000
0100
0010
,
0200
0000
1300
0000
0001
0000
0100
0010
,
0200
0000
0301
0000
1000
0000
1000
0100
,
0000
0100
0010
0000
0010
0001
0000
0001
,
1000
0000
1000
0000
0001
0000
0100
0001
,
0200
0000
0310
0000
1000
0000
0100
1000
,
0200
0000
0310
0000
0011
0000
0000
0101
,
0000
0000
1100
0000
0000
1010
0000
0000
,
1000
0000
1001
0000
0001
0000
0000
0011
,
0000
0000
0110
0000
0000
1100
0000
0000
,
1000
0000
1001
0000
0001
0000
0001
0100
,
0000
0100
0010
0000
0010
1000
0000
1000
,
0001
0000
0001
0000
1000
0000
1000
0100
,
0000
0100
0010
0000
0010
0001
0000
0001
,
1000
1000
0010
0110
,
0000
0110
0000
0000
0200
0000
0302
0000
,
2003
3200
0300
1001
,
0000
1001
0000
0000
2000
0000
3020
0000
,
0230
0302
0003
0011
,
0000
0011
0000
0000
0002
0000
0203
0000
,
0302
2003
3000
1010
,
0000
1010
0000
0000
2000
0000
3200
0000
,
2300
0000
3002
0000
0103
0000
0000
0010
,
0100
0000
0010
0000
0000
0100
0010
0000
,
1000
0000
0001
0000
0010
0000
0000
0100
,
0010
0000
0100
0000
0000
0010
0100
0000
,
2000
0000
3002
0000
0103
0000
0000
0100
,
0001
0000
0100
0000
0000
0100
0001
0000
,
1000
0000
0010
0000
1000
0000
0000
1000
,
0100
0000
1000
0000
0000
1000
0100
0000
,
0020
0032
0003
0000
;

//--------------- dance-single - forcednature ----------------
#NOTEDATA:;
#STEPSTYPE:dance-single;
#DESCRIPTION:forcednature;
#DIFFICULTY:Medium;
#METER:13;
#RADARVALUES:0,0,0,0,0;
#CREDIT:forcednature;
#NOTES:
0000
0000
0000
0000
,
0000
0000
0000
0000
,
0000
0000
0000
0000
,
0000
0000
0000
0000
,
0000
0000
0000
0000
,
0000
0000
0000
0000
,
1001
0000
0001
0100
0010
0000
1000
0001
,
0000
0010
0000
0100
1000
0000
0001
0000
,
1001
0000
1000
0100
0010
0000
0001
1000
,
0000
0010
0000
0100
0001
0000
1000
0000
,
1001
0000
0001
0100
0000
1000
0100
0000
,
0010
1000
0001
0100
0010
0000
2002
0000
,
3003
0000
1000
0100
0000
0001
0100
0010
,
0100
1000
0001
1000
0010
0100
0001
0200
,
0300
0000
0001
0010
0000
1000
0010
0000
,
0001
0100
0010
1000
0001
0000
2002
0000
,
3003
0000
1000
0010
0000
0001
0010
0100
,
0010
1000
0001
1000
0100
0010
0001
0020
,
0030
0100
1000
0010
0001
0010
1000
0002
,
0000
0103
0001
0010
1000
0010
0001
2000
,
0000
3010
0100
0001
1000
0100
0010
0001
,
1000
0010
0100
0001
1000
0100
0001
0200
,
0000
0310
0001
0100
1000
0100
0001
2000
,
0000
3010
1000
0100
0001
0100
1000
0002
,
0000
0103
0010
1000
0001
0010
0100
1000
,
0001
0100
0010
1000
0100
0001
0100
1000
,
1100
0000
0000
0010
0000
0000
0101
0000
0000
0000
1000
0000
0001
0000
0100
0000
,
0101
0000
0000
0010
0000
0000
1100
0000
0000
0000
0001
0000
1000
0000
0100
0000
,
0110
0000
0000
0001
0000
0000
1001
0000
0000
0000
1000
0000
0010
0000
1000
0000
,
0001
0010
0000
0000
0010
0100
0000
0000
0100
0000
1000
0000
0010
0000
0000
0000
,
1100
0000
0000
0001
0000
0000
1010
0000
0000
0000
0010
0000
1000
0000
0001
0000
,
0101
0000
0000
1000
0000
0000
0011
0000
0000
0000
0010
0000
0001
0000
1000
0000
,
1010
0000
0000
0100
0000
0000
0011
0000
0000
0000
0001
0000
1000
0000
0100
0000
,
0010
0001
0000
0000
0001
0100
0000
0000
0100
0000
0010
0000
0010
0000
0000
0000
,
1000
0100
0010
0100
1000
0001
0100
0001
,
0020
0230
2300
3002
,
0103
0010
1000
0010
0100
0001
0010
0001
,
2000
3200
0302
0203
,
0310
0001
0100
0001
1000
0100
1000
0010
,
0200
2300
3200
0302
,
1003
1000
0001
0010
0100
0100
1000
0001
,
0200
0000
0000
0300
,
0010
1000
0100
0010
0110
0000
0010
0001
,
0100
0010
0110
0000
0101
0000
1100
0000
,
0001
0010
1000
0010
0001
0000
1001
0000
,
1000
0010
0001
0010
1000
0000
1001
0000
,
1000
0100
1000
0010
0110
0000
0001
0100
,
0001
0010
0110
0000
0011
0000
1010
0000
,
0001
0100
1000
0100
0001
0000
1001
0000
,
1000
0000
0000
0000
0100
0000
0000
0000
0001
0000
0000
0000
0100
0000
0000
0000
1000
0000
0000
0000
0000
0000
0000
0000
2002
0000
0000
0000
0000
3003
0000
0000
,
1000
0010
0100
0010
0001
0010
0100
0010
,
1000
0000
1001
0000
0001
0100
1000
0001
,
0010
0000
1010
0000
1000
0100
0001
1000
,
0010
0000
0011
0000
0001
0010
0100
0010
,
1000
0010
0100
0010
0001
0100
1000
0100
,
0010
0000
1001
0000
1000
0010
0001
1000
,
0100
0000
0101
0000
0001
0010
1000
0001
,
0100
0000
1100
0000
1000
0010
0001
0010
,
1000
0100
1000
0010
0001
0010
1000
0100
,
0110
0000
1001
0000
0001
0010
1000
0010
,
0001
0100
0001
0010
1000
0010
0001
0100
,
0110
0000
1001
0000
1000
0100
0001
1000
,
0010
0001
1000
0100
0001
1000
0010
0001
,
1001
0000
0110
0000
0001
0100
1000
0001
,
0010
1000
0001
0100
1000
0001
0010
1000
,
1001
0000
0110
0000
1000
0100
0010
0010
,
0001
0100
0100
0001
0010
0100
1000
0001
,
0100
0000
1001
0000
0001
0100
0010
0010
,
1000
0100
0100
1000
0010
0100
0001
1000
,
0100
0010
0001
1000
0010
0000
0100
0100
,
1000
0100
0100
0001
0010
0100
1000
0001
,
0100
0010
1000
0000
1100
0000
0100
0100
,
0001
0100
0100
1000
0010
0100
0001
1000
,
0100
0100
0010
0010
0001
0000
0100
0010
,
1000
0000
0001
0010
0000
0100
0010
0000
,
0002
0000
2003
0000
0000
3000
0020
0000
,
0000
0030
0100
0001
1000
0001
0010
0100
,
1000
0001
0100
0000
0110
0000
0010
1000
,
0001
0000
0010
0000
0100
1000
0001
0000
,
0100
0010
2000
0000
0000
3000
0002
0000
,
0003
0010
0100
1000
0020
0000
0130
0001
,
1000
2002
0000
0000
,
0000
3003
0000
0000
;

//--------------- dance-single - forcednature ----------------
#NOTEDATA:;
#STEPSTYPE:dance-single;
#DESCRIPTION:forcednature;
#DIFFICULTY:Hard;
#METER:16;
#RADARVALUES:0,0,0,0,0;
#CREDIT:forcednature;
#NOTES:
0000
0000
0000
0000
,
0000
0000
0000
0000
,
0000
0000
0000
0000
,
0000
0000
0000
0000
,
0000
0000
0000
0000
,
0000
0000
0000
0000
,
1001
0000
0001
0100
1000
0000
0100
0010
,
0000
0010
1000
0001
0010
0100
1000
0000
,
1001
0000
1000
0100
0001
0000
0100
1000
,
0000
1000
0010
1000
0001
0001
0010
0000
,
0100
0000
0000
1000
0010
0000
0010
0000
1000
0000
0100
0000
0100
0000
1000
0000
,
0001
0000
0100
0001
0100
0000
0010
0000
1000
0000
0010
1000
0020
0000
0000
0000
,
0130
0000
0000
0001
0010
0000
0010
0000
0001
0000
0100
0000
0100
0000
0010
0000
,
1000
0000
0100
1000
0100
0000
0010
0000
0001
0000
0010
0001
0020
0000
0230
0000
,
1300
0000
0000
0001
0100
0000
0100
0000
1000
0000
0100
0000
0100
0000
0001
0000
,
0010
0000
0001
1000
0001
0000
0100
0000
0010
0000
1000
0001
2000
0000
0000
0000
,
3001
0000
0000
1000
0100
0000
0100
0000
0001
0000
0100
0000
0100
0000
1000
0000
,
0010
0000
1000
0001
1000
0000
0100
0000
0020
0000
0032
0000
2003
0000
3020
0000
,
1030
0000
1000
0100
0010
0011
1001
0101
,
0000
0100
0001
0100
0010
1010
1001
1100
,
0000
0000
0100
0010
0100
0000
1000
0000
0001
0000
0100
0010
0100
0000
0001
0000
,
1000
0000
0100
0010
0100
0000
1000
0000
0010
0000
0100
0000
0110
0000
1001
0000
,
0000
0001
0010
0100
1000
1010
0110
0101
,
0000
1000
0010
0100
0001
0011
0110
1100
,
0000
0000
1000
0010
1000
0000
0001
0000
0100
0000
0001
0010
0001
0000
1000
0000
,
0100
0000
1000
0001
1000
0000
0010
0000
0100
0001
0100
0001
1000
0000
0001
0000
,
0011
0000
0100
1000
0100
0000
0011
0000
1000
0100
1000
0000
0001
0000
0100
0000
,
1010
0000
0100
0001
0100
0000
1010
0000
0001
0100
0001
0000
1000
0000
0100
0000
,
0011
0000
0100
1000
0100
0000
1010
0000
0100
0001
0100
0000
0010
0000
1000
0000
,
0100
1000
0100
0000
1000
0010
1000
0000
0001
0010
0001
0000
0100
0001
0100
0000
,
0110
0000
0010
1000
0100
0000
0110
0000
0010
0001
0100
0000
0001
0000
0010
0000
,
0110
0000
0100
1000
0010
0000
0110
0000
0100
0001
0010
0000
0001
0000
1000
0000
,
0101
0000
0010
1000
0010
0000
1100
0000
0010
0001
0010
0000
0100
0000
1000
0000
,
0010
1000
0010
0000
1000
0100
1000
0000
0001
0100
0001
0000
0010
0000
0100
0000
,
0110
0000
0000
0000
0010
0000
0001
0000
0100
0001
0100
0001
1000
0000
0010
0000
,
0200
1000
0302
0023
,
0130
0000
0000
0000
1000
0000
0001
0000
0100
0010
0100
0010
1000
0000
0001
0000
,
0020
1000
0032
0203
,
0310
0000
0000
0000
0100
0000
0001
0000
0010
0100
0010
0100
1000
0000
0001
0000
,
0200
0000
1000
0010
0302
0000
0013
0100
,
1000
0000
1000
0000
0001
0100
0001
0100
0010
0000
0010
0000
1000
0000
2002
0000
,
0000
0000
0000
0000
0000
0000
0000
3003
,
1000
0000
0100
0010
0001
0000
0100
0000
0001
0010
0100
0000
1000
0000
0010
0100
,
0001
0000
0010
0000
0001
0100
0010
0000
0110
0000
0000
0000
1001
0000
0000
0000
,
0001
0100
0010
0000
1000
0000
0100
0010
0100
0000
1000
0001
0100
0000
0010
0000
,
1000
0000
0001
0010
0100
0000
0010
0001
1000
0000
0010
0000
0110
0000
0000
0000
,
0001
0000
0100
0010
1000
0000
0100
0000
1000
0010
0100
0000
0001
0000
0010
0100
,
1000
0000
0010
0000
1000
0100
0010
0000
0110
0000
0000
0000
1001
0000
0000
0000
,
1000
0100
0010
0000
0001
0000
0100
0010
0100
0000
0001
1000
0100
0000
0010
0000
,
0001
0000
0000
0000
1000
0000
0010
0000
0100
0000
0000
0000
0010
0000
1000
0000
0001
0000
0000
0000
0010
0000
0000
0000
0100
0000
0000
0000
2000
3000
0000
0000
,
0010
0100
0010
0100
0001
0000
0010
0100
1000
0000
0010
0100
0010
0100
0001
0000
,
1001
0000
0000
0000
0110
0000
0000
0000
1000
0001
0010
0000
0100
0000
1000
0010
,
1000
0000
0001
0010
0100
0000
0010
0000
0001
0000
1000
0010
0100
0000
0010
1000
,
0001
0000
0010
0000
0110
0000
0000
0000
0100
1000
0100
1000
0001
0000
0100
0001
,
0100
0001
1000
0000
0010
1000
0010
1000
0001
0000
0010
0001
0010
0001
1000
0000
,
1001
0000
0000
0000
0110
0000
0000
0000
0001
1000
0010
0000
0100
0000
0001
0010
,
0001
0000
1000
0010
0100
0000
0010
0000
1000
0000
0001
0010
0100
0000
0010
0001
,
1000
0000
1000
0001
1000
0001
0010
0000
0001
0100
0001
1000
0010
0000
1000
0100
,
1000
0001
0010
0000
0100
1000
0100
0010
0001
0000
0100
0001
0100
0010
1000
0000
,
1001
0000
0000
0000
0110
0000
0000
0000
1000
0100
0010
0001
0010
0000
0001
0100
,
0010
1000
0010
0000
0100
0001
1000
0010
1000
0000
0100
1000
0001
0010
0001
0000
,
0100
0010
0100
0010
1000
0000
0000
0000
0100
0010
0100
1000
0001
0000
0100
0010
,
0100
0001
1000
0000
0010
0100
0010
1000
0001
0000
0010
0100
0010
0001
1000
0000
,
0100
0010
0100
0010
0001
0000
0000
0000
0100
0001
0010
0001
1000
0000
0100
1000
,
0010
1000
0001
0000
0010
0001
0100
0001
1000
0000
0010
1000
0100
1000
0001
0000
,
0100
0001
0100
0001
1000
0100
1000
0100
0010
0000
0010
0100
1000
0000
0010
0000
,
0010
0100
0001
0000
0010
0000
0001
0000
1000
0010
1000
0000
0010
0100
0010
0000
,
0100
0001
0100
0001
2000
0000
0000
0000
3100
0000
0100
0010
0001
0000
0100
0000
,
0100
0010
1000
0000
0100
0000
0010
0000
0001
0100
0001
0000
1000
0100
1000
0000
,
0010
0100
0010
0100
0002
0000
2003
0000
3100
0000
0100
1000
0010
0000
0100
0000
,
0100
0001
0010
0000
0100
0000
1000
0000
0001
0010
0001
0000
1000
0010
1000
0000
,
0100
0010
0100
0010
0002
0000
0000
0000
0103
0000
0100
0001
0010
0000
0100
0000
,
0100
1000
0010
0000
0100
0000
0001
0000
0010
0100
1000
0100
0010
0000
0001
0000
,
1000
0010
1000
0010
0100
0001
0100
0001
1000
0000
0000
1000
0100
0000
0010
0000
,
0011
0000
0000
0000
0001
0000
0100
0000
0001
0000
1000
0010
1000
0000
0001
0000
,
2000
0000
3200
0000
1300
0010
0002
0000
,
0013
1000
0100
0010
0002
0203
2300
3200
,
0320
0000
2030
0000
3002
0000
0000
0000
0013
0000
0000
0010
0100
0000
1000
0000
,
1010
0000
0000
0000
0001
0000
0100
0000
0001
0000
0010
0100
0010
0000
0001
0000
,
0200
0320
2030
0000
3001
0010
2000
0000
,
3010
0001
1000
0010
0002
0000
0013
0100
,
0001
2002
0000
0000
,
0000
3003
0000
0000
;

//--------------- dance-double - forcednature ----------------
#NOTEDATA:;
#STEPSTYPE:dance-double;
#DESCRIPTION:forcednature;
#DIFFICULTY:Easy;
#METER:10;
#RADARVALUES:0,0,0,0,0;
#CREDIT:forcednature;
#NOTES:
00000000
00000000
00000000
00000000
,
00000000
00000000
00000000
00000000
,
00000000
00000000
00000000
00000000
,
00000000
00000000
00000000
00000000
,
00000000
00000000
00000000
00000000
,
00000000
00000000
00000000
00000000
,
00011000
00000000
00001000
01000000
,
00000000
01000000
00010000
10000000
,
00010000
00000000
00100000
00001000
,
00000000
00001000
00010000
00000000
,
00000010
00000010
00001000
00000010
,
00000100
00000001
00001000
00001000
,
00000100
00000100
00010000
00000100
,
00001000
00000000
00000010
00000000
00010000
00001000
00010000
00000000
,
00001000
00001000
00100000
00010000
,
10000000
00010000
01000000
01000000
,
00100000
00100000
10000000
00100000
,
01000000
00000000
00010000
00000000
01000000
00010000
01000000
00000000
,
00001000
00010000
00010100
00000100
,
00000000
00001000
01001000
01000000
,
00000000
00010000
00100000
10000000
,
00100000
00010000
01000000
00001000
,
00000000
00010000
00010100
00000100
,
00000000
00001000
01001000
01000000
,
00000000
00100000
00010000
00001000
,
00010000
00000100
00001000
00001000
,
00000001
00000000
00000000
00001001
00000000
00000000
00000000
00000000
,
00010000
00000000
00000000
00011000
00000000
00000000
00000000
00000000
,
10000000
00000000
00000000
10010000
00000000
00000000
00000000
00000000
,
00020000
02030000
03002000
00013000
,
00001000
00000000
00000000
00101000
00000000
00000000
00000000
00000000
,
00010000
00000000
00000000
00010010
00000000
00000000
00000000
00000000
,
00001000
00000000
00000000
01001000
00000000
00000000
00000000
00000000
,
00002000
00023000
00030200
00002300
,
00003001
00000001
00000100
00000100
,
00000020
00002030
00003020
00020030
,
00031000
00001000
00100000
00100000
,
00020000
20030000
30020000
02030000
,
03100000
00100000
10000000
10000000
,
02000000
03200000
00320000
00230000
,
00301000
00000000
00001000
00010000
00001000
00000000
00010000
00001000
,
00020000
00000000
00000000
00030000
,
00000100
00000000
00000000
00000100
00000000
00000000
00001000
00000000
,
00000000
00001000
00000000
00000000
00000010
00000000
00000100
00000000
,
00000000
00000010
00010000
00022000
,
00033000
00100000
00001000
00011000
,
00010000
00000000
00000000
00001000
00000000
00000000
01000000
00000000
,
00000000
00010000
00000000
00000000
10000000
00000000
10010000
00000000
,
00000000
00010000
01000000
02002000
,
03003000
00000000
00001000
00000000
00010000
00000000
00002200
00003300
,
00000100
00000010
00000001
00000010
,
00000100
00000110
00000000
00001000
,
00000200
00010300
00001000
01000000
,
00020000
00000000
10030000
00000000
01000000
00000000
00000000
00100000
,
00000000
00000000
00010000
00000000
00000000
00100000
00000000
00000000
,
00001000
00010000
00000000
00000010
,
00002000
00003010
00001000
00000100
,
00020000
00000000
00031000
00000000
00010000
00000000
00000000
00100000
,
00000000
00000000
01000000
00000000
00000000
00100000
00000000
00000000
,
10000000
00000000
10000000
00000000
00010000
00000000
00000000
00100000
,
00000000
00000000
00001000
00000000
00000000
00010000
00000000
00000000
,
00000010
00000000
00000010
00000000
00001000
00000000
00000000
00000100
,
00000000
00000000
00010000
00000000
00000000
00001000
00000000
00000000
,
01000000
00000000
01000000
00000000
00010000
00000000
00000000
00100000
,
00000000
00000000
00001000
00000000
00000000
00010000
00000000
00000000
,
00000010
00001000
00000100
00000100
,
00000000
00000100
00000000
00000000
00020000
00000000
00032000
00000000
,
00203000
00320000
00030000
01000000
,
00000000
01000000
00000000
00000000
00002000
00000000
00023000
00000000
,
00030020
00002030
00003000
00000100
,
00000000
00000100
00000000
00000000
00020000
00000000
00032000
00000000
,
02003000
03020000
00030000
00100000
,
00000000
00100000
00000000
00000000
00002000
00000000
00023000
00000000
,
00030020
00000000
00002030
00000000
00003100
00000000
00000000
00000100
,
00000000
00000000
00001000
00000000
00000000
00001000
00000000
00000000
,
00000010
00000000
00010000
00000000
00001000
00000000
00000000
00001000
,
00000000
00000000
00100000
00000000
00000000
00100000
00000000
00000000
,
02000000
00000000
23000000
00000000
30010000
00000000
00000000
00010000
,
00000000
00000000
01000000
00000000
00000000
01000000
00000000
00000000
,
00001000
00000000
00010000
00000000
00000100
00000000
00000000
00000100
,
00000000
00001000
00000020
00000230
,
00000302
00002003
00003000
00000000
;

//--------------- dance-double - forcednature ----------------
#NOTEDATA:;
#STEPSTYPE:dance-double;
#DESCRIPTION:forcednature;
#DIFFICULTY:Medium;
#METER:14;
#RADARVALUES:0,0,0,0,0;
#CREDIT:forcednature;
#NOTES:
00000000
00000000
00000000
00000000
,
00000000
00000000
00000000
00000000
,
00000000
00000000
00000000
00000000
,
00000000
00000000
00000000
00000000
,
00000000
00000000
00000000
00000000
,
00000000
00000000
00000000
00000000
,
00011000
00000000
00001000
00010000
00100000
00000000
01000000
00010000
,
00000000
10000000
00000000
00010000
00100000
00000000
01000000
00000000
,
00011000
00000000
00010000
00001000
00000010
00000000
00000100
00001000
,
00000000
00000001
00000000
00001000
00000010
00000000
00000100
00000000
,
00001001
00000000
00000001
00000100
00000000
00001000
00000100
00000000
,
00000010
00010000
00001000
01000000
00010000
00000000
20020000
00000000
,
30030000
00000000
10000000
01000000
00000000
00010000
01000000
00100000
,
00010000
00100000
00001000
00010000
00000010
00001000
00000010
00000200
,
00000300
00000000
00001000
00000100
00000000
00000001
00000100
00000000
,
00000001
00000010
00000100
00010000
00001000
00000000
00022000
00000000
,
00033000
00000000
00010000
00100000
00000000
10000000
00100000
01000000
,
00010000
00100000
01000000
00100000
00001000
00010000
00000100
00000020
,
00000030
00000001
00000100
00001000
00010000
01000000
10000000
00200000
,
00000000
10300000
01000000
00010000
00001000
00000100
00000001
00000020
,
00000000
00000130
00010000
00000010
00001000
00000100
00010000
00000010
,
00001000
00010000
01000000
00010000
00100000
00001000
00010000
00200000
,
00000000
10300000
01000000
00010000
00001000
00000100
00000001
00000020
,
00000000
00000031
00000100
00001000
00010000
01000000
10000000
00200000
,
00000000
01300000
00001000
00100000
00010000
01000000
00001000
00100000
,
00010000
00001000
00000100
00001000
00000010
00010000
00001000
00000010
,
00000110
00000000
00000000
00000100
00000000
00000000
00001001
00000000
00000000
00000000
00001000
00000000
00000100
00000000
00010000
00000000
,
00011000
00000000
00000000
00100000
00000000
00000000
01010000
00000000
00000000
00000000
00010000
00000000
10000000
00000000
00100000
00000000
,
01100000
00000000
00000000
01000000
00000000
00000000
10010000
00000000
00000000
00000000
10000000
00000000
01000000
00000000
00100000
00000000
,
00010000
00100000
00000000
00000000
00100000
00001000
00000000
00000000
00001000
00000000
00010000
00000000
00000010
00000000
00000000
00000000
,
00001010
00000000
00000000
00010000
00000000
00000000
00001100
00000000
00000000
00000000
00010000
00000000
00001000
00000000
00100000
00000000
,
00110000
00000000
00000000
00001000
00000000
00000000
01010000
00000000
00000000
00000000
00001000
00000000
00010000
00000000
00000100
00000000
,
00001100
00000000
00000000
00010000
00000000
00000000
00001010
00000000
00000000
00000000
00010000
00000000
00001000
00000000
01000000
00000000
,
00010000
00100000
00000000
00000000
00100000
01000000
00000000
00000000
01000000
00000000
10000000
00000000
00100000
00000000
00000000
00000000
,
01000000
10000000
01000000
00010000
00100000
00010000
00001000
00000100
,
00020000
00032000
00003020
00000230
,
00001300
00000010
00000001
00000010
00000100
00000001
00000010
00000001
,
00000200
00002300
00023000
02030000
,
03100000
00001000
00010000
00001000
01000000
00100000
00010000
00100000
,
20000000
32000000
03020000
00032000
,
00003010
00000010
00000100
00010000
00001000
00001000
01000000
00010000
,
00200000
00000000
00000000
00300000
,
01000000
10000000
00100000
00010000
00001000
00000000
00000100
00000001
,
00000010
00001000
00010000
00000000
00010100
00000000
01001000
00000000
,
00001000
00010000
00100000
10000000
01000000
00000000
00011000
00000000
,
00010000
00001000
00000010
00000001
00000100
00000000
00011000
00000000
,
00010000
00100000
10000000
01000000
00010000
00000000
00001000
00000010
,
00000001
00000100
00001000
00000000
00101000
00000000
00010010
00000000
,
00000010
00000100
00001000
01000000
00010000
00000000
00101000
00000000
,
00100000
00000000
00000000
00000000
01000000
00000000
00000000
00000000
00010000
00000000
00000000
00000000
00000100
00000000
00000000
00000000
00001000
00000000
00000000
00000000
00000000
00000000
00000000
00000000
00020020
00000000
00000000
00000000
00000000
00030030
00000000
00000000
,
00000010
00000100
00001000
00000100
00000001
00000100
00000010
00000100
,
00001000
00000000
00011000
00000000
00010000
01000000
10000000
00100000
,
00010000
00000000
00011000
00000000
00001000
00000100
00000001
00000010
,
00001000
00000000
00011000
00000000
00010000
01000000
00100000
01000000
,
10000000
01000000
00010000
01000000
00100000
00001000
00010000
00001000
,
00000100
00000000
00000110
00000000
00000010
00001000
00010000
01000000
,
00001000
00000000
00011000
00000000
00100000
00010000
00001000
00000100
,
00010000
00000000
00011000
00000000
00001000
00100000
01000000
00100000
,
00001000
01000000
00100000
01000000
00001000
00100000
01000000
00100000
,
00001000
00000000
00011000
00000000
00010000
00000010
00000100
00000010
,
00010000
00000100
00000010
00000100
00010000
00000010
00000100
00000010
,
00010000
00000000
00011000
00000000
00001000
00010000
00100000
10000000
,
01000000
00010000
00001000
00000010
00000001
00000100
00001000
00010000
,
00100000
00000000
00011000
00000000
00010000
00001000
00000010
00000001
,
00000100
00001000
00010000
00100000
10000000
01000000
00010000
00001000
,
00000010
00000000
00011000
00000000
00001000
00010000
01000000
01000000
,
10000000
01000000
01000000
00010000
00001000
00000010
00000100
00000010
,
00000001
00000000
00001001
00000000
00010000
00001000
00000100
00000100
,
00000001
00000100
00000100
00001000
00010000
00100000
01000000
00100000
,
10000000
01000000
00010000
00001000
00100000
00000000
01000000
01000000
,
00010000
00001000
00001000
00010000
00100000
01000000
10000000
01000000
,
00010000
00100000
00001000
00010000
00000010
00000000
00000100
00000100
,
00001000
00010000
00010000
00001000
00000010
00000100
00000001
00000100
,
00001000
00001000
00000010
00000010
00010000
00000000
00100000
01000000
,
00010000
00000000
00100000
01000000
00000000
00010000
01000000
00000000
,
00200000
00000000
00302000
00000000
00000000
00003000
00000020
00000000
,
00000000
00000030
00000100
00001000
00000001
00001000
00000010
00000100
,
00001000
00010000
00100000
00000000
01100000
00000000
01000000
00010000
,
10000000
00000000
01000000
00000000
00010000
00001000
00000010
00000000
,
00000100
00010000
00002000
00000000
00000000
00003000
02000000
00000000
,
03000000
00100000
00010000
00001000
00000200
00000000
00000310
00001000
,
00000001
00002002
00000000
00000000
,
00000000
00003003
00000000
00000000
;

//--------------- dance-double - forcednature ----------------
#NOTEDATA:;
#STEPSTYPE:dance-double;
#DESCRIPTION:forcednature;
#DIFFICULTY:Hard;
#METER:16;
#RADARVALUES:0,0,0,0,0;
#CREDIT:forcednature;
#NOTES:
00000000
00000000
00000000
00000000
,
00000000
00000000
00000000
00000000
,
00000000
00000000
00000000
00000000
,
00000000
00000000
00000000
00000000
,
00000000
00000000
00000000
00000000
,
00000000
00000000
00000000
00000000
,
00011000
00000000
00001000
00010000
00100000
00000000
10000000
00010000
,
00000000
00010000
00100000
01000000
00010000
00001000
00100000
00000000
,
00011000
00000000
00010000
00001000
00000010
00000000
00000001
00001000
,
00000000
00001000
00000010
00000100
00001000
00001000
00010000
00000000
,
00100000
00000000
00000000
00100000
01000000
00000000
01000000
00000000
10000000
00000000
01000000
00000000
01000000
00000000
00010000
00000000
,
00100000
00000000
01000000
00100000
01000000
00000000
00100000
00000000
00001000
00000000
00010000
00000000
00000200
00000000
00000000
00000000
,
00000310
00000000
00000000
00000010
00000100
00000000
00000100
00000000
00000001
00000000
00000100
00000000
00000100
00000000
00001000
00000000
,
00000010
00000000
00000100
00000010
00000100
00000000
00001000
00000000
00010000
00000000
00100000
00000000
02000000
00000000
03020000
00000000
,
10030000
00000000
00000000
10000000
01000000
00000000
01000000
00000000
00010000
00000000
01000000
00000000
01000000
00000000
00100000
00000000
,
00001000
00000000
00010000
00001000
00010000
00000000
00000100
00000000
00001000
00000000
00000010
00000000
00000200
00000000
00000000
00000000
,
00000301
00000000
00000000
00000001
00000100
00000000
00000100
00000000
00001000
00000000
00000100
00000000
00000100
00000000
00000010
00000000
,
00010000
00000000
00001000
00010000
00001000
00000000
01000000
00000000
00020000
00000000
00230000
00000000
02300000
00000000
23000000
00000000
,
30100000
00000000
10000000
01000000
00010000
00000100
00001000
00001001
,
00000000
00001000
00000001
00000100
00001000
01000000
00010000
10010000
,
00000000
10000000
00100000
00010000
00001000
00010000
01000000
00010000
,
00001000
00010000
00100000
00010000
00001000
00000010
00000100
00001001
,
00000000
00001000
00000001
00000010
00001000
01000000
00010000
10010000
,
00000000
00010000
10000000
00100000
00010000
00000100
00001000
00001001
,
00000000
00000001
00000010
00001000
00010000
00001000
00000100
00001000
,
00010000
00001000
00000010
00001000
00010000
00100000
01000000
00000000
,
00010000
00100000
00000000
00100000
01000000
00000000
00100000
00001000
00000000
00001000
00010000
00000000
00000010
00000000
00001000
00000000
,
00000100
00000010
00000000
00000010
00000001
00000000
00000100
00000010
00000000
00000010
00001000
00000000
00000100
00000000
00010000
00000000
,
00001000
01000000
00000000
01000000
00010000
00000000
10000000
01000000
00000000
01000000
00100000
00000000
00001000
00000000
00010000
00000000
,
00000020
00000000
00002030
00000000
00023000
00000000
01030000
01000000
,
00100000
10000000
00000000
10000000
01000000
00000000
00100000
00001000
00000000
00001000
00010000
00000000
00000010
00000000
00001000
00000000
,
00000100
00000001
00000000
00000001
00000100
00000000
00000010
00000001
00000000
00000001
00000100
00000000
00000010
00000000
00001000
00000000
,
00010000
01000000
00000000
01000000
00001000
00000000
00010000
00100000
00000000
00100000
01000000
00000000
00010000
00000000
10000000
00000000
,
02000000
00000000
03020000
00000000
00032000
00000000
00003010
00000010
,
00000110
00000000
00000000
00000000
00000100
00000000
00010000
00000000
00001000
00010000
00001000
00000000
00100000
00000000
00010000
00000000
,
02000000
03002000
00003200
00000302
,
00000013
00000000
00000000
00000000
00000100
00000000
00010000
00000000
00001000
00100000
00001000
00000000
00010000
00000000
00000010
00000000
,
00000200
00020300
02030000
03002000
,
00103000
00000000
00000000
00000000
00010000
00000000
00100000
00000000
01000000
10000000
01000000
00000000
00010000
00000000
00001000
00000000
,
00000020
00000000
00000130
00010000
00002000
00000000
02003000
00000000
,
03010000
00000000
00010000
00000000
10000000
01000000
10000000
01000000
00100000
00000000
00001000
00000000
00010000
00000000
00000200
00000000
,
00001000
00000000
00000000
00001000
00000000
00000000
00001000
00000000
00000010
00000000
00000000
00000010
00000000
00000000
00000310
00000000
,
00000100
00000000
00010000
00001000
00010000
00000000
00001000
00000000
00010000
00001000
00010000
00000000
00000010
00000000
00010000
00001000
,
00010000
00000000
00001000
00000000
00010000
00001000
00010000
00000000
00100000
00000000
00000000
00000000
01100000
00000000
00000000
00000000
,
01000000
10000000
01000000
00010000
00100000
00001000
00010000
00000100
,
00001000
00000010
00000001
00000010
00000100
00000000
00001001
00000000
,
00010000
00000000
00001000
00010000
00001000
00000000
01000000
00000000
00001000
00010000
00001000
00000000
00010000
00000000
00001000
00010000
,
00001000
00000000
00100000
00000000
00001000
00010000
00001000
00000000
00000010
00000000
00000000
00000000
00000110
00000000
00000000
00000000
,
00000100
00000001
00000100
00001000
00000010
00010000
00001000
01000000
,
00010000
00000000
00000000
00000000
00100000
00000000
00000000
00000000
10000000
00000000
00000000
00000000
00100000
00000000
00000000
00000000
01000000
00000000
00000000
00000000
00010000
00000000
00000000
00000000
00001000
00000000
00000000
00000000
00000200
00000300
00000000
00000000
,
00000010
00000100
00000010
00000000
00010000
00000000
00000100
00000010
00000100
00000000
00010000
00000000
00000010
00000100
00000010
00000000
,
00010000
00000000
00011000
00000000
00010000
00100000
10000000
01000000
,
00010000
00001000
00100000
00010000
00001000
00000100
00010000
00000010
,
00000100
00000000
00000000
00000000
00011000
00000000
00000000
00000000
00001000
00000000
01000000
00100000
01000000
00000000
00001000
00000000
,
00100000
01000000
00100000
00000000
00001000
00000000
01000000
00100000
01000000
00000000
00001000
00000000
00100000
01000000
00100000
00000000
,
00001000
00000000
00011000
00000000
00001000
00000010
00000001
00000100
,
00001000
00010000
00000010
00001000
00010000
01000000
00001000
00100000
,
01000000
00000000
10000000
00010000
10000000
00010000
00000000
00000000
10000000
01000000
10000000
00000000
01000000
00000000
00100000
00010000
,
00100000
00000000
00010000
00000000
00001000
00000100
00001000
00000000
00000100
00000000
00000010
00000001
00000010
00000000
00000001
00000000
,
00000100
00000000
00000000
00000000
00001001
00000000
00000000
00000000
00000001
00000100
00000001
00000000
00000100
00000000
00000010
00001000
,
00000010
00000000
00001000
00000000
00010000
01000000
00010000
00000000
01000000
00000000
00100000
10000000
00100000
00000000
10000000
00000000
,
01000000
00000000
00000000
00000000
10010000
00000000
00000000
00000000
10000000
00100000
10000000
00000000
00100000
00000000
01000000
00010000
,
01000000
00000000
00010000
00000000
00001000
00000010
00001000
00000000
00000010
00000000
00000100
00000001
00000100
00000000
00000001
00000000
,
00000010
00000000
00000000
00000000
00001001
00000000
00000000
00000000
00000001
00000010
00000001
00000000
00000010
00000000
00000100
00001000
,
00000100
00000000
00001000
00000000
00010000
00100000
00010000
00000000
00100000
00000000
01000000
10000000
01000000
00000000
10000000
00000000
,
00100000
01000000
00100000
01000000
00100000
01000000
00000000
00000000
00010000
00000000
00010000
01000000
00001000
00000000
00010000
00000000
,
00010000
00000100
00001000
00000000
00010000
00000000
00100000
00000000
01000000
00000000
00010000
00000000
00001000
00000000
00000100
00000000
,
00001000
00000000
00000000
00000000
00010020
00000000
00000000
00000000
00001030
00000000
00001000
00000100
00010000
00000000
00001000
00000000
,
00001000
01000000
00010000
00000000
00001000
00000000
00000010
00000000
00000100
00000000
00001000
00000000
00010000
00000000
00100000
00000000
,
20000000
00000000
32000000
00000000
03200000
00000000
00320000
00000000
00031000
00000000
00001000
00000010
00010000
00000000
00001000
00000000
,
00001000
00100000
00010000
00000000
00001000
00000000
00000100
00000000
00000010
00000000
00001000
00000000
00010000
00000000
00100000
00000000
,
00010000
00000000
00001000
00000000
02001000
00000000
00000000
00000000
03010000
00000000
00010000
00100000
00001000
00000000
00010000
00000000
,
00010000
00000010
00001000
00000000
00010000
00000000
01000000
00000000
00100000
00000000
00010000
00000000
00001000
00000000
00000100
00000000
,
00000001
00000100
00000001
00000100
00000001
00000100
00000001
00000100
00000010
00000000
00000000
00000010
00000100
00000000
00001000
00000000
,
00010000
00000000
00000000
00000000
01000000
00000000
00100000
00000000
00010000
00000000
00100000
00010000
00100000
00000000
01000000
00000000
,
20000000
00000000
30200000
00000000
00310000
00001000
00000200
00000000
,
00001300
00010000
00001000
00000010
00000200
00020300
00032000
00203000
,
02300000
00000000
23000000
00000000
30020000
00000000
00000000
00000000
00130000
00000000
00000000
00100000
01000000
00000000
00010000
00000000
,
00001000
00000000
00000000
00000000
00000100
00000000
00000010
00000000
00001000
00000000
00000010
00001000
00000010
00000000
00000100
00000000
,
00000002
00000023
00000230
00000000
00010300
00001000
00000200
00000000
,
00001300
00010000
01000000
00100000
00002000
00000000
00013000
00100000
,
10000000
20020000
00000000
00000000
,
00000000
30030000
00000000
00000000
;
