#TITLE:QUANTUM TELEPORTATION;
#ARTIST:L.E.D.;
#BANNER:QUANTUM TELEPORTATION.png;
#BACKGROUND:QUANTUM TELEPORTATION-bg.png;
#JACKET:QUANTUM TELEPORTATION-jacket.png;
#CDTITLE:./CDTITLES/BEATMANIA IIDX.PNG;
#MUSIC:QUANTUM TELEPORTATION.ogg;
#SAMPLESTART:14.21;
#SAMPLELENGTH:15;
#BPMS:0=152;
#BGCHANGES:4=QUANTUM TELEPORTATION.mp4=1=0=0=0;

//---------------dance-single - t7r----------------
#NOTES:
     dance-single:
     t7r:
     Beginner:
     4:
     :
0000
0000
0000
0000
,
0000
0000
0000
0000
,
0000
0000
0000
0000
,
0000
0000
0000
0000
,
0000
0000
0000
0000
,
1000
0000
0000
0000
,
0000
0000
0000
0000
,
0001
0000
0000
0000
,
0000
0000
0000
0000
,
0100
0000
0000
0000
,
0100
0000
0000
0000
,
0010
0000
0000
0000
,
0010
0000
0000
0000
,
1000
0000
0000
0000
,
1000
0000
0000
0000
,
0001
0000
0000
0000
,
0001
0000
0000
0000
,
0100
0000
0000
0000
,
0100
0000
0000
0000
,
0010
0000
0000
0000
,
0010
0010
0010
0000
,
1000
0000
0000
0000
,
1000
0000
0000
0000
,
0001
0000
0000
0000
,
0001
0001
0001
0000
,
0010
0000
0000
0000
,
0000
0000
0000
0000
,
0000
0000
0000
0000
,
0100
0000
0000
0000
,
1000
0000
0000
0000
,
0001
0000
0000
0000
,
0100
0000
0000
0000
,
0000
0000
0000
0000
,
0010
0000
0000
0010
,
0010
0000
0000
0100
,
0100
0000
0000
0100
,
0100
0000
0000
0001
,
0001
0000
0000
0001
,
0001
0000
0000
1000
,
1000
0000
0000
1000
,
1000
0000
0000
0000
,
0100
0000
0000
0100
,
0100
0000
0000
0010
,
0010
0000
0000
0010
,
0010
0000
0000
0001
,
0001
0000
0000
1000
,
1000
0000
0000
0010
,
0010
0000
0000
0100
,
0100
0000
0000
0010
,
0010
0000
0000
0000
,
0000
0000
0000
0000
,
0000
0000
0000
0000
,
0000
0000
0000
0000
,
1000
0000
0000
0000
,
1000
0000
0000
0000
,
1000
0000
0000
0000
,
1000
0000
0000
0000
,
0001
0000
0000
0010
,
0010
0000
0000
0100
,
0100
0000
0000
0100
,
0100
0000
0000
0010
,
0010
0000
0000
0001
,
0001
0000
0000
1000
,
1000
0000
0000
1000
,
1000
0000
0000
0000
,
0010
0000
0010
0000
,
1000
0000
1000
0000
,
0001
0000
0001
0000
,
0010
0010
0010
0000
,
0001
0000
0001
0000
,
1000
0000
1000
0000
,
0010
0000
0010
0000
,
0100
0100
0100
0000
,
0001
0000
0000
0000
,
0010
0000
0000
0000
,
1000
0000
0000
0000
,
0100
0000
0000
0000
,
0010
0000
0000
0000
,
0001
0000
0000
0000
,
0100
0000
0000
0000
,
1000
0000
0000
0000
;

//---------------dance-single - t7r----------------
#NOTES:
     dance-single:
     t7r:
     Easy:
     9:
     :
0000
0000
0000
0000
,
0000
0000
0000
0000
,
0000
0000
0000
0000
,
0000
0000
0000
0000
,
0000
0000
0000
0000
,
1000
0000
0000
0000
0000
0001
0000
0000
0001
0000
0000
0000
0000
1000
0000
0000
,
1000
0000
0000
0000
0000
0010
0000
0000
0010
0000
0000
0000
0000
0100
0000
0000
,
0100
0000
0000
0000
0000
0001
0000
0000
0001
0000
0000
0000
0000
1000
0000
0000
,
1000
0000
0000
0000
,
0001
0100
0001
0010
,
0001
1000
0100
1000
,
0010
1000
0001
0010
,
0001
0100
0001
0010
,
0001
0000
0000
0000
0000
1000
0000
0000
1100
0000
0000
0000
0000
1000
0000
0000
,
1001
0000
0000
0000
0000
1000
0000
0000
1100
0000
0000
0000
0000
0001
0000
0000
,
1001
0000
0000
0000
0000
0001
0000
0000
0101
0000
0000
0000
0000
0001
0000
0000
,
1000
0000
0000
0000
,
0010
0000
0000
0100
0000
0000
0000
0000
0001
0000
0000
0000
1000
0000
0000
0000
,
0100
0000
0000
0010
0000
0000
0000
0000
0001
0000
0000
0000
1000
0000
0000
0000
,
0010
0000
0000
1000
0000
0000
0000
0000
0001
0000
0000
0000
0100
0000
0000
0000
,
0001
0010
0100
1000
,
0001
0000
0000
0010
0000
0000
0000
0000
0001
0000
0000
1000
0000
0000
0000
0000
,
0010
0000
0000
0100
0000
0000
0000
0000
0010
0000
0000
1000
0000
0000
0000
0000
,
0100
0000
0000
0010
0000
0000
0000
0000
0100
0000
0000
0001
0000
0000
0000
0000
,
0100
0000
0000
1000
0000
0000
0000
0000
0001
0000
0000
0000
1001
0000
0000
0000
,
0220
0000
0000
0000
,
0000
0000
0000
0000
,
0330
0000
0000
0000
,
0010
0000
1000
0001
,
1000
0100
0010
0001
,
2000
0010
0001
0100
,
3002
0010
1000
0100
,
1003
0000
0001
1001
,
0002
0010
1003
0100
,
2000
0010
3001
0100
,
0002
0010
1003
0001
,
2000
0010
3001
1000
,
0002
0000
0010
0000
0103
0001
1000
0000
,
0002
0000
1000
0000
0013
0001
1000
0000
,
0002
0000
0100
0000
1003
0001
0100
0000
,
0020
0000
1030
0001
0100
0000
0110
0000
,
1000
0000
0000
0100
0000
0000
0100
0000
0000
0100
0000
0000
1000
0000
0000
0000
,
0001
0000
0000
0100
0000
0000
0100
0000
0000
0100
0000
0000
0001
0000
0000
0000
,
1000
0000
0000
0010
0000
0000
0010
0000
0000
0010
0000
0000
1000
0000
0000
0000
,
0001
0000
0000
0010
0000
0000
0010
0000
0000
0010
0000
0000
0001
0000
0000
0000
,
1000
0000
0000
0100
0000
0000
0010
0000
0000
0001
0000
0000
1000
0000
0000
0000
,
0001
0000
0000
0100
0000
0000
0010
0000
0000
1000
0000
0000
0001
0000
0000
0000
,
1000
0000
0000
0100
0000
0000
0001
0000
0000
0100
0000
0000
1000
0000
0000
0000
,
0001
0000
0000
0100
0000
0000
1000
0000
0000
0100
0000
0000
0001
0000
0000
0000
,
2000
0000
0000
3010
,
0200
0000
0000
0301
,
0020
0000
0000
0130
,
0020
0000
0000
0130
,
2000
0001
3100
1000
,
0002
1000
0103
0001
,
2000
0001
3100
1000
,
0002
0000
0000
0200
0000
0000
0303
0000
,
0001
0000
0000
0000
0010
0000
0000
0000
0000
0000
0001
0000
0000
0001
0000
0000
,
1000
0000
0000
0000
0010
0000
0000
0000
0000
0000
1000
0000
0000
1000
0000
0000
,
0001
0000
0000
0000
0100
0000
0000
0000
0000
0000
0001
0000
0000
0001
0000
0000
,
1000
0000
0000
0000
0100
0000
0000
0000
0000
0000
1000
0000
0000
1000
0000
0000
,
0001
0000
0000
0000
0010
0000
0000
0000
0000
0000
1000
0000
0000
1000
0000
0000
,
0010
0000
0000
0000
0001
0000
0000
0000
0000
0000
1000
0000
0000
1000
0000
0000
,
0010
0000
0000
0000
0001
0000
0000
0000
0000
0000
0010
0000
0000
0010
0000
0000
,
0200
1000
0020
0330
,
1000
0100
1000
0000
0001
0000
1000
0000
,
0001
0100
0001
0000
1000
0000
0001
0000
,
1000
0010
1000
0000
0001
0000
1000
0000
,
0001
0000
0010
0100
2000
0000
3000
0000
,
0001
0100
0010
0000
1000
0000
0001
0000
,
1000
0100
0010
0000
0001
0000
1000
0000
,
0010
0100
0001
0000
1000
0000
0100
0000
,
0010
0000
0100
1000
0002
0000
0003
0000
,
0200
0000
0000
0000
0000
0000
0000
0000
0000
0000
0310
0000
0000
0010
0000
0000
,
0200
0000
0000
0000
0000
0000
0000
0000
0000
0000
0310
0000
0000
0010
0000
0000
,
0200
0000
0000
0000
0000
0000
0000
0000
0000
0000
0310
0000
0000
0010
0000
0000
,
2000
0000
0000
3001
0020
0000
0000
0000
,
0032
0000
0000
0000
0000
0000
0000
0000
0000
0000
1003
0000
0000
1000
0000
0000
,
0020
0000
0000
0000
0000
0000
0000
0000
0000
0000
0130
0000
0000
0100
0000
0000
,
0002
0000
0000
0000
0000
0000
0000
0000
0000
0000
1003
0000
0000
1000
0000
0000
,
0200
0000
2300
0002
,
3003
0000
0000
0000
;

//---------------dance-single - t7r----------------
#NOTES:
     dance-single:
     t7r:
     Medium:
     13:
     :
0000
0000
0000
0000
,
0000
0000
0000
0000
,
0000
0000
0000
0000
,
0000
0000
0000
0000
,
0000
0000
0000
0000
,
1000
0000
0100
0010
0000
0001
0000
0000
0001
0000
0100
0010
0000
1000
0000
0000
,
1000
0000
0100
0010
0000
0001
0000
0000
0001
0000
0100
0010
0000
1000
0000
0000
,
1000
0000
0100
0010
0000
0001
0000
0000
0001
0000
0100
0010
0000
1000
0000
0000
,
1000
0000
0001
0100
0000
0001
0000
0000
0001
0000
1000
0100
0000
1000
0000
0000
,
0001
0000
0000
0000
1000
0010
0000
0000
1000
0000
0000
0000
0001
0010
0000
0000
,
0001
0000
0000
0000
1000
0010
0000
0000
1000
0000
0001
0100
0000
0001
0000
0000
,
1000
0000
0000
0000
0100
1000
0000
0000
0100
0000
0000
0000
0010
0001
0000
0000
,
0010
0000
0000
0000
0001
1000
0000
0000
0001
0000
0100
0010
0000
0100
0000
0000
,
0001
0000
1000
0010
0000
1000
0000
0000
1000
0000
0001
0010
0000
0001
0000
0000
,
0001
0000
1000
0100
0000
1000
0000
0000
1000
0000
0001
0100
0000
0001
0000
0000
,
0001
0000
1000
0100
0000
1000
0000
0000
1000
0000
0001
0010
0000
0001
0000
0000
,
0100
1000
0000
0100
0000
0100
0000
0010
0000
0000
1000
0000
0001
1000
0000
0001
,
0010
0000
0001
0100
0000
0010
0000
0100
0000
0000
0001
0000
0010
0100
0000
0000
,
1000
0000
0010
0100
0000
0010
0000
1000
0000
0000
0100
0000
0010
0001
0000
0000
,
1000
0000
0100
0001
0000
0100
0000
1000
0000
0000
0010
0000
1000
0001
0000
0000
,
0100
0010
0000
0100
0000
0100
0000
1000
0000
0000
0100
0000
0010
1000
0000
0000
,
0001
0000
0010
0001
0000
0001
0000
0000
1000
0010
0000
1000
0000
1000
0001
0000
,
1000
0000
0100
1000
0000
1000
0000
0000
0001
0000
0100
0001
0000
0001
0000
1000
,
0001
0000
0010
0001
0000
0001
0000
1000
0001
0000
0100
0010
0000
0010
1000
0000
,
0100
0010
0000
0100
0000
0100
0000
1000
0001
0100
0000
0010
0000
0010
0000
1000
,
0001
0000
0000
0000
0000
0010
0000
0000
0010
0000
0000
0000
0000
1000
0000
0000
,
1000
0000
0000
0000
0000
0100
0000
0000
0100
0000
0000
0000
0000
0001
0000
0000
,
0001
0000
0000
0000
0000
0100
0000
0000
0100
0000
0000
0000
0000
1000
0000
0000
,
1000
0000
0000
0000
0000
0010
0000
0000
0010
0000
0000
0000
0000
0110
0000
0000
,
0001
0010
0100
1000
0020
0000
1030
0001
,
1000
0100
0010
0001
0200
0000
0301
1000
,
0001
0000
0010
0000
0001
1000
0001
0000
1000
0000
0010
0000
1000
0001
1000
0000
,
0000
0000
0100
0000
0000
0100
0000
0000
0010
0000
0010
0000
0001
1000
0001
0000
,
1002
0000
0000
0000
0100
0000
0000
0000
1003
0000
0001
0000
0100
0010
0000
0000
,
2000
0000
0000
0000
0100
0000
0000
0000
3001
0000
0010
0000
0100
1000
0000
0000
,
0002
0000
0000
0000
0100
0000
0000
0000
0013
0000
0001
0000
1000
0010
0000
0000
,
2000
0000
0000
0000
0100
0000
0000
0000
3010
0000
1000
0000
0001
0010
0000
0000
,
0001
0001
0100
0010
1000
1000
0001
0000
,
1000
1000
0100
0010
0001
0001
1000
0000
,
0010
0010
0100
0001
1000
1000
0100
0000
,
1001
0000
0000
0000
1000
0000
0000
0000
0001
0000
0100
0001
0000
1000
0001
0000
,
1000
0000
0100
0010
0000
0100
0010
0000
0100
0010
0000
0100
1000
0000
0001
0000
,
0100
0000
0010
1000
0000
0010
1000
0000
0010
1000
0000
0001
1000
0000
0100
0000
,
0010
0000
0001
1000
0000
0001
1000
0000
0001
1000
0000
0010
0100
0000
0010
0000
,
1000
0100
0010
0010
0001
0100
0010
1000
,
0001
0000
0010
0001
0000
0010
0001
0000
0010
0001
0000
1000
0001
0000
1000
0000
,
0010
0000
1000
0010
0000
1000
0010
0000
1000
0010
0000
1000
0001
0000
0100
0000
,
0001
0000
0010
0100
0000
1000
0001
0000
0100
0010
0000
1000
0001
0000
1000
0000
,
0001
0000
0100
1000
0000
0100
0000
0100
0010
0000
1000
0100
0000
0100
0000
0001
,
0200
0000
0000
0000
0000
0000
0000
0000
0000
0000
0310
0000
0001
1000
0000
0000
,
0020
0000
0000
0000
0000
0000
0000
0000
0000
0000
0130
0000
0001
1000
0000
0000
,
0200
0000
0000
0000
0000
0000
0000
0000
0000
0000
0310
0000
0100
1000
0000
0000
,
0020
0000
0000
0000
0000
0000
0000
0000
0000
0000
0130
0000
0010
1000
0000
0000
,
0002
0000
0000
0000
0010
0000
0000
0000
1003
0000
0100
0000
0010
0001
0000
0000
,
2000
0000
0000
0000
0010
0000
0000
0000
3001
0000
0100
0000
0010
1000
0000
0000
,
0002
0000
0000
0000
0100
0000
0000
0000
1003
0000
0010
0000
0100
0001
0000
0000
,
2000
0000
3100
1000
0001
0001
1000
1000
,
0001
0010
0000
0000
0001
0000
0000
0000
1000
0000
0010
0000
1000
0100
0000
0000
,
0020
0000
0000
0000
0130
0000
0000
0000
1000
0000
0100
0000
0010
0001
0000
0000
,
2000
0000
0000
0000
3010
0000
0000
0000
1000
0000
0010
0000
0100
0001
0000
0000
,
2000
0000
0000
0000
3010
0000
0000
0000
1000
0000
0100
0000
0010
0001
0000
1000
,
0001
0000
0010
0100
0000
0010
0100
0000
1000
0000
0001
0000
0100
0001
0000
0000
,
1000
0000
0010
0100
0000
0010
0100
0000
0001
0000
1000
0000
0100
0010
0000
0000
,
0001
0000
1000
0010
0000
1000
0010
0000
0100
0000
0001
0000
1000
0100
0000
0000
,
1000
0000
0001
0100
0000
0100
0000
1000
0100
0000
0100
0000
0010
0100
0010
0000
,
1000
0000
0100
0010
0000
0100
0001
0000
0100
0000
1000
0000
0001
0100
0000
0000
,
0001
0000
0100
0010
0000
0100
1000
0000
0100
0000
0010
0000
0100
0001
0000
0000
,
1000
0000
0010
0100
0000
0010
0001
0000
0010
0000
0100
0000
0010
1000
0000
0000
,
0001
0000
1000
0010
1000
0000
0001
0000
1000
0000
0001
0010
0001
0000
1000
0000
,
0001
0000
0010
1000
0000
0010
0001
0000
1000
0010
0000
0000
0001
0000
0010
0000
,
1000
0000
0100
0001
0000
0100
1000
0000
0001
0100
0000
0000
1000
0000
0100
0000
,
0010
0000
0100
0001
0100
0000
0001
0000
1000
0000
0100
1000
0100
0000
1000
0000
,
0001
0000
0010
1000
0000
1000
0000
0010
0100
0000
1000
0010
0000
0010
0000
0001
,
0020
0000
0000
0000
1000
0000
0000
0000
0000
0000
0130
0000
0001
1000
0000
0000
,
0020
0000
0000
0000
1000
0000
0000
0000
0000
0000
0130
0000
0001
1000
0000
0000
,
0020
0000
0000
0000
1000
0000
0000
0000
0000
0000
0130
0000
0001
1000
0000
0000
,
0020
0000
1030
0100
0020
0000
0032
0000
,
2003
0000
0000
0000
0000
0000
0000
0000
0000
0000
3100
0000
0000
0100
0000
0000
,
0020
0000
0000
0000
0000
0000
0000
0000
0000
0000
0031
0000
0000
0001
0000
0000
,
0200
0000
0000
0000
0000
0000
0000
0000
0000
0000
0310
0000
0000
0010
0000
0000
,
2000
0000
3001
0100
0020
0000
0200
0000
,
0330
0000
0000
0000
;

//---------------dance-single - t7r----------------
#NOTES:
     dance-single:
     t7r:
     Hard:
     16:
     :
0000
0000
0000
0000
,
0000
0000
0000
0000
,
0000
0000
0000
0000
,
0000
0000
0000
0000
,
0000
0000
0000
0000
,
0010
0000
1000
0001
0000
0010
0000
0000
0010
0000
0001
1000
0000
0010
0000
0000
,
0010
0000
1000
0001
0000
0010
0000
0000
0010
0000
0001
1000
0000
0010
0000
0000
,
0010
0000
1000
0100
0000
0010
0000
0000
0010
0000
0001
0100
0000
0010
0000
0000
,
0010
0000
1000
0100
0000
1000
0000
0000
1000
0000
0001
0100
0000
0001
0000
0000
,
1001
0000
0001
0010
0100
1000
0000
0000
1001
0000
0001
0010
0100
1000
0000
0000
,
1001
0000
0001
0100
0010
1000
0000
0000
1001
0000
0001
0100
0010
1000
0000
0000
,
1100
0000
0100
0010
0001
1000
0000
0000
1100
0000
0100
0010
0001
1000
0000
0000
,
1010
0000
0010
0100
0001
1000
0000
0000
1010
0000
0010
0100
0001
1000
0000
0000
,
1001
0000
0001
0010
0100
1000
0001
0000
0001
0000
1000
0010
0100
0001
1000
0000
,
1000
0000
0100
0010
0001
1000
0010
0000
0010
0000
0100
0001
1000
0100
0010
0000
,
0010
0000
0100
1000
0001
0100
0010
0000
0010
0000
0100
0001
1000
0100
0010
0000
,
0100
1000
0000
0100
0000
0100
0000
0010
0100
0000
1000
0001
0100
0001
0000
1000
,
0001
0000
1000
0010
0000
0100
0000
0010
0000
0000
1000
0100
0010
0001
1000
0000
,
0001
0000
0010
0100
0000
0010
0000
0001
0000
0000
1000
0010
0100
0001
1000
0000
,
0100
0000
0010
0100
0000
1000
0000
0001
0000
0000
0100
0010
1000
0001
1000
0000
,
0010
1000
0010
0100
0000
0100
0000
0001
0000
0000
1000
0100
0010
0001
1000
0000
,
0100
0000
0001
0100
0000
1000
0000
0001
0100
0000
1000
0100
0000
0001
1000
0001
,
0010
0000
1000
0010
0000
0001
0000
1000
0010
0000
0001
0010
0000
0100
0001
1000
,
0001
0000
1000
0100
0000
0100
0000
0001
0100
0000
1000
0010
0000
0010
0000
0001
,
0010
1000
0000
1010
0000
1001
0000
1000
0100
0010
0000
0011
0000
1001
0000
1000
,
0001
0000
0100
0001
0000
1000
0000
0000
1000
0000
0100
1000
0000
0001
0000
0000
,
0001
0000
0010
0001
0000
1000
0000
0000
1000
0000
0010
1000
0000
0001
0000
0000
,
0001
0000
0010
0100
0000
1000
0000
0000
1000
0000
0010
0100
0000
0001
0000
0000
,
0001
0000
0100
0001
1000
0000
0100
0000
1000
0000
1000
0000
0001
1000
0001
0000
,
1000
0100
1000
0000
0001
0100
0001
0000
1000
0010
0000
0000
0100
0001
1000
0000
,
0001
0010
0001
0000
1000
0010
1000
0000
0010
0100
0000
0000
0001
1000
0010
0000
,
1000
0100
0010
0000
0001
0100
0010
0000
1000
0001
0100
0000
0001
0010
0100
0000
,
0000
0000
1000
0001
0000
1000
0001
0000
0100
0000
0100
0000
0010
0100
0001
0000
,
2000
0000
0000
0000
0100
0000
0000
0000
3001
0000
0010
0000
0100
1000
0001
0000
,
0200
0000
0000
0000
1000
0000
0000
0000
0310
0000
0100
0000
0001
0010
0100
0000
,
2000
0000
0000
0000
0010
0000
0000
0000
3001
0000
1000
0000
0010
0100
0001
0000
,
0020
0000
0000
0000
1000
0000
0000
0000
0130
0000
0010
0000
0001
1000
0100
0000
,
0010
0000
0001
0000
1000
0001
0100
0000
0001
0000
0010
0000
0100
1000
0001
0000
,
1000
0000
0010
0000
0100
0010
1000
0000
0001
0000
0010
0000
0100
0010
0001
0000
,
1000
0000
0010
0000
0100
0010
0100
0001
1000
0000
0100
0000
0010
0100
0010
0001
,
1000
0000
0000
0000
0110
0000
0000
0000
0001
0100
0001
1000
0001
0010
0100
0000
,
1000
0000
0100
0001
0000
0100
0001
0000
1000
0001
0000
0100
1000
0001
1000
0000
,
0001
0000
0100
1000
0000
0100
1000
0000
0001
1000
0000
0100
0001
1000
0001
0000
,
1000
0000
0010
0001
0000
0010
0001
0000
1000
0001
0000
0010
1000
0001
1000
0000
,
0001
0010
0100
0000
1000
0010
0100
0000
0001
1000
0010
0100
0001
1000
0001
0000
,
1000
0000
0100
0001
0000
1000
0001
0000
0100
0001
0000
0100
1000
0010
0100
0000
,
0001
0000
0100
1000
0000
0001
1000
0000
0100
1000
0000
0100
0001
0010
0100
0000
,
1000
0000
0010
0001
0000
1000
0001
0000
0010
0001
0000
0010
1000
0100
0010
0000
,
0001
0010
0100
0010
0000
1000
0000
0001
1000
0000
0010
0001
1000
0010
0000
0100
,
0002
0000
0000
0000
0000
0000
0000
0000
0000
0000
1003
0000
0100
0010
0000
0000
,
0200
0000
0000
0000
0000
0000
0000
0000
0000
0000
1300
0000
0010
0100
0000
0000
,
0020
0000
0000
0000
0000
0000
0000
0000
0000
0000
1030
0000
0001
1000
0000
0000
,
0020
0000
0000
0000
0000
0000
0000
0000
0000
0000
1030
0000
0001
1000
0000
0000
,
0002
0000
0000
0000
0010
0000
0000
0000
1003
0000
0100
0000
0010
0100
0000
0000
,
2000
0000
0000
0000
0010
0000
0000
0000
3001
0000
0100
0000
0010
0100
0000
0000
,
0002
0000
0000
0000
1000
0000
0000
0000
0013
0000
0001
0000
1000
0100
0000
0000
,
2000
0000
0010
3002
0100
0100
1000
1003
,
1001
0000
1000
0100
0000
1000
0100
0000
0010
0000
0001
0100
0010
1000
0000
0001
,
1000
0000
0001
0010
0000
0001
0010
0000
0100
0000
1000
0010
0100
0001
0000
1000
,
0001
0000
0010
0100
0000
0010
0100
0000
0010
0000
0001
1000
0100
0010
0000
0100
,
1000
0000
0010
0100
0000
0010
0100
0000
0010
0000
1000
0100
0010
0001
0000
1000
,
0001
0000
0100
1000
0000
0100
1000
0000
0100
0000
0010
1000
0001
0010
0000
0001
,
1000
0000
0100
0001
0000
0100
0001
0000
0100
0000
0010
0001
1000
0001
0000
0100
,
0001
0000
0010
1000
0000
0010
1000
0000
0010
0000
0100
1000
0001
1000
0000
0010
,
0100
0000
1000
0100
0000
0101
0000
0001
0010
0100
0010
0100
1000
0001
1000
0001
,
1000
0100
0010
0001
1000
0100
0010
0001
2000
0000
0100
0000
3001
0010
0000
0010
,
0001
0000
0100
0010
0100
1000
0100
0000
0010
0000
0100
0001
0000
0001
1000
0000
,
0001
0100
0010
1000
0001
0100
0010
1000
0002
0000
0100
0000
1003
0010
0000
0010
,
1000
0000
0100
0010
0001
0100
0010
1000
0001
0000
0010
0100
1000
0010
0100
0001
,
1000
0001
0010
0100
1000
0100
0010
0001
2000
0000
0010
0000
3001
0100
0000
0100
,
0001
1000
0010
0100
0001
0100
0010
1000
0002
0000
0010
0000
1003
0100
0000
0100
,
1000
0000
0001
0100
0010
0100
1000
0100
0001
0000
1000
0100
0010
0100
0001
0100
,
1000
0000
0001
0100
0000
0110
0000
1000
0100
0000
0010
0001
0000
1001
0000
1000
,
0020
0000
0000
0000
0001
0000
0000
0000
0130
0000
0001
0000
1000
0001
0000
0000
,
0020
0000
0000
0000
1000
0000
0000
0000
0130
0000
1000
0000
0001
1000
0000
0000
,
0200
0000
0000
0000
0001
0000
0000
0000
0310
0000
0001
0000
1000
0001
0000
0000
,
0200
0000
1300
0100
0020
0230
0302
0000
,
2003
0000
0000
0000
0100
0000
0000
0000
0000
0000
3001
0000
1000
0001
0000
0000
,
0200
0000
0000
0000
1000
0000
0000
0000
0000
0000
0310
0000
0100
0010
0000
0000
,
2000
0000
0000
0000
0001
0000
0000
0000
0000
0000
3100
0000
0010
0100
0000
0000
,
0020
0000
0031
1000
0020
0000
0200
0000
,
0330
0000
0000
0000
;

//---------------dance-double - t7r----------------
#NOTES:
     dance-double:
     t7r:
     Easy:
     9:
     :
00000000
00000000
00000000
00000000
,
00000000
00000000
00000000
00000000
,
00000000
00000000
00000000
00000000
,
00000000
00000000
00000000
00000000
,
00000000
00000000
00000000
00000000
,
00100000
00000000
00000000
00000000
00000000
00010000
00000000
00000000
00010000
00000000
00000000
00000000
00000000
10000000
00000000
00000000
,
10000000
00000000
00000000
00000000
00000000
00100000
00000000
00000000
00100000
00000000
00000000
00000000
00000000
00010000
00000000
00000000
,
00010000
00000000
00000000
00000000
00000000
00001000
00000000
00000000
00001000
00000000
00000000
00000000
00000000
00010000
00000000
00000000
,
00010000
00000000
00000010
00000000
,
00001000
00000100
00000010
00000001
,
00001000
00000010
00000100
00000001
,
00000010
00000100
00001000
00010000
,
01000000
00100000
10000000
01000000
,
10000000
00000000
00000000
00000000
00000000
00100000
00000000
00000000
10100000
00000000
00000000
00000000
00000000
10000000
00000000
00000000
,
11000000
00000000
00000000
00000000
00000000
01000000
00000000
00000000
00010000
00000000
00000000
00000000
00000000
00001000
00000000
00000000
,
00011000
00000000
00000000
00000000
00000000
00010000
00000000
00000000
00010010
00000000
00000000
00000000
00000000
00000010
00000000
00000000
,
00000100
00000000
00000001
00000000
,
00001000
00000000
00000000
00000100
00000000
00000000
00000000
00000000
00001000
00000000
00000000
00000000
00000001
00000000
00000000
00000000
,
00000100
00000000
00000000
00000010
00000000
00000000
00000000
00000000
00001000
00000000
00000000
00000000
00010000
00000000
00000000
00000000
,
01000000
00000000
00000000
00010000
00000000
00000000
00000000
00000000
10000000
00000000
00000000
00000000
01000000
00000000
00000000
00000000
,
00100000
00010000
00001000
00000010
,
00001000
00000000
00000000
00000001
00000000
00000000
00000000
00000000
00000100
00000000
00000000
00000010
00000000
00000000
00000000
00000000
,
00001000
00000000
00000000
00000100
00000000
00000000
00000000
00000000
00010000
00000000
00000000
00001000
00000000
00000000
00000000
00000000
,
00010000
00000000
00000000
01000000
00000000
00000000
00000000
00000000
10000000
00000000
00000000
00100000
00000000
00000000
00000000
00000000
,
00010000
00001000
00000100
00000001
,
00000020
00000000
00000000
00000000
,
00000000
00000000
00000000
00000000
,
00000030
00000000
00000000
00000000
,
00000001
00000000
00001000
00000001
,
00001000
00000100
00000020
00000000
,
00000031
00000100
00002000
00000000
,
00013000
00100000
20000000
00000000
,
30010000
00000000
10000000
10010000
,
20000000
01000000
00000000
30010000
,
10000000
01000000
00100000
00010000
,
00002000
00000010
00000000
00003001
,
00001000
00000100
00000010
00000001
,
00000200
00001300
00000000
00010000
,
02000000
03010000
00000000
00001000
,
00000200
00001300
00000000
00010000
,
02000000
03100000
00020000
10030000
,
00100000
00000000
00000000
10000000
00000000
00000000
10000000
00000000
00000000
10000000
00000000
00000000
00010000
00000000
00000000
00000000
,
10000000
00000000
00000000
01000000
00000000
00000000
01000000
00000000
00000000
01000000
00000000
00000000
00100000
00000000
00000000
00000000
,
00001000
00000000
00000000
00010000
00000000
00000000
00010000
00000000
00000000
00010000
00000000
00000000
00001000
00000000
00000000
00000000
,
00010000
00000010
00001000
00000001
,
00001000
00000000
00000000
00000100
00000000
00000000
00000010
00000000
00000000
00000001
00000000
00000000
00001000
00000000
00000000
00000000
,
00000001
00000000
00000000
00000100
00000000
00000000
00000010
00000000
00000000
00001000
00000000
00000000
00010000
00000000
00000000
00000000
,
00100000
00000000
00000000
00010000
00000000
00000000
10000000
00000000
00000000
00100000
00000000
00000000
01000000
00000000
00000000
00000000
,
00010000
00000000
00000000
10000000
00000000
00000000
01000000
00000000
00000000
00010000
00000000
00000000
00001000
00000000
00000000
00000000
,
00021000
00000000
00000000
00030010
,
00000200
00000000
00000000
00000301
,
00002000
00000000
00000000
00003100
,
00020000
00000000
00000000
00031000
,
02000000
00100000
00000000
03010000
,
20000000
01000000
00000000
30010000
,
00200000
00010000
00000000
00301000
,
00020000
00000000
00000000
00002000
00000000
00000000
00033000
00000000
,
00011000
00000000
00000000
00000000
00000000
00000000
00000000
00000000
00000000
00000000
00001000
00000000
00000000
00001000
00000000
00000000
,
00000100
00000000
00000000
00000000
00000000
00000000
00000000
00000000
00000000
00000000
00000001
00000000
00000000
00000001
00000000
00000000
,
00000010
00000000
00000000
00000000
00000000
00000000
00000000
00000000
00000000
00000000
00000100
00000000
00000000
00000100
00000000
00000000
,
00010000
00000000
00000000
00000000
00000000
00000000
00000000
00000000
00000000
00000000
00001000
00000000
00000000
00001000
00000000
00000000
,
00010000
00000000
00000000
00000000
00000000
00000000
00000000
00000000
00000000
00000000
01000000
00000000
00000000
01000000
00000000
00000000
,
10000000
00000000
00000000
00000000
00000000
00000000
00000000
00000000
00000000
00000000
00100000
00000000
00000000
00100000
00000000
00000000
,
01000000
00000000
00000000
00000000
00000000
00000000
00000000
00000000
00000000
00000000
00010000
00000000
00000000
00100000
00000000
00000000
,
00002000
00000000
00000000
00020000
00000000
00000000
00033000
00000000
,
00010000
00000000
00000010
00000000
00001000
00000001
00001000
00000000
,
00000001
00000000
00000010
00000000
00000100
00001000
00000100
00000000
,
00010000
00000000
00001000
00000000
01000000
00010000
01000000
00000000
,
00010000
00000000
00100000
01000000
20000000
00000000
30000000
00000000
,
00100000
01000000
00010000
00000000
10000000
00000000
00010000
00000000
,
10000000
01000000
00100000
00000000
00010000
00000000
00001000
00000000
,
00000010
00000100
00000001
00000000
00000010
00000000
00000100
00000000
,
00001000
00010000
00100000
10010000
,
20000000
00000000
00000000
00000000
00000000
00000000
00000000
00000000
00000000
00000000
31000000
00000000
00000000
01000000
00000000
00000000
,
00200000
00000000
00000000
00000000
00000000
00000000
00000000
00000000
00000000
00000000
00301000
00000000
00000000
00001000
00000000
00000000
,
00020000
00000000
00000000
00000000
00000000
00000000
00000000
00000000
00000000
00000000
00030010
00000000
00000000
00000010
00000000
00000000
,
00000200
00000000
00000000
00000301
00002000
00000000
00000000
00000000
,
00003200
00000000
00000000
00000000
00000000
00000000
00000000
00000000
00000000
00000000
00000310
00000000
00000000
00000010
00000000
00000000
,
00000002
00000000
00000000
00000000
00000000
00000000
00000000
00000000
00000000
00000000
00000103
00000000
00000000
00000100
00000000
00000000
,
00002000
00000000
00000000
00000000
00000000
00000000
00000000
00000000
00000000
00000000
00013000
00000000
00000000
00010000
00000000
00000000
,
02000000
00000000
23000000
00200000
,
30300000
00000000
00000000
00000000
;

//---------------dance-double - t7r----------------
#NOTES:
     dance-double:
     t7r:
     Medium:
     13:
     :
00000000
00000000
00000000
00000000
,
00000000
00000000
00000000
00000000
,
00000000
00000000
00000000
00000000
,
00000000
00000000
00000000
00000000
,
00000000
00000000
00000000
00000000
,
10000000
00000000
01000000
00100000
00000000
00010000
00000000
00000000
00010000
00000000
01000000
00100000
00000000
10000000
00000000
00000000
,
10000000
00000000
01000000
00100000
00000000
00010000
00000000
00000000
00010000
00000000
00001000
00000010
00000000
00000100
00000000
00000000
,
00000100
00000000
00000001
00000010
00000000
00000100
00000000
00000000
00000100
00000000
00010000
00001000
00000000
01000000
00000000
00000000
,
01000000
00000000
00100000
10000000
00000000
00010000
00000000
00000000
00010000
00000000
10000000
01000000
00000000
00010000
00000000
00000000
,
00001000
00000000
00000000
00000000
00000100
00000001
00000000
00000000
00001000
00000000
00000000
00000000
00000001
00000010
00000000
00000000
,
00000100
00000000
00000000
00000000
00010000
00001000
00000000
00000000
00010000
00000000
00000000
00000000
00001000
00100000
00000000
00000000
,
00010000
00000000
00000000
00000000
10000000
00100000
00000000
00000000
01000000
00000000
00000000
00000000
00100000
10000000
00000000
00000000
,
00010000
00000000
00000000
00000000
00100000
00010000
00000000
00000000
10000000
00000000
00000000
00000000
01000000
00010000
00000000
00000000
,
00001000
00000000
00000100
00000010
00000000
00000100
00000000
00000000
00000001
00000000
00000010
00000100
00000000
00000010
00000000
00000000
,
00000001
00000000
00000100
00000010
00000000
00001000
00000000
00000000
00000100
00000000
00010000
00001000
00000000
01000000
00000000
00000000
,
00010000
00000000
00100000
01000000
00000000
00100000
00000000
00000000
00010000
00000000
10000000
00100000
00000000
10000000
00000000
00000000
,
00100000
00010000
00000000
00001000
00000000
00001000
00000000
00010000
00000000
00000000
00001000
00000000
00000010
00000100
00000000
00000010
,
00000001
00000000
00000100
00000010
00000000
00000100
00000000
00000001
00000000
00000000
00001000
00000000
00000100
00000010
00000000
00000000
,
00000100
00000000
00010000
00001000
00000000
00010000
00000000
01000000
00000000
00000000
10000000
00000000
00100000
01000000
00000000
00000000
,
00100000
00000000
10000000
00010000
00000000
00100000
00000000
00010000
00000000
00000000
10000000
00000000
00100000
00010000
00000000
00000000
,
00001000
00000000
00000010
00000000
00000100
00000000
00000010
00000000
00000001
00000000
00000100
00000000
00000010
00001000
00000000
00000000
,
00000001
00000000
00000100
00000010
00000000
00000010
00000000
00000000
00001000
00000000
00000100
00010000
00000000
00010000
00000000
00000000
,
00001000
00000000
01000000
00100000
00000000
00100000
00000000
00000000
10000000
00000000
01000000
00100000
00000000
00100000
00000000
00000000
,
00010000
00000000
10000000
01000000
00000000
01000000
00000000
00000000
00010000
00000000
00001000
00000100
00000000
00000100
00000000
00000000
,
00000010
00001000
00000000
00000001
00000000
00000001
00000000
00000010
00001000
00000000
00000000
00010000
00000000
00010000
00000000
00001000
,
00010000
00000000
00000000
00000000
00000000
00001000
00000000
00000000
00001000
00000000
00000000
00000000
00000000
00000100
00000000
00000000
,
00000100
00000000
00000000
00000000
00000000
00000001
00000000
00000000
00000001
00000000
00000000
00000000
00000000
00000010
00000000
00000000
,
00000010
00000000
00000000
00000000
00000000
00001000
00000000
00000000
00001000
00000000
00000000
00000000
00000000
00010000
00000000
00000000
,
00010000
00000000
00000000
00000000
00000000
00100000
00000000
00000000
00100000
00000000
10000000
00000000
01000000
00000000
00100000
00000000
,
00010000
01000000
00100000
10000000
02000000
00000000
03100000
00000000
,
00010000
10000000
00100000
00010000
00002000
00000000
00013000
00000000
,
00001000
00000000
00000010
00000000
00000100
00000000
00000010
00000000
00000001
00000000
00000100
00000000
00000001
00001000
00000001
00000000
,
00000000
00000000
00000010
00000000
00000000
00000010
00000000
00000000
00001000
00000000
00001000
00000000
00010000
00001000
00010000
00000000
,
00002000
00000000
00000000
00000000
01000000
00000000
00000000
00000000
00013000
00000000
00000100
00000000
00001000
00000001
00000000
00000000
,
00002000
00000000
00000000
00000000
00000010
00000000
00000000
00000000
00003001
00000000
00000100
00000000
00000010
00001000
00000000
00000000
,
00000002
00000000
00000000
00000000
00000010
00000000
00000000
00000000
00001003
00000000
00000010
00000000
00010000
00001000
00000000
00000000
,
00020000
00000000
00000000
00000000
00000100
00000000
00000000
00000000
00031000
00000000
00010000
00000000
00100000
10000000
00000000
00000000
,
01000000
00100000
00010000
00000000
10000000
00100000
01000000
00000000
,
00010000
00100000
00001000
00000000
00010000
00001000
00010000
00000000
,
00000010
00001000
00000001
00000000
00000010
00000100
00001000
00000000
,
00000002
00000000
00000000
00000000
00000103
00000000
00000000
00000000
00001000
00000000
00001000
00010000
00000000
00001000
00010000
00000000
,
01000000
00000000
10000000
00100000
00000000
10000000
00100000
00000000
10000000
00100000
00000000
00000000
10000000
00000000
01000000
00000000
,
00100000
00000000
00010000
00100000
00000000
00010000
00100000
00000000
00010000
00100000
00000000
00000000
00001000
00000000
00010000
00000000
,
00000010
00000000
00001000
00000010
00000000
00001000
00000010
00000000
00001000
00000010
00000000
00000000
00000100
00000000
00000001
00000000
,
00000010
00001000
00010000
00000100
00001000
00000001
00000100
00000000
,
00000001
00000000
00000100
00000010
00000000
00000100
00000010
00000000
00001000
00000100
00000000
00000000
00010000
00000000
00001000
00000000
,
01000000
00000000
00010000
00100000
00000000
00010000
00100000
00000000
00010000
00100000
00000000
00000000
00010000
00000000
10000000
00000000
,
01000000
00000000
00010000
00001000
00000000
00010000
00001000
00000000
00010000
00001000
00000000
00000000
00000100
00000000
00000010
00000000
,
00001000
00000000
00000100
00000010
00000000
00000010
00000000
00000001
00000100
00000000
00001000
00010000
00000000
00010000
00000000
00001000
,
00200000
00000000
00000000
00000000
00000000
00000000
00000000
00000000
00000000
00000000
00310000
00000000
10000000
00100000
00000000
00000000
,
20000000
00000000
00000000
00000000
00000000
00000000
00000000
00000000
00000000
00000000
31000000
00000000
00100000
00001000
00000000
00000000
,
00020000
00000000
00000000
00000000
00000000
00000000
00000000
00000000
00000000
00000000
00031000
00000000
00010000
00000010
00000000
00000000
,
00000200
00000000
00000000
00000000
00000000
00000000
00000000
00000000
00000000
00000000
00000301
00000000
00000010
00000100
00000000
00000000
,
00002000
00000000
00000000
00000000
00000010
00000000
00000000
00000000
00003001
00000000
00000100
00000000
00000010
00001000
00000000
00000000
,
00000002
00000000
00000000
00000000
00000010
00000000
00000000
00000000
00001003
00000000
00000100
00000000
00010000
00001000
00000000
00000000
,
00020000
00000000
00000000
00000000
00001000
00000000
00000000
00000000
01030000
00000000
10000000
00000000
00100000
01000000
00000000
00000000
,
00200000
00000000
10300000
01000000
10000000
10000000
00010000
00010000
,
10000000
01000000
00000000
00000000
00100000
00000000
00000000
00000000
00010000
00000000
01000000
00000000
00010000
10000000
00000000
00000000
,
00200000
00000000
00000000
00000000
00310000
00000000
00000000
00000000
00001000
00000000
00000010
00000000
00000100
00000010
00000000
00000000
,
00000002
00000000
00000000
00000000
00001003
00000000
00000000
00000000
00000001
00000000
00000100
00000000
00000010
00000100
00000000
00000000
,
00000020
00000000
00000000
00000000
00001030
00000000
00000000
00000000
00000100
00000000
00010000
00000000
00001000
01000000
00000000
00010000
,
10000000
01000000
00010000
00000000
00001000
00000100
00000001
00000000
,
00001000
00000100
00000010
00000000
00000001
00000100
00000010
00000000
,
00001000
00000010
00010000
00000000
00001000
00100000
00010000
00000000
,
10000000
00000000
00100000
01000000
00000000
01000000
00000000
00010000
00100000
00000000
00100000
00000000
00001000
00010000
00001000
00000000
,
00010000
00000000
00001000
00000010
00000000
00001000
00000010
00000000
00000100
00000000
00001000
00000000
00000001
00000100
00000000
00000000
,
00001000
00000000
00010000
00100000
00000000
00010000
00100000
00000000
01000000
00000000
00010000
00000000
10000000
01000000
00000000
00000000
,
00010000
00000000
00001000
00000100
00000000
00001000
00000100
00000000
00000010
00000000
00001000
00000000
00000001
00000010
00000000
00000000
,
00001000
00000000
00010000
00000000
01000000
00000000
10000000
00000000
00100000
00000000
01000000
00000000
00010000
00100000
00001000
00000000
,
00010000
00000000
00001000
00000100
00000000
00001000
00000100
00000000
00000010
00000000
00001000
00000000
00000001
00000010
00000000
00000000
,
00001000
00000000
00010000
01000000
00000000
00010000
01000000
00000000
00100000
00000000
00010000
00000000
10000000
00100000
00000000
00000000
,
00010000
00000000
00001000
00000010
00000000
00001000
00000010
00000000
00000100
00000000
00001000
00000000
00000001
00000100
00000000
00000000
,
00001000
00000000
00010000
00100000
00000000
00100000
00000000
10000000
01000000
00000000
00100000
00001000
00000000
00001000
00000000
00010000
,
00002000
00000000
00000000
00000000
01000000
00000000
00000000
00000000
00000000
00000000
00013000
00000000
00000100
00010000
00000000
00000000
,
00002000
00000000
00000000
00000000
01000000
00000000
00000000
00000000
00000000
00000000
00013000
00000000
00000100
00010000
00000000
00000000
,
00002000
00000000
00000000
00000000
01000000
00000000
00000000
00000000
00000000
00000000
00013000
00000000
00000100
00010000
00000000
00000000
,
00002000
00000000
00003010
00000001
00000200
00000000
00000320
00000000
,
00002030
00000000
00000000
00000000
00000000
00000000
00000000
00000000
00000000
00000000
00003100
00000000
00000000
00000100
00000000
00000000
,
00020000
00000000
00000000
00000000
00000000
00000000
00000000
00000000
00000000
00000000
00031000
00000000
00000000
00001000
00000000
00000000
,
02000000
00000000
00000000
00000000
00000000
00000000
00000000
00000000
00000000
00000000
03100000
00000000
00000000
00100000
00000000
00000000
,
20000000
00000000
31000000
00010000
00002000
00000000
00000200
00000000
,
00003300
00000000
00000000
00000000
;

//---------------dance-double - t7r----------------
#NOTES:
     dance-double:
     t7r:
     Hard:
     16:
     :
00000000
00000000
00000000
00000000
,
00000000
00000000
00000000
00000000
,
00000000
00000000
00000000
00000000
,
00000000
00000000
00000000
00000000
,
00000000
00000000
00000000
00000000
,
01000000
00000000
00010000
10000000
00000000
01000000
00000000
00000000
01000000
00000000
10000000
00010000
00000000
00100000
00000000
00000000
,
00100000
00000000
00001000
00010000
00000000
00000010
00000000
00000000
00000010
00000000
00001000
00000001
00000000
00000010
00000000
00000000
,
00000010
00000000
00000001
00000100
00000000
00000010
00000000
00000000
00000010
00000000
00001000
00000100
00000000
00010000
00000000
00000000
,
00010000
00000000
00001000
00010000
00000000
00100000
00000000
00000000
00100000
00000000
10000000
01000000
00000000
00100000
00000000
00000000
,
00110000
00000000
00010000
00100000
01000000
10000000
00000000
00000000
10010000
00000000
10000000
00100000
01000000
00010000
00000000
00000000
,
10100000
00000000
10000000
01000000
00100000
00010000
00000000
00000000
00110000
00000000
00100000
00001000
00010000
00001000
00000000
00000000
,
00011000
00000000
00010000
00000010
00001000
00000001
00000000
00000000
00001001
00000000
00000001
00000010
00000100
00001000
00000000
00000000
,
00001100
00000000
00000100
00010000
00001000
00010000
00000000
00000000
00011000
00000000
00001000
01000000
00010000
10000000
00000000
00000000
,
10010000
00000000
00010000
00100000
01000000
10000000
00010000
00000000
00010000
00000000
10000000
00100000
01000000
00010000
10000000
00000000
,
10000000
00000000
01000000
00100000
00001000
00010000
00001000
00000000
00001000
00000000
00010000
00000010
00001000
00000001
00001000
00000000
,
00001000
00000000
00000001
00000010
00000100
00001000
00000001
00000000
00000001
00000000
00000100
00000010
00001000
00000001
00001000
00000000
,
00001000
00000100
00000000
00010000
00000000
00010000
00000000
01000000
00000000
00000000
10000000
00100000
01000000
00010000
00000000
10000000
,
00010000
00000000
01000000
00100000
00000000
01000000
00000000
00010000
00000000
00000000
10000000
01000000
00100000
00010000
10000000
00000000
,
01000000
00000000
10000000
00100000
00000000
01000000
00000000
00100000
00000000
00000000
00010000
00001000
00010000
00000010
00000100
00000000
,
00000001
00000000
00000010
00000100
00000000
00000010
00000000
00000001
00000000
00000000
00001000
00000100
00000010
00000001
00001000
00000000
,
00000001
00000100
00000001
00001000
00000000
00001000
00000000
00000100
00000000
00000000
00010000
00001000
00010000
00000010
00000000
00001000
,
00000001
00000000
00000100
00001000
00000000
00010000
00000000
00001000
01000000
00000000
00010000
10000000
00000000
00100000
00000000
10000000
,
01000000
00000000
00010000
00001000
00000000
00000010
00000000
00000100
00001000
00000000
00000001
00000100
00000000
00001000
00000000
00010000
,
00000100
00001000
00000100
00000010
00000000
00000001
00000000
00001000
00000001
00000100
00000001
00001000
00000000
00000100
00000000
00010000
,
00001000
00010000
00000000
00100000
00000000
01100000
00000000
10000000
01000000
00100000
00000000
00001000
00000000
00011000
00000000
00001000
,
00000100
00000000
00000001
00001000
00000000
00000100
00000000
00000000
00000100
00000000
00010000
00001000
00000000
01000000
00000000
00000000
,
01000000
00000000
00010000
10000000
00000000
01000000
00000000
00000000
01000000
00000000
00100000
00001000
00000000
00010000
00000000
00000000
,
00010000
00000000
00001000
00000100
00000000
00001000
00000000
00000000
00001000
00000000
00010000
01000000
00000000
00010000
00000000
00000000
,
00010000
00000000
00001000
00000010
00000000
00000100
00000010
00000000
00000001
00000000
00001001
00000000
00000001
00000100
00000010
00000000
,
00001000
00000100
00001000
00000000
00000001
00000010
00000001
00000000
00002000
00000000
00000000
00000000
00003100
00000010
00000000
00000000
,
00000001
00000100
00000001
00000000
00000010
00000100
00000010
00000000
00000002
00000000
00000000
00000000
00001003
00000010
00000000
00000000
,
00001000
00000100
00010000
00000000
00000100
00010000
00001000
00000000
01000000
00010000
10000000
00000000
00010000
10000000
01000000
00000000
,
00000000
00000000
00010000
00001000
00000000
00010000
00001000
00000000
00000100
00000000
00000100
00000000
00000010
00001000
00000001
00000000
,
00002000
00000000
00000000
00000000
00000100
00000000
00000000
00000000
00003001
00000000
00000010
00000000
00000100
00001000
00000001
00000000
,
00000200
00000000
00000000
00000000
00000010
00000000
00000000
00000000
00001300
00000000
00010000
00000000
00001000
01000000
00100000
00000000
,
20000000
00000000
00000000
00000000
01000000
00000000
00000000
00000000
30010000
00000000
00100000
00000000
01000000
00100000
00010000
00000000
,
02000000
00000000
00000000
00000000
10000000
00000000
00000000
00000000
03100000
00000000
01000000
00000000
00010000
10000000
00100000
00000000
,
10000000
00000000
01000000
00000000
00100000
00010000
10000000
00000000
00100000
00000000
01000000
00000000
00010000
00100000
00001000
00000000
,
00010000
00000000
00000010
00000000
00001000
00000001
00000100
00000000
00000001
00000000
00000010
00000000
00000001
00001000
00000100
00000000
,
00001000
00000000
00000001
00000000
00000100
00000010
00001000
00000000
00010000
00000000
00100000
00000000
01000000
10000000
00010000
00000000
,
10000000
00000000
00100000
00000000
00010000
00001000
00000000
00010000
00001000
00000000
00011000
00000000
00010000
00000100
00001000
00000001
,
00001000
00000000
00000100
00000001
00000000
00000100
00000001
00000000
00001000
00000001
00000000
00000100
00001000
00000000
00000001
00000000
,
00000100
00000000
00001000
00010000
00000000
00001000
00010000
00000000
01000000
10000000
00000000
00010000
10000000
00010000
01000000
00000000
,
00010000
00000000
00100000
10000000
00000000
00100000
10000000
00000000
00010000
10000000
00000000
00100000
00010000
00000000
10000000
00000000
,
00100000
00010000
00100000
00000000
00010000
00001000
00010000
00000000
00001000
00000010
00000100
00000010
00000001
00001000
00000000
00000010
,
00001000
00000000
00000100
00000001
00000000
00001000
00000001
00000000
00001000
00010000
00000000
00100000
01000000
00000000
00010000
00000000
,
10000000
00000000
01000000
00010000
00000000
10000000
00010000
00000000
01000000
00100000
00000000
00010000
01000000
00001000
00010000
00000000
,
00011000
00000000
00001000
00000100
00000000
00000001
00000010
00000000
00001000
00010000
00000000
00001000
01000000
00000000
00010000
00000000
,
10000000
01000000
10000000
00010000
00000000
10000000
00000000
00100000
00010000
00000000
00001000
00010000
00000000
00001000
00000000
00000010
,
00000200
00000000
00000000
00000000
00000000
00000000
00000000
00000000
00000000
00000000
00001300
00000000
00000001
00000100
00000000
00000000
,
00000020
00000000
00000000
00000000
00000000
00000000
00000000
00000000
00000000
00000000
00001030
00000000
00000100
00010000
00000000
00000000
,
00002000
00000000
00000000
00000000
00000000
00000000
00000000
00000000
00000000
00000000
00013000
00000000
00001000
01000000
00000000
00000000
,
00020000
00000000
00000000
00000000
00000000
00000000
00000000
00000000
00000000
00000000
10030000
00000000
01000000
10000000
00000000
00000000
,
00020000
00000000
00000000
00000000
00100000
00000000
00000000
00000000
10030000
00000000
00010000
00000000
01000000
00010000
00000000
00000000
,
20000000
00000000
00000000
00000000
01000000
00000000
00000000
00000000
30010000
00000000
00100000
00000000
00001000
00010000
00000000
00000000
,
00000020
00000000
00000000
00000000
00000001
00000000
00000000
00000000
00000130
00000000
00000010
00000000
00001000
00000100
00000000
00000000
,
00020000
00000000
00000100
00032000
00010000
00010000
01000000
01003000
,
00010000
00000000
00100000
01000000
00000000
00100000
01000000
00000000
10000000
00000000
00100000
10000000
00010000
00100000
00000000
00010000
,
10000000
00000000
01000000
00100000
00000000
01000000
00100000
00000000
00010000
00000000
00001000
00000010
00000100
00000001
00000000
00001000
,
00000001
00000000
00000010
00000100
00000000
00000010
00000100
00000000
00000010
00000000
00000001
00000100
00000010
00001000
00000000
00000001
,
00001000
00000000
00000100
00000010
00000000
00000100
00000010
00000000
00000100
00000000
00010000
00001000
01000000
00010000
00000000
10000000
,
00010000
00000000
00100000
10000000
00000000
00100000
10000000
00000000
00010000
00000000
01000000
10000000
00100000
01000000
00000000
00010000
,
10000000
00000000
00100000
00010000
00000000
00100000
00010000
00000000
00001000
00000000
00010000
00000010
00001000
00000001
00000000
00000010
,
00000100
00000000
00001000
00000010
00000000
00001000
00000010
00000000
00000001
00000000
00001000
00000100
00000010
00001000
00000000
00000100
,
00010000
00000000
00001000
00010000
00000000
00011000
00000000
00010000
00100000
10000000
00100000
10000000
00010000
10000000
01000000
00000000
,
10000000
00100000
01000000
00010000
10000000
00100000
01000000
00010000
20000000
00000000
01000000
00000000
30010000
00100000
00000000
00100000
,
00001000
00010000
00000100
00010000
00001000
00010000
00000010
00001000
00000002
00000000
00000010
00000000
00001003
00000100
00000000
00000100
,
00001000
00000010
00000100
00000001
00001000
00000010
00000100
00000001
00002000
00000000
00000100
00000000
00003001
00000010
00000000
00000010
,
00000001
00000000
00000100
00001000
00010000
00000000
01000000
10000000
00010000
00100000
01000000
10000000
00100000
01000000
00010000
00000000
,
10000000
00010000
01000000
00100000
10000000
00100000
01000000
00010000
20000000
00000000
00100000
00000000
30010000
01000000
00000000
01000000
,
00010000
00100000
00000000
00100000
00001000
00010000
00000000
00010000
00001000
00000010
00000100
00000010
00000000
00000001
00001000
00000001
,
00000100
00000000
00001000
00010000
00001000
01000000
00010000
10000000
00010000
00000000
10000000
01000000
00100000
00000000
00001000
00010000
,
00000010
00000000
00001000
00000100
00000000
00000110
00000000
00000001
00000100
00000000
00001000
00010000
00000000
00001100
00000000
00001000
,
00000002
00000000
00000000
00000000
00000100
00000000
00000000
00000000
00001003
00000000
00000001
00000000
00000010
00000100
00000000
00000000
,
00020000
00000000
00000000
00000000
00001000
00000000
00000000
00000000
00030100
00000000
00001000
00000000
00000001
00000100
00000000
00000000
,
00002000
00000000
00000000
00000000
00000100
00000000
00000000
00000000
00013000
00000000
00001000
00000000
00010000
01000000
00000000
00000000
,
20000000
00000000
30100000
01000000
00020000
00230000
00302000
00000000
,
00023000
00000000
00000000
00000000
00000100
00000000
00000000
00000000
00000000
00000000
00031000
00000000
00010000
00001000
00000000
00000000
,
00020000
00000000
00000000
00000000
01000000
00000000
00000000
00000000
00000000
00000000
00031000
00000000
00010000
00001000
00000000
00000000
,
00020000
00000000
00000000
00000000
00000010
00000000
00000000
00000000
00000000
00000000
00031000
00000000
00010000
00001000
00000000
00000000
,
00020000
00000000
00130000
10000000
00020000
00000000
00200000
00000000
,
00330000
00000000
00000000
00000000
;
