#VERSION:0.83;
#TITLE:Peekaboo You!;
#SUBTITLE:;
#ARTIST:ZST "heart♥shape";
#TITLETRANSLIT:;
#SUBTITLETRANSLIT:;
#ARTISTTRANSLIT:ZST "heartshape";
#GENRE:;
#ORIGIN:;
#CREDIT:;
#BANNER:Peekaboo You!.png;
#BACKGROUND:Peekaboo You!-bg.png;
#PREVIEWVID:;
#JACKET:Peekaboo You!-jacket.png;
#CDIMAGE:;
#DISCIMAGE:;
#LYRICSPATH:;
#CDTITLE:;
#MUSIC:Peekaboo You!.ogg;
#OFFSET:-0.756494;
#SAMPLESTART:78.435028;
#SAMPLELENGTH:15.000000;
#SELECTABLE:YES;
#BPMS:0.000=170.000;
#STOPS:;
#DELAYS:;
#WARPS:;
#TIMESIGNATURES:0.000=4=4;
#TICKCOUNTS:0.000=4;
#COMBOS:0.000=1;
#SPEEDS:0.000=1.000=0.000=0;
#SCROLLS:0.000=1.000;
#FAKES:;
#LABELS:0.000=Song Start;
#BGCHANGES:;
#KEYSOUNDS:;
#ATTACKS:
;

//---------------dance-single - ----------------
#NOTEDATA:;
#CHARTNAME:;
#STEPSTYPE:dance-single;
#DESCRIPTION:;
#CHARTSTYLE:;
#DIFFICULTY:Hard;
#METER:15;
#RADARVALUES:0.777909,0.798711,0.456652,0.430804,0.697903,632.000000,579.000000,53.000000,50.000000,1.000000,0.000000,0.000000,0.000000,0.000000,0.777909,0.798711,0.456652,0.430804,0.697903,632.000000,579.000000,53.000000,50.000000,1.000000,0.000000,0.000000,0.000000,0.000000;
#CREDIT:;
#OFFSET:-0.794940;
#BPMS:0.000000=170.000000
;
#STOPS:;
#DELAYS:;
#WARPS:;
#TIMESIGNATURES:0.000000=4=4
;
#TICKCOUNTS:0.000000=4
;
#COMBOS:0.000000=1
;
#SPEEDS:0.000000=1.000000=0.000000=0
,141.000000=0.800000=11.000000=0
,156.000000=0.600000=28.000000=0
,186.500000=1.100000=0.250000=0
,186.750000=0.800000=0.250000=0
,187.000000=1.050000=0.250000=0
,187.250000=0.900000=0.250000=0
,187.500000=1.000000=0.250000=0
;
#SCROLLS:0.000000=1.000000
;
#FAKES:;
#LABELS:0.000000=Song Start
;
#NOTES:
0000
0000
0000
0000
,
0000
0000
0000
0000
,
0000
0000
0000
0000
,
0000
0000
0000
0000
,
0000
0000
1000
0100
1000
0000
0001
0000
0010
0000
0001
0000
0100
0000
0010
0000
,
0000
0000
1000
0010
1000
0000
0001
0000
0100
0000
0010
0000
1000
0000
0100
0000
,
0000
0000
1000
0001
1000
0000
0100
0000
0001
0000
0100
0000
1000
0000
0010
0000
,
0100
0000
0001
0000
0010
0001
0000
0100
0000
0100
0010
0000
1000
0000
0100
0000
,
0000
0000
1000
0100
1000
0000
0001
0000
0100
0000
0010
0000
1000
0000
0100
0000
,
0010
0000
0100
0000
0010
0100
0000
1000
0000
0000
0100
0010
0002
0000
0000
0000
,
0103
0000
0010
0000
0100
0010
0000
1000
0000
1000
0010
0000
0100
0001
0000
1001
,
0000
1000
0100
0220
0000
0300
0030
0000
,
0000
0000
0001
0010
0001
0000
1000
0001
1000
0000
0001
0000
0100
0000
0010
0000
,
0000
0000
0100
0010
0100
0000
0010
1000
0010
0000
0100
0000
0001
0000
0010
0000
,
0000
0000
0001
1000
0001
0000
0010
0100
0010
0000
0100
0000
1000
0000
0001
0000
,
0100
0001
0100
0000
0010
0000
0010
1000
0000
0000
0012
0000
0000
0000
1003
0000
,
0000
0000
1000
0100
0010
0000
0100
1000
0001
0000
0010
0000
1000
0000
0010
0000
,
0001
0010
0001
0000
0010
0100
0000
1000
0000
0000
0001
0100
0020
0000
0000
0000
,
1030
0000
1000
0000
0001
1000
0000
0010
0000
0010
1000
0000
0001
0010
0000
0100
,
0000
0100
0010
0000
0001
1000
0000
0010
0000
0000
2002
0000
0000
0000
3003
0000
,
0002
0000
0103
0000
0010
0100
0000
0002
0000
0000
1003
0000
0100
1000
0000
0001
,
0000
0001
0100
0000
0010
0100
0000
0002
0000
0000
1003
0000
0100
0000
0010
0000
,
0001
0010
0100
0000
0100
0000
0010
0100
1000
0000
1000
0000
0000
0000
0110
0000
,
0000
0000
1000
0010
0100
0000
0100
0000
0010
0100
0001
0000
0001
0000
0001
0000
,
2000
0000
3100
0000
0010
0100
0000
2000
0000
0000
3001
0000
0100
0001
0000
1000
,
0000
1000
0100
0000
0010
0100
0000
2000
0000
0000
3001
0000
0010
0000
0100
0000
,
1000
1000
0020
0000
0230
0001
0320
1000
,
0130
0000
0100
0001
0000
0010
0000
0010
0100
0000
1000
0000
0020
0000
0000
0000
,
0130
0001
1001
1000
1100
0100
0110
0010
,
0100
1000
1001
0001
0101
0100
0010
0100
,
0001
0000
0000
0001
1000
0000
0000
1000
0100
0000
0000
0100
0010
0000
0100
0000
,
1000
0000
0000
1000
0001
0000
0100
0000
0010
0000
0100
0010
0100
0010
0100
0010
,
1000
0000
0000
1100
0000
0000
1001
0000
0000
1010
0000
0000
0210
0000
0000
0000
,
0301
0000
0000
0011
0000
0000
1001
0000
0000
1100
0000
0000
0210
0000
0000
0000
,
1300
0000
0000
1100
0000
0000
0101
0000
0000
0011
0000
0000
1010
0000
0000
0000
,
0210
0002
0000
0000
,
0000
0000
0000
0300
,
2000
0000
0000
0003
,
0001
0010
3100
1001
,
0000
0000
1000
0100
1000
0000
0100
0000
0010
0000
0100
0000
1000
0000
1000
0000
,
0000
0000
0001
0100
0001
0000
0100
0000
0010
0000
0100
0000
0001
0000
1000
0000
,
0000
0000
0001
0010
0001
0000
0010
0000
0100
0000
0010
0000
0001
0000
0001
0000
,
1000
0010
1010
0000
0001
0010
0011
0000
,
1000
0100
0010
0010
0100
1000
0001
0000
,
0001
0000
0100
0000
0001
1000
0000
0020
0000
0000
0000
0000
1030
0000
0000
0000
,
1000
0010
0001
0010
1000
0100
0010
0001
,
0100
0100
0010
0010
1000
0M02
0000
0000
,
1003
0000
0100
0000
0010
0001
0000
0002
0000
0000
0103
0000
0010
0000
0100
0000
,
0001
0000
0100
0000
0010
1000
0000
2000
0000
0000
3100
0000
1000
0100
1000
0000
,
0001
0000
0100
0000
0010
0001
0000
0002
0000
0000
0013
0000
0100
0000
0010
0000
,
1000
0000
0100
0000
0010
1000
0000
2000
0000
0000
3010
0000
0001
0010
0001
0000
,
0011
0000
0010
0000
0001
1000
0000
0020
0000
0000
1030
0000
0010
0000
0100
0000
,
1010
0000
0010
0000
1000
0001
0000
0020
0000
0000
0031
0000
0010
0000
0100
0010
,
0100
0000
1000
0000
0001
0000
0100
0000
0001
0010
0100
1000
0010
0100
0001
1000
,
0001
0000
0100
0000
0010
0000
1000
0000
0020
0000
0030
1000
0100
0000
0010
0000
,
0001
0000
1000
0000
0100
0010
0000
0110
0000
0000
0100
0000
0100
0000
1000
0001
,
1000
0000
0001
0000
0100
0010
0000
0110
0000
0000
0010
0000
0010
1000
0001
1000
,
0100
0000
0010
0000
0001
0010
0000
0011
0000
0000
0001
0000
0001
0000
1000
0001
,
0100
0000
0010
0000
1000
0010
0000
1010
0000
0000
1000
0000
1000
0010
1000
0001
,
1000
0000
0100
0000
0010
0100
0000
1100
0000
0000
1000
0000
0010
0000
0010
0100
,
0001
0000
0100
0000
0010
0100
0000
0010
0000
1000
0000
1000
0001
1000
0001
0010
,
0100
0000
0100
0000
0010
0100
0000
2000
0000
0000
3010
0000
0100
0000
0100
0001
,
1000
0000
0010
0000
1000
0001
0000
0101
0000
1100
0000
0001
1000
0100
0010
0001
,
1000
0020
0130
0020
0031
0020
0130
0020
,
1030
0200
0310
0200
0301
0200
0310
0200
,
1300
0002
0103
0002
0013
0002
1003
2000
,
3010
0000
2000
0000
3100
0000
2000
0000
3001
0000
1000
0000
1000
0010
0100
0001
,
1000
0000
0001
0000
0100
0001
0000
0020
0000
0000
0031
0000
0001
0000
0010
0001
,
0100
0001
0100
0000
0100
0010
0000
2000
0000
0000
3000
0100
0020
0000
0000
0000
,
0130
0000
1000
0000
0100
1000
0000
0001
0000
0001
0010
0000
0001
0000
1000
0000
,
0001
0000
0100
0000
0001
0100
0000
0010
0000
0010
1000
0000
0001
0000
1000
0000
,
0100
0000
0010
0000
0100
1000
0000
0001
0000
0001
0100
0000
0010
0000
0100
0000
,
0101
0000
0110
0000
1010
0000
0110
0000
0000
0000
0000
0000
1000
0001
0010
0100
,
0010
0000
0000
1100
0000
0000
1001
0000
0000
0101
0000
0000
0110
0000
0000
1010
,
0000
0000
1001
0000
0000
0011
0000
0000
0010
0100
1000
0010
0100
0000
0000
0101
,
0000
0000
1010
0000
0000
0110
0000
0000
1001
0000
0000
1100
0000
0000
0011
0000
,
0000
0110
0000
0000
0010
0001
0100
0010
1000
0000
0001
0000
0001
0100
0010
1000
,
0002
0013
0000
0000
;

//---------------dance-single - ----------------
#NOTEDATA:;
#CHARTNAME:;
#STEPSTYPE:dance-single;
#DESCRIPTION:;
#CHARTSTYLE:;
#DIFFICULTY:Medium;
#METER:13;
#RADARVALUES:0.541582,0.599033,0.482501,0.180938,0.137857,440.000000,384.000000,56.000000,21.000000,1.000000,0.000000,0.000000,0.000000,0.000000,0.541582,0.599033,0.482501,0.180938,0.137857,440.000000,384.000000,56.000000,21.000000,1.000000,0.000000,0.000000,0.000000,0.000000;
#CREDIT:;
#OFFSET:-0.756494;
#BPMS:0.000000=170.000000
;
#STOPS:;
#DELAYS:;
#WARPS:;
#TIMESIGNATURES:0.000000=4=4
;
#TICKCOUNTS:0.000000=4
;
#COMBOS:0.000000=1
;
#SPEEDS:0.000000=1.000000=0.000000=0
,141.000000=0.800000=11.000000=0
,156.000000=0.600000=28.000000=0
,186.500000=1.100000=0.250000=0
,186.750000=0.800000=0.250000=0
,187.000000=1.050000=0.250000=0
,187.250000=0.900000=0.250000=0
,187.500000=1.000000=0.250000=0
;
#SCROLLS:0.000000=1.000000
;
#FAKES:;
#LABELS:0.000000=Song Start
;
#NOTES:
// measure 0
0000
0000
0000
0000
,  // measure 1
0000
0000
0000
0000
,  // measure 2
0000
0000
0000
0000
,  // measure 3
0000
0000
0000
0000
,  // measure 4
0000
1000
0100
0010
0001
0100
0010
1000
,  // measure 5
0000
1000
0100
0010
0100
1000
0001
1000
,  // measure 6
0000
1000
0100
0010
0001
1000
0010
0100
,  // measure 7
0001
0000
0000
0000
0001
0000
0000
1000
0000
0000
0100
0000
1000
0000
0010
0000
,  // measure 8
0000
1000
0100
0010
0001
0100
0010
1000
,  // measure 9
0010
0000
0100
0000
0010
0000
0000
2000
0000
0000
0000
0000
3001
0000
0000
0000
,  // measure 10
0010
0000
0001
0000
0010
0000
0000
0010
0000
0000
0100
0000
1000
0000
0000
0001
,  // measure 11
0000
1000
0100
0020
0000
0000
0030
0000
,  // measure 12
0000
0001
0100
0001
1000
0010
0100
0001
,  // measure 13
0000
0001
0100
0001
1000
0001
0010
0001
,  // measure 14
0000
0001
0100
0010
0100
0001
1000
0100
,  // measure 15
0010
0000
0000
0000
0010
0000
0000
0100
0000
0000
0020
0000
0000
0000
0031
0000
,  // measure 16
0000
0001
0100
0001
0010
0100
1000
0001
,  // measure 17
0100
0000
0010
0000
0100
0000
0000
0002
0000
0000
0000
0000
0013
0000
0000
0000
,  // measure 18
0001
0000
1000
0000
0010
0000
0000
0010
0000
0000
1000
0000
0100
0000
0000
0100
,  // measure 19
0000
0000
1000
0000
0001
0000
0000
0100
0000
0000
0220
0000
0330
0000
0000
0000
,  // measure 20
1000
0000
1010
0000
1100
0000
0100
0010
,  // measure 21
0001
0000
0011
0000
0101
0000
0100
0001
,  // measure 22
1000
0100
1000
0001
0100
0001
0000
1001
,  // measure 23
0000
0001
0100
0001
1000
0100
2000
0000
,  // measure 24
3001
0000
0101
0000
0110
0000
0100
0010
,  // measure 25
1000
0000
1100
0000
0110
0000
0010
0001
,  // measure 26
1000
0000
1000
0000
0001
0010
0100
0000
,  // measure 27
0010
0001
0100
0010
1000
0100
2000
0000
,  // measure 28
3001
0101
1100
0101
,  // measure 29
1001
0000
1010
0000
0011
0000
1000
0001
,  // measure 30
0010
0100
0010
0100
,  // measure 31
1000
0100
0010
0001
0100
0010
0100
0010
,  // measure 32
1000
0000
0000
0010
0000
0000
0001
0000
0000
0010
0000
0000
1010
0000
0000
0000
,  // measure 33
0001
0000
0000
0010
0000
0000
1000
0000
0000
0010
0000
0000
0011
0000
0000
0000
,  // measure 34
0001
0000
0000
0100
0000
0000
1000
0000
0000
0100
0000
0000
0110
0000
0000
0000
,  // measure 35
2001
3200
0000
0000
,  // measure 36
0000
0000
0000
0000
,  // measure 37
0020
0000
0000
0300
,  // measure 38
0001
0001
0031
1001
,  // measure 39
0000
1000
0100
0000
0010
0000
0100
1000
,  // measure 40
0000
0001
0100
0000
0010
0000
0010
1000
,  // measure 41
0000
1000
0100
0000
0010
0000
0100
1000
,  // measure 42
0001
0000
0100
0000
0010
0000
1000
0010
,  // measure 43
0000
0000
0100
0100
0000
0000
1001
0000
,  // measure 44
0000
0000
0010
0010
0000
0000
1001
0000
,  // measure 45
0001
0010
0100
1000
,  // measure 46
0010
1000
0100
0000
1000
002M
0000
0000
,  // measure 47
0130
0000
0201
0000
0310
0000
0100
0001
,  // measure 48
0010
0000
1200
0000
0310
0000
0100
1000
,  // measure 49
0001
0000
0102
0000
1003
0000
1000
0010
,  // measure 50
1000
0000
2100
0000
3001
0000
0001
0010
,  // measure 51
0100
0000
1100
0000
0101
0000
0100
0001
,  // measure 52
0010
0000
0011
0000
1010
0000
0010
1000
,  // measure 53
0100
0010
0100
0010
0001
1000
0001
1000
,  // measure 54
0020
0000
0000
0030
,  // measure 55
1000
0000
0001
0000
0010
0000
0000
0100
0000
0000
0010
0000
0010
0000
0000
0000
,  // measure 56
0001
0000
1000
0000
0010
0000
0000
0100
0000
0000
0010
0000
0000
0000
0010
0000
,  // measure 57
1000
0000
0001
0000
0100
0000
0000
0010
0000
0000
0100
0000
0100
0000
0000
0000
,  // measure 58
0001
0101
1000
1100
,  // measure 59
0001
0000
1000
0000
0100
0000
0000
1000
0000
0000
0010
0000
0010
0000
0000
0000
,  // measure 60
1000
0000
0001
0000
0100
0000
0000
0001
0000
0000
0010
0000
0000
0000
0010
0000
,  // measure 61
0100
0000
0010
0000
0001
0000
0000
1000
0000
0000
0010
0000
0100
0000
0000
0000
,  // measure 62
0010
0000
1000
0000
0001
0000
0000
0010
0000
0000
0100
0000
1000
0000
0002
0000
,  // measure 63
1003
0100
0000
1100
0000
0110
0000
0011
,  // measure 64
0000
1001
0000
0101
0000
0110
0000
1010
,  // measure 65
0000
1001
0000
1100
0000
0011
0000
1010
,  // measure 66
0000
0101
0000
0110
0000
0010
0100
0001
,  // measure 67
1000
0000
0100
0000
1000
0000
0000
0001
0000
0000
0010
0000
0010
0000
0000
0000
,  // measure 68
0001
0000
0100
0000
0001
0000
0000
2000
0000
0000
0000
0000
3010
0000
0000
0000
,  // measure 69
0100
0001
1000
0001
0100
0000
1001
0000
,  // measure 70
0100
1000
0001
1000
0100
0000
0110
0000
,  // measure 71
0001
1000
0010
0100
0001
0000
0001
0010
,  // measure 72
0100
1000
0001
1000
0000
0000
0000
0000
,  // measure 73
0001
0000
0000
0101
0000
0000
0100
0000
0000
0110
0000
0000
0010
0000
0000
1010
,  // measure 74
0000
0000
1000
0000
0000
1001
0000
0000
1000
0000
0100
0000
0010
0000
0000
0110
,  // measure 75
0000
0000
0100
0000
0000
1100
0000
0000
1000
0000
0000
1001
0000
0000
0001
0000
,  // measure 76
0000
0011
0000
0000
0010
0000
0100
0000
2000
0000
0000
0000
3001
0000
0100
0000
,  // measure 77
0020
1030
0000
0000
;

//---------------dance-single - ----------------
#NOTEDATA:;
#CHARTNAME:;
#STEPSTYPE:dance-single;
#DESCRIPTION:;
#CHARTSTYLE:;
#DIFFICULTY:Easy;
#METER:9;
#RADARVALUES:0.328642,0.532474,0.215402,0.198170,0.000000,267.000000,242.000000,25.000000,23.000000,0.000000,0.000000,0.000000,0.000000,0.000000,0.328642,0.532474,0.215402,0.198170,0.000000,267.000000,242.000000,25.000000,23.000000,0.000000,0.000000,0.000000,0.000000,0.000000;
#CREDIT:;
#OFFSET:-0.756494;
#BPMS:0.000000=170.000000
;
#STOPS:;
#DELAYS:;
#WARPS:;
#TIMESIGNATURES:0.000000=4=4
;
#TICKCOUNTS:0.000000=4
;
#COMBOS:0.000000=1
;
#SPEEDS:0.000000=1.000000=0.000000=0
,141.000000=0.800000=11.000000=0
,156.000000=0.600000=28.000000=0
,186.500000=1.100000=0.250000=0
,186.750000=0.800000=0.250000=0
,187.000000=1.050000=0.250000=0
,187.250000=0.900000=0.250000=0
,187.500000=1.000000=0.250000=0
;
#SCROLLS:0.000000=1.000000
;
#FAKES:;
#LABELS:0.000000=Song Start
;
#NOTES:
0000
0000
0000
0000
,
0000
0000
0000
0000
,
0000
0000
0000
0000
,
0000
0000
0000
0000
,
1000
0100
0010
0010
,
0100
1000
0001
0001
,
1000
0100
0001
0100
,
1000
0010
0100
0001
,
0001
0100
0010
0010
,
0100
0001
0020
0030
,
0001
0100
1000
0100
,
0002
0003
2000
3000
,
1000
0001
0100
0001
,
1000
0001
0100
0010
,
1000
0001
0010
0001
,
0100
0100
0010
0010
,
1000
0010
0100
0001
,
0010
0010
0200
0300
,
0010
0001
1000
0010
,
0100
0000
0001
0000
0001
2000
0000
0000
,
3001
0100
0010
0100
,
1000
0100
0010
0100
,
0001
0001
0011
0000
,
0000
1000
1000
1010
,
1000
0100
0010
0100
,
0001
0100
0010
0100
,
1000
0001
0100
0001
,
1000
0100
1000
0020
,
0030
0101
1100
0101
,
0011
1010
0011
1001
,
1000
0100
0010
0001
,
0100
0010
2000
3000
,
0001
0000
0000
0101
0000
0000
1001
0000
,
1000
0000
0000
1100
0000
0000
1001
0000
,
0001
0000
0000
0100
0000
0000
0010
0000
,
1000
0200
0000
0000
,
0000
0000
0000
0000
,
0300
0000
0000
0000
,
1000
0001
1000
0001
,
0000
0100
0000
0010
,
0000
1000
0000
0001
,
0000
0010
0000
0100
,
0000
1000
0000
0001
,
0000
0101
0000
1001
,
0000
1100
0000
0110
,
0000
0001
1000
0010
,
0100
0000
0100
0000
0100
0020
0000
0000
,
2030
3000
1000
0010
,
0100
0000
0010
0100
,
0002
0003
0100
0001
,
0010
0000
0001
0010
,
0220
0000
0000
0330
,
2002
0000
0000
3003
,
0022
0033
2020
3030
,
0010
0100
0001
1000
,
0100
1000
0100
1000
,
0001
0010
0001
0010
,
0001
0100
0001
0100
,
0010
1000
0010
1000
,
0001
1000
0001
1000
,
0100
0010
0100
0010
,
0001
0010
0100
1000
,
0010
0100
0020
0030
,
0100
0100
0001
0001
,
1000
1000
0100
0100
,
0010
0010
0001
0001
,
1000
1000
0010
0110
,
1000
0001
1000
0100
,
0010
0001
0200
0310
,
1000
1000
1000
1100
,
0001
0001
0001
0101
,
1000
0001
0001
1000
,
0100
0010
0100
0010
0000
0000
0000
0000
,
0001
0000
0000
0100
0000
0000
0010
0000
,
0000
1000
0000
0000
0001
0000
1000
0000
,
0000
0100
0000
0000
0010
0000
0000
0001
,
0000
1000
0001
0010
,
2002
3003
0000
0000
;

//---------------dance-single - ----------------
#NOTEDATA:;
#CHARTNAME:;
#STEPSTYPE:dance-single;
#DESCRIPTION:;
#CHARTSTYLE:;
#DIFFICULTY:Beginner;
#METER:4;
#RADARVALUES:0.180938,0.298547,0.129241,0.120625,0.000000,147.000000,132.000000,15.000000,14.000000,0.000000,0.000000,0.000000,0.000000,0.000000,0.180938,0.298547,0.129241,0.120625,0.000000,147.000000,132.000000,15.000000,14.000000,0.000000,0.000000,0.000000,0.000000,0.000000;
#CREDIT:;
#OFFSET:-0.756494;
#BPMS:0.000000=170.000000
;
#STOPS:;
#DELAYS:;
#WARPS:;
#TIMESIGNATURES:0.000000=4=4
;
#TICKCOUNTS:0.000000=4
;
#COMBOS:0.000000=1
;
#SPEEDS:0.000000=1.000000=0.000000=0
,141.000000=0.800000=11.000000=0
,156.000000=0.600000=28.000000=0
,186.500000=1.100000=0.250000=0
,186.750000=0.800000=0.250000=0
,187.000000=1.050000=0.250000=0
,187.250000=0.900000=0.250000=0
,187.500000=1.000000=0.250000=0
;
#SCROLLS:0.000000=1.000000
;
#FAKES:;
#LABELS:0.000000=Song Start
;
#NOTES:
0000
0000
0000
0000
,
0000
0000
0000
0000
,
0000
0000
0000
0000
,
0000
0000
0000
0000
,
0000
1000
0000
1000
,
0000
0001
0000
0001
,
0000
1000
0000
1000
,
0001
0000
0001
0000
,
0000
1000
0000
1000
,
0010
0000
0010
0000
,
0100
0000
0100
0000
,
0002
0000
0000
0003
,
0000
0001
0000
0001
,
0000
0010
0000
0001
,
0000
0001
0000
0001
,
0100
0000
0100
0000
,
0000
0001
0000
0001
,
1000
0000
1000
0000
,
0010
0000
0100
0000
,
0020
0000
0000
0000
0000
0030
0000
0000
,
1000
0000
0100
0000
,
0010
0000
0001
0000
,
1001
0000
0000
0000
,
1001
0000
0000
0000
,
0001
0000
0100
0000
,
0010
0000
1000
0000
,
1000
0001
0000
0001
,
0000
0001
0002
0003
,
0010
0100
0010
0100
,
0010
0100
0020
0030
,
1001
0000
0000
0000
,
0000
0000
0000
0000
,
1100
0000
0000
0000
,
1001
0000
0000
0000
,
0101
0000
0000
0000
,
0220
0330
0000
0000
,
0000
0000
0000
0000
,
0000
0000
0000
0000
,
1000
0100
0010
0001
,
0000
1000
0000
0100
,
0000
0001
0000
0100
,
0000
1000
0000
0010
,
0000
0001
0000
0010
,
0000
1000
0000
1000
,
0000
0001
0000
0001
,
0001
0000
1000
0000
,
1001
0000
0000
0000
,
0002
0000
0000
0003
,
0200
0000
0000
0300
,
0020
0000
0000
0030
,
2000
0000
0000
3000
,
2002
0000
3003
0000
,
0220
0000
0330
0000
,
0001
0000
1000
0000
,
1001
0000
0000
0000
,
0001
0000
0100
0000
,
0010
0000
0100
0000
,
0001
0000
0010
0000
,
0100
0000
0010
0000
,
0001
0000
0100
0000
,
0010
0000
1000
0000
,
0100
0000
1000
0000
,
0001
0001
0001
0000
,
0100
0000
0100
0000
,
0010
0000
0010
0000
,
1000
0000
1000
0000
,
0001
0000
0001
0000
,
0010
0000
0010
0000
,
0100
0000
0100
0000
,
1001
0000
0000
0000
,
0110
0000
0000
0000
,
1001
0000
0000
0000
,
0010
0010
0000
0000
,
1000
0000
0000
0100
0000
0000
0010
0000
,
0000
0001
0000
0000
1000
0000
0001
0000
,
0000
0100
0000
0000
0010
0000
0000
1000
,
0000
0001
1000
0001
,
1001
0000
0000
0000
;
