#TITLE:PHOTON BLAXT;
#SUBTITLE:;
#ARTIST:seatrus;
#TITLETRANSLIT:;
#SUBTITLETRANSLIT:;
#ARTISTTRANSLIT:;
#GENRE:;
#CREDIT:;
#MUSIC:PHOTON BLAXT.ogg;
#BANNER:PHOTON BLAXT.png;
#BACKGROUND:PHOTON BLAXT-bg.png;
#CDTITLE:;
#SAMPLESTART:84.092;
#SAMPLELENGTH:15.000;
#SELECTABLE:YES;
#OFFSET:-0.092;
#BPMS:0.000=165.000;
#STOPS:;
#BGCHANGES:;
#FGCHANGES:;

//--------------- dance-single - chronon blaxt ----------------
#NOTES:
     dance-single:
     chronon blaxt:
     Beginner:
     6:
     0,0,0,0,0:
0000
0000
0000
0000
,
0000
0000
0000
0000
,
0000
0000
0000
0000
,
0000
0000
0000
0000
,
0000
0000
0000
0000
,
0000
0000
0000
0000
,
0002
0000
0000
1000
0000
0000
0203
0000
,
0000
0010
0000
0000
0302
0000
0023
0000
,
0230
0000
0000
1000
0000
0000
0001
0000
,
0000
2300
0000
0000
3001
0000
1002
0000
,
1003
0010
0100
0001
,
1000
0100
0010
0001
,
1000
0010
0100
0001
,
1000
0100
1000
0020
,
1030
0000
0010
0000
0100
0000
0001
1000
,
0001
0010
0100
0000
,
0100
0001
0100
0010
,
0100
1000
0001
1001
,
1000
0010
0100
0010
,
1000
0100
0010
0200
,
1300
0001
0100
0010
,
1000
0100
0001
0100
,
1000
1001
0001
0100
,
0010
0100
0001
1000
,
0100
0010
0100
0000
1000
0001
1000
0000
,
0002
0000
0003
1001
,
0001
0010
0100
0010
,
1000
0010
0100
0001
,
0100
1000
0010
0001
,
0010
0000
0000
0100
0000
0000
0001
0000
,
1000
0100
0010
0001
,
1000
1001
0001
0101
,
0100
0010
1000
0000
,
0001
0010
0100
2000
,
3001
0100
1000
0000
,
0100
0010
0001
0000
,
0010
1000
0100
0000
,
0010
0001
0100
0010
,
1000
0001
0010
0100
,
1000
0001
0100
0010
,
1000
0001
1000
0001
,
2002
0000
0000
3003
,
2000
0000
0000
0000
,
3200
0000
0000
0000
,
0320
0000
0000
0000
,
0032
0000
0000
0000
,
1003
0010
0100
0000
,
0001
0010
0100
0100
,
1000
0001
0010
0010
,
0100
1000
0001
1001
,
0001
0100
0010
1000
,
0001
0010
0100
1000
,
0001
0100
0010
1000
,
0001
0010
0001
0200
,
0301
0000
0100
0000
0010
0000
1000
0001
,
1000
0100
0010
0000
,
0010
1000
0010
0100
,
0020
0000
0000
0031
,
1000
0010
0100
1000
,
0100
0001
0010
1000
,
0010
0100
0100
1000
,
0001
0100
0010
1000
,
0001
0010
1000
0010
,
0001
1000
0010
0010
,
1000
0010
0100
1000
,
0100
0000
0000
0001
0000
0000
1000
0000
,
0001
0010
0100
0001
,
0100
1000
0010
0001
,
0010
0100
0001
0010
,
1000
0001
0100
1000
,
0001
0100
0010
1000
,
0001
0010
0100
1000
,
0002
0000
2003
0000
,
3010
0000
0000
0100
0000
0000
0001
0000
,
1000
0000
0100
0000
0010
0000
0001
1000
,
0001
0000
0100
0000
0010
0000
1000
0001
,
1000
0000
0100
0000
0010
0001
0010
0000
,
0001
0000
1000
0001
1000
0000
0200
0000
,
1300
0001
1000
0000
0010
0000
1000
0001
,
1000
0000
0100
0000
0010
0001
0000
0000
,
0100
1000
0100
0010
,
1000
0001
1000
2002
,
3003
0000
0000
0000
;

//--------------- dance-single - chronon blaxt ----------------
#NOTES:
     dance-single:
     chronon blaxt:
     Easy:
     9:
     0,0,0,0,0:
0000
0000
0000
0000
,
0000
0000
0000
0000
,
0000
0000
0000
0000
,
0000
0000
0000
0000
,
0000
0000
0000
0000
,
0000
0000
0000
0000
,
2000
0000
0000
0001
0000
0000
3200
0000
,
0000
0010
0000
0000
2300
0000
3020
0000
,
0230
0000
0000
0001
0000
0000
1000
0000
,
0000
0302
0000
0000
1003
0000
2001
0000
,
3001
0010
0100
0000
1000
0010
0100
0000
,
0001
0100
0010
0000
1000
0100
0010
0100
,
1000
0100
0010
0000
0001
0100
0010
0000
,
1000
0010
0100
0000
0001
1000
0200
0000
,
1300
0100
0010
0001
1000
0010
0100
0000
,
0001
0100
0010
1000
0001
0010
0000
0000
,
0001
0010
2000
0000
3010
0001
0200
0000
,
0310
0000
0000
1000
0000
0000
0001
0000
0000
1000
0000
0000
0200
0000
0000
0000
,
0001
0310
0001
1000
,
0010
0000
0100
0000
0001
0000
1000
0001
,
1000
0010
1000
0001
,
0010
0100
0001
0100
,
1000
1001
0001
1000
,
0100
0000
0000
0000
0010
0000
0000
0000
0001
0000
0000
1000
0000
0000
0010
0000
,
0100
0000
0100
0000
0000
0001
0000
0000
0010
0000
0010
0000
0000
0100
0000
0000
,
0020
0000
0000
0000
0000
0030
0120
0000
,
1000
0130
1000
0010
,
0001
0010
0100
1000
,
1200
0301
0010
1000
,
0010
0000
0000
0001
0000
0000
1000
0000
0000
0010
0000
0000
0100
0000
0001
0000
,
1000
0000
1100
0000
0110
0000
0010
0010
,
0001
0000
0101
0000
0100
0100
0020
0000
,
1030
0001
1000
0000
0100
0010
0001
0000
,
1000
0010
0100
0000
0001
1000
0200
0000
,
1300
0000
0100
0000
0001
0000
0100
1000
,
0000
0000
0010
0000
0001
0000
0010
1000
,
0001
0010
0100
0000
1000
0010
0100
0000
,
0001
0010
0100
0000
1000
0010
0100
0001
,
1000
0000
0100
0000
0010
0001
1000
0000
,
0001
0000
0100
0000
0010
1000
0001
0000
,
1000
0100
0010
0001
1000
0000
0010
0000
,
2002
0000
0000
3003
,
0001
0000
0000
1000
0000
0000
0000
0010
0000
0000
0000
0000
0100
0000
0000
0000
,
0001
0000
0000
1000
0000
0000
0000
0100
0000
0000
0000
0000
0010
0000
0000
0000
,
0001
0000
0000
0100
0000
0000
0000
0010
0000
0000
1000
0000
0001
0000
0000
0000
,
1000
0000
0000
0100
0000
0000
0000
0010
0000
0000
0001
0000
1000
0000
0000
0000
,
1001
0000
0000
1010
0000
0000
0101
0000
,
1001
0000
0000
0011
0000
0000
1100
0000
,
1001
0101
1001
1100
,
1001
0101
0110
1020
,
1030
0100
0010
0000
0001
0100
0010
0000
,
1000
0010
0100
0000
0001
0010
0100
0010
,
0001
0010
0100
0000
1000
0010
0100
0000
,
0001
0100
0010
0000
1000
0001
0020
0000
,
0031
0010
0100
1000
0001
0100
0010
0000
,
1000
0010
0100
0001
1000
0100
0000
0000
,
1000
0100
0002
0000
0103
1000
0020
0000
,
0130
0000
0000
0001
0000
0000
1000
0000
0000
0100
0000
0000
0010
0000
0100
0000
,
1000
0000
0001
0100
1000
0000
0100
0000
,
0001
0000
1000
0100
0001
0000
0100
0000
,
1000
0000
0010
0100
0001
0000
1001
0000
,
1000
0100
0010
0001
1000
0000
0010
0000
,
1000
0000
0001
0010
1000
0000
0010
0000
,
0001
0100
0010
0000
0110
0000
0101
0000
,
1001
0000
0001
0100
1000
0000
0100
0000
,
0001
0000
0000
1000
0000
0000
0100
0000
0000
0010
0000
0000
0001
0000
0100
0000
,
0010
0000
1000
0100
0001
0000
0100
0000
,
1000
0000
0001
0100
1000
0000
0100
0000
,
0001
1000
0001
0000
0010
0000
1001
0000
,
1000
0010
0100
0001
0010
0000
0200
0000
,
1300
0100
1000
0000
1100
0000
0100
0010
,
0001
0000
0000
0000
0101
0000
0000
0000
0100
0000
0000
0010
0000
0000
1000
0000
,
0002
0000
0023
0000
,
0130
0000
0000
1000
0000
0000
0010
0000
0000
0100
0000
0000
0001
0000
1000
0000
,
0001
0000
0101
0000
0110
0000
0100
0001
,
1000
0000
1100
0000
0110
0000
0100
1000
,
0001
0000
0100
0000
0010
0100
0001
1000
,
0001
0000
0010
0100
1000
0000
0020
0000
,
1030
0010
0100
0001
1000
0100
0010
0000
,
0001
0010
0100
1000
0001
0100
0000
0000
,
0001
0100
2000
0000
3100
0001
0020
0000
,
0130
0000
0000
1000
0000
0000
0001
0000
0000
1000
0000
0000
0020
0000
0000
0000
,
0030
0000
0000
0000
;

//--------------- dance-single - chronon blaxt ----------------
#NOTES:
     dance-single:
     chronon blaxt:
     Medium:
     14:
     0,0,0,0,0:
0000
0000
0000
0000
,
0000
0000
0000
0000
,
0000
0000
0000
0000
,
0000
0000
0000
0000
,
0000
0000
0000
0000
,
0000
0000
0000
0000
,
0001
0010
0000
0010
0000
0010
0000
0010
,
0100
1000
0000
1000
0000
1000
0000
1000
,
0001
0100
0000
0100
0000
0100
0000
0100
,
0010
1000
0000
1000
0001
1000
2001
0000
,
3001
0100
1000
0001
0010
0100
0001
1000
,
0001
0010
1000
0001
0100
0010
0001
0000
,
1000
0010
0001
1000
0100
0010
1000
0001
,
1000
0100
0001
1000
0010
0001
0200
0000
,
0310
1000
0001
0010
0001
1000
0100
0100
,
0010
0001
1000
0010
1000
0001
0000
0000
,
1000
0010
0100
0000
2001
0000
0000
0000
3001
0010
0100
0000
1002
0000
0000
0000
,
1003
0000
0010
0100
0000
0001
1000
0000
0100
0010
0001
0000
0200
0000
0000
0000
,
1000
0000
0310
1000
0001
0010
0100
1000
,
0100
1000
0001
1000
0010
0100
0001
0010
,
0001
1000
0100
1000
0001
1000
0010
1000
,
0001
0100
0010
0100
1000
0100
0010
1000
,
0100
0010
0000
0100
0010
0000
0001
0000
1000
0000
0010
0000
0100
0000
0001
0000
,
0100
0000
0001
0000
1000
0000
0100
0000
0110
0000
0000
1001
0000
0000
0001
0100
,
0010
0000
0010
0000
1000
0100
0000
0010
0100
0000
0100
0000
1000
0010
0000
0100
,
0020
0000
0000
0000
0000
0030
0120
0000
,
0001
0000
0130
0001
1000
0100
0010
0100
,
0001
0100
0010
0001
1000
0010
0001
0010
,
1002
0000
0013
0001
1000
0100
0001
0100
,
0110
0000
0000
0011
0000
0000
1001
0000
0000
1010
0000
0000
0010
0100
0001
0000
,
0101
0000
1001
0000
1100
0000
1001
0001
,
0100
0010
0000
1000
0001
0000
0000
0010
0100
0000
1000
0000
1020
0000
0000
0000
,
0130
0001
0010
0000
0100
1000
0001
0100
,
0010
1000
0001
0010
0100
1000
1200
0000
,
0001
0000
0000
0000
0310
0000
0001
0000
0100
0000
0010
0000
1000
0001
0000
1000
,
0000
0000
0010
0000
0100
0000
0001
0000
0010
0000
0100
0000
1000
0001
1000
0000
,
0002
0000
1000
0000
0000
0103
0000
0010
2000
0000
0001
0000
0000
3100
0000
0010
,
0002
0000
1000
0000
0000
0103
0000
0010
1000
0000
0001
0000
0010
0000
0100
0000
,
0001
0100
1000
0001
1000
0010
1000
0001
,
0100
0010
1000
0001
1000
0100
1000
0001
,
0100
0010
0100
0001
1000
0100
0010
0001
,
2002
0000
0000
3003
0001
0100
0210
0000
,
0301
0000
0000
0100
0000
0010
0000
1000
0000
0000
0100
0000
0010
0000
0001
0000
,
1000
0000
0000
0010
0000
0100
0000
0001
0000
0000
0010
0000
1000
0000
0010
0000
,
0001
0000
0000
1000
0000
0010
0000
0100
0000
0000
0001
0000
0010
0000
0100
0000
,
1000
0000
0000
0001
0000
0100
0000
1000
0000
0000
0100
0000
0001
0000
1000
0000
,
0010
0000
1000
0000
0100
0000
0010
0000
0001
0000
0000
1000
0000
0000
0010
0000
,
0100
0001
0010
0200
0001
0000
0010
0000
,
1300
0001
1000
0010
0100
1000
0001
0010
,
1000
0100
0010
0100
1000
0010
1020
0000
,
1030
0100
0001
1000
0010
0100
1000
0001
,
1000
0010
0001
1000
0100
0010
1000
0000
,
0001
0010
1000
0001
0100
0010
0001
1000
,
0001
0100
1000
0001
0010
1000
0200
0000
,
0310
0001
1000
0010
1000
0001
0100
0100
,
0010
1000
0001
0010
0001
1000
0000
0000
,
0001
0010
0100
0000
1002
0000
0000
0000
1003
0010
0100
0000
2001
0000
0000
0000
,
3001
0000
0010
0100
0000
0010
0001
0000
1000
0001
0000
0000
1000
0000
0010
0000
,
0001
0010
0100
1000
0100
0001
0010
0100
,
0001
0100
0010
1000
0010
0001
0100
0010
,
1000
0000
0001
0000
0100
0000
0010
0000
0100
0001
0000
0010
0000
0100
0010
0000
,
0100
0000
1000
0020
0000
0000
0130
0000
0001
0000
1000
0000
0100
0000
0010
0000
,
1000
0010
0100
0001
0100
1000
0010
0100
,
0010
0000
0001
0000
1000
0000
0100
0000
0010
0000
1000
0001
0000
1000
0100
0000
,
0001
0100
0010
1000
0010
0001
0100
0010
,
1010
0000
0000
1100
0000
0000
0011
0000
0000
0101
0000
0000
0001
0000
0100
0000
,
1000
0100
0010
0001
0010
1000
0100
0010
,
1000
0010
0100
0001
0100
1000
0010
0100
,
0010
0000
0010
0000
1000
0000
0001
0000
0010
0001
0000
0100
0000
0000
0010
0000
,
0001
0000
0010
0000
0100
0000
0001
0000
0010
0000
0010
0000
0100
1000
0001
0100
,
0010
0000
0010
0000
1000
0000
0001
0000
0011
0000
0000
0010
0100
0000
1000
0001
,
1000
0000
0000
0000
1001
0000
0001
0100
0010
0000
0000
1001
0000
0000
1000
0000
,
1100
0000
0011
0000
,
1001
0000
0000
1010
0000
0000
1100
0000
0000
0110
0000
0000
0010
0001
1000
0010
,
0100
0000
1001
0000
0101
0000
0100
0010
,
1010
0000
1001
0000
0011
0000
0010
0100
,
1000
0100
0010
0000
0001
0000
0000
0100
0010
0000
1000
0000
0001
0000
0010
0100
,
1000
0000
0000
0000
0001
0000
0100
0000
0010
1000
0001
1000
0200
0000
0000
0000
,
0310
0000
0001
0000
1000
0000
0010
0100
0001
0000
1000
0000
0100
0000
0100
0000
,
0010
0000
0001
1000
0001
0000
0100
0010
0100
0000
0001
1000
0000
0000
0000
0000
,
1000
0010
0100
0000
2001
0000
0000
0000
3001
0010
0100
0000
1002
0000
0000
0000
,
1003
0000
0010
0100
0000
0001
1000
0000
0100
0010
0000
0001
0200
0000
0000
0000
,
0300
0000
0000
0000
;

//--------------- dance-single - chronon blaxt ----------------
#NOTES:
     dance-single:
     chronon blaxt:
     Hard:
     17:
     0,0,0,0,0:
0000
0000
0000
0000
,
0000
0000
0000
0000
,
0000
0000
0000
0000
,
0000
0000
0000
0000
,
0000
0000
0000
0000
,
0000
0000
0000
0000
,
1000
0100
0000
0100
0000
0100
0000
0100
,
0010
0001
0000
0001
0000
0001
0000
0001
,
1000
0010
0000
0010
0000
0010
0000
0010
,
0100
0001
0000
0001
1000
0001
1002
0000
,
1003
0010
0100
0010
1000
0001
1000
0000
0001
0010
0100
0010
0001
1000
0001
0000
,
1000
0100
0010
0100
1000
0001
1000
0000
0001
0100
0010
0100
0001
1000
0001
0010
,
0100
0010
0100
1000
0001
0100
0010
0000
0100
0010
0100
0001
1000
0100
0010
0000
,
0010
0100
0010
0001
1000
0010
0100
0000
0010
0100
0010
1000
0200
0000
0000
0000
,
1300
1000
0100
0100
0010
0010
0120
1000
,
0031
0001
0100
0100
0010
0010
0000
0000
,
1000
0010
0100
0010
0002
0000
0000
0000
0013
1000
0001
0010
2000
0000
0000
0000
,
3010
0000
0001
1000
0010
0100
0010
0000
1000
0001
0010
0000
0021
0000
0000
0000
,
1000
0000
0000
0000
0130
0010
0100
1000
0001
0100
0010
0000
0010
1000
0000
1000
,
0100
0010
0100
0000
0100
1000
0000
1000
0010
0100
0010
0000
0120
0000
0001
0000
,
0130
0010
0100
0000
0100
0001
0000
0001
0010
0100
0010
0000
0010
0001
0000
0001
,
0100
0010
1000
0000
1000
0100
0000
0100
0001
0000
0001
0000
0100
0000
0100
0000
,
1000
0001
0000
0001
0100
0010
0100
0001
1000
0100
0010
0000
0010
0001
0000
0001
,
0100
0010
0100
0000
0100
0001
0000
0001
0010
0000
0010
0100
0000
0100
1000
0001
,
1000
0000
1001
0000
1000
0010
0000
0100
0001
0000
1001
0000
0001
0010
0000
0100
,
1000
0001
0100
0010
1000
1000
1020
0000
,
0001
0000
0000
0000
0130
0010
0100
0001
1000
0000
0100
0010
0100
1000
0001
0100
,
1000
0000
0100
0000
0010
0100
0010
1000
0001
0010
0100
0000
0001
0000
0100
0000
,
0102
0000
0000
0000
0103
1000
0001
0000
0100
0001
1000
0010
0001
0000
0010
0000
,
0110
0000
0000
0101
0000
0000
1001
0000
0000
1100
0000
0100
0010
0001
1000
0000
,
1001
0000
0101
0000
1001
0000
1100
0100
,
0010
0001
0000
0001
0100
0000
0000
0010
0100
0000
0110
0000
2001
0000
0000
0000
,
3100
0010
0100
0000
1000
0000
0000
0001
0100
0010
0100
0001
1000
0100
0010
0001
,
1000
0010
1000
0010
0100
0001
0000
1000
0100
0010
0100
1000
0020
0000
0030
0000
,
1020
0000
0130
0010
1000
0001
0010
0100
0001
0100
0010
0100
1000
0001
0000
0001
,
1000
0000
0001
0100
0000
0100
0010
0100
1000
0100
0010
0100
0000
0100
0010
1000
,
0001
0000
0010
0000
0100
0010
0000
0010
1000
0000
0010
0000
0100
0010
0000
0010
,
0001
0000
0000
0000
0000
0000
0100
0000
0000
0000
0000
0000
0010
0000
0000
0100
0000
0000
0000
0000
0000
0100
0000
0000
1000
0000
0000
0000
0000
0000
0100
0000
0000
0000
0000
0000
0010
0000
0000
0000
0000
0000
0100
0000
0010
0000
1000
0000
,
0001
0000
0010
0100
0000
0100
1000
0001
0000
0001
1000
0010
0100
0010
1000
0000
,
0001
0000
0100
0010
0000
0010
1000
0001
0000
0001
1000
0100
0010
0100
1000
0000
,
0001
0000
0001
0000
0100
0000
0100
0000
0010
0100
0001
1000
0001
0010
0100
1000
,
0002
0000
0000
0000
0000
0000
0000
0000
1003
0001
0100
0000
0210
0000
0000
0000
,
0301
0000
0010
0100
0000
1000
0000
0100
0000
0000
0001
0000
0100
0000
1000
0000
,
0001
0000
0100
0010
0000
1000
0000
0010
0000
0000
0001
0000
0010
0000
1000
0000
,
0001
0000
1000
0010
0000
1000
0000
0100
0000
0010
0100
0000
0010
0000
0010
0000
,
0001
0000
0100
0010
0000
0100
0000
1000
0000
0100
0010
0000
0100
0000
0100
0000
,
0001
1000
0100
0010
0001
1000
0001
0000
1000
0001
0100
0010
0000
0010
1000
0000
,
0001
1000
0010
0000
1000
0001
0020
0000
1000
0000
0000
0000
0100
0000
0000
0000
,
0031
0010
0100
0010
0001
1000
0001
0000
0100
0001
1000
0000
0100
1000
0001
0000
,
0001
0100
0010
0100
0001
1000
0001
0000
1000
0001
0010
0001
0200
0000
0000
0000
,
0301
0100
0010
0100
0001
1000
0001
0000
1000
0100
0010
0100
1000
0001
1000
0000
,
0001
0010
0100
0010
0001
1000
0001
0000
1000
0010
0100
0010
1000
0001
1000
0100
,
0010
0100
0010
0001
1000
0010
0100
0000
0010
0100
0010
1000
0001
0010
0100
0000
,
0100
0010
0100
1000
0001
0100
0010
0000
0100
0010
0100
0001
0020
0000
0000
0000
,
0031
0001
0010
0010
0100
0100
0210
0001
,
1300
1000
0010
0010
0100
0100
0000
0000
,
0001
0100
0010
0100
2000
0000
0000
0000
3100
0001
1000
0100
0002
0000
0000
0000
,
0103
0000
0010
0100
0000
1000
0001
0000
0100
0010
0000
0000
0100
0010
0100
0001
,
0010
0000
0000
0000
0000
0000
0100
0000
0000
0010
0000
0000
0100
0000
0000
1000
0000
0000
0010
0000
0000
0000
0000
0000
0001
0000
0000
0000
0000
0000
0010
0000
0100
0000
0010
0000
1000
0000
0000
0001
0000
0000
1000
0000
0000
0100
0000
0000
,
0010
0000
0010
0100
0010
0001
0100
0000
0100
0010
1000
0100
0010
0100
1000
0001
,
0100
0000
0100
0001
1000
0010
0100
0010
1000
0010
0000
0001
0000
0010
0100
0010
,
1000
0001
0010
2000
0000
0000
3010
0000
0100
0010
0001
1000
0010
0100
0010
1000
,
0010
0000
0000
0000
0000
0000
0100
0000
0000
0010
0000
0000
0100
0000
0000
0001
0000
0000
0010
0000
0000
0000
0000
0000
0100
0000
0010
0000
0100
0000
1000
0000
0000
0001
0000
0000
1000
0000
0000
0010
0000
0000
0100
0000
0000
0001
0000
0000
,
1000
0100
0010
0100
0001
0100
0010
0100
1000
0000
1000
0010
0000
0010
0100
0001
,
1000
0000
0001
0100
0010
0100
1000
0000
0001
0000
0010
0100
0010
1000
0001
1000
,
0100
0000
0000
1100
0000
0000
0110
0000
0000
0011
0000
0000
0010
0100
0010
0001
,
0100
0000
0000
0000
0000
0000
0010
0000
0000
0100
0000
0000
0010
0000
0000
1000
0000
0000
0100
0000
0000
0000
0000
0000
0001
0000
0000
0000
0000
0000
0100
0000
0010
0000
0100
0000
1000
0000
0000
0001
0000
0000
1000
0000
0000
0010
0000
0000
,
0100
0000
0100
0010
0100
0001
0010
0000
0010
0100
1000
0010
0100
0010
1000
0001
,
1000
0000
1000
0000
1000
0100
0010
0100
1000
0100
0000
0001
0000
0100
0010
0100
,
1000
0001
0100
0001
1000
0010
1000
0001
0010
0000
0010
0000
0100
0010
0001
1000
,
0010
0000
0010
0000
0110
0000
0100
0000
0101
0000
0001
1000
0001
0000
0010
0100
,
0010
0000
0100
0000
0110
0000
0100
1000
0010
0000
0000
1002
0000
0000
0103
0001
,
0010
0000
1001
0000
,
1010
0000
0000
0110
0000
0000
0011
0000
0000
0110
0000
0000
0010
1000
0001
0010
,
0001
0000
0011
0000
0110
0000
1100
1000
,
1001
0000
1010
0000
0110
0000
0101
0001
,
1000
0000
0000
0001
0000
0000
1000
0000
0000
0000
0000
0000
1100
0000
0000
0000
0000
0000
0100
0000
0000
0010
0000
0000
0100
0000
0000
0000
0000
0000
0010
0000
0000
0000
0000
0000
0011
0000
0000
0000
0000
0000
0001
0000
1000
0000
0001
0000
,
1000
0000
0000
0000
1010
0000
0010
0000
0100
0010
0100
0001
0020
0000
0030
0000
,
0110
0000
0110
0000
1100
0000
1000
0001
0100
0000
0110
0000
0210
0000
1000
0000
,
0301
0000
0000
0000
0000
0000
0010
0000
0000
0100
0000
0000
0010
0000
0000
0001
0000
0000
1000
0000
0000
0010
0000
0000
0100
0000
0000
0000
0000
0000
0010
0000
0100
0000
0001
0000
0000
0000
0000
0000
0000
0000
0000
0000
0000
0000
0000
0000
,
0001
0010
0100
0010
2000
0000
0000
0000
3010
0001
1000
0010
0002
0000
0000
0000
,
0013
0000
0010
0100
0000
0100
0001
0000
0001
1000
0000
1000
0200
0000
0000
0000
,
0300
0000
0000
0000
;
