#VERSION:0.83;
#TITLE:Ouroboros;
#SUBTITLE:;
#ARTIST:M-Project & Signal;
#TITLETRANSLIT:;
#SUBTITLETRANSLIT:;
#ARTISTTRANSLIT:;
#GENRE:CYBER BASS RAVE;
#ORIGIN:;
#CREDIT:;
#BANNER:bn.png;
#BACKGROUND:bg.png;
#PREVIEWVID:;
#JACKET:jacket.png;
#CDIMAGE:;
#DISCIMAGE:;
#LYRICSPATH:;
#CDTITLE:cd-title.png;
#MUSIC:Ourboros.ogg;
#OFFSET:0.000000;
#SAMPLESTART:36.716000;
#SAMPLELENGTH:15.526000;
#SELECTABLE:YES;
#DISPLAYBPM:170.000000;
#BPMS:0.000=170.000,
62.000=85.000,
62.250=170.000,
62.500=340.000,
63.500=170.000,
63.750=85.000,
64.000=170.000,
96.000=85.000,
100.000=340.000,
100.500=170.000,
100.750=85.000,
101.000=170.000,
108.000=340.000,
108.500=170.000,
108.750=85.000,
109.000=170.000,
112.000=85.000,
114.000=340.000,
114.500=170.000,
114.750=85.000,
115.000=170.000,
122.000=340.000,
122.500=170.000,
122.750=85.000,
123.000=170.000,
126.000=85.000,
127.500=170.000,
140.000=85.000,
142.000=170.000,
154.000=85.000,
156.000=170.000,
218.000=85.000,
218.250=170.000,
218.500=340.000,
219.500=170.000,
219.750=85.000,
220.000=170.000,
252.000=340.000,
254.000=85.000,
255.000=340.000,
255.500=170.000,
255.750=85.000,
256.000=170.000,
263.000=340.000,
263.500=170.000,
263.750=85.000,
264.000=170.000,
267.000=85.000,
269.250=170.000,
269.500=340.000,
270.000=170.000,
281.000=340.000,
284.000=170.000,
285.000=340.000,
285.500=170.000,
285.750=85.000,
286.000=170.000,
297.000=85.000,
297.500=170.000,
298.000=85.000,
298.500=170.000,
311.000=42.500,
311.500=85.000,
312.000=170.000,
313.000=340.000;
#STOPS:127.500=0.176,
252.000=0.044,
252.250=0.044,
252.500=0.044,
252.750=0.044,
253.000=0.044,
253.250=0.044,
253.500=0.029,
253.667=0.029,
253.833=0.029,
281.000=0.044,
281.250=0.044,
281.500=0.044,
281.750=0.044,
282.000=0.044,
282.250=0.044,
282.500=0.044,
282.750=0.044,
283.000=0.044,
283.250=0.044,
283.500=0.044,
283.750=0.044,
297.500=0.088,
297.750=0.088,
298.500=0.088,
298.750=0.088;
#DELAYS:;
#WARPS:;
#TIMESIGNATURES:0.000=4=4;
#TICKCOUNTS:0.000=4;
#COMBOS:0.000=1;
#SPEEDS:0.000=1.000=0.000=0;
#SCROLLS:0.000=1.000;
#FAKES:;
#LABELS:0.000=Song Start;
#BGCHANGES:;
#KEYSOUNDS:;
#ATTACKS:
;

//---------------dance-single - Beginner 4----------------
#NOTEDATA:;
#CHARTNAME:;
#STEPSTYPE:dance-single;
#DESCRIPTION:Beginner 4;
#CHARTSTYLE:;
#DIFFICULTY:Beginner;
#METER:4;
#RADARVALUES:0.192250,0.338699,0.267575,0.299055,0.000000,171.000000,137.000000,34.000000,38.000000,0.000000,0.000000,0.000000,0.000000,0.000000,0.192250,0.338699,0.267575,0.299055,0.000000,171.000000,137.000000,34.000000,38.000000,0.000000,0.000000,0.000000,0.000000,0.000000;
#CREDIT:Frondal;
#DISPLAYBPM:170.000000;
#NOTES:
// measure 0
0000
0000
0000
0000
,  // measure 1
0000
0000
0000
0000
,  // measure 2
0000
0000
0000
0000
,  // measure 3
0000
0000
0000
0000
,  // measure 4
0000
0000
0000
0000
,  // measure 5
0000
0000
0000
0000
,  // measure 6
0000
0000
0000
0000
,  // measure 7
0000
0000
0000
0000
,  // measure 8
2000
0000
0000
3000
0000
0000
0002
0000
,  // measure 9
0000
0003
0000
0000
0000
0000
0000
0000
,  // measure 10
0200
0000
0000
0300
0000
0000
0020
0000
,  // measure 11
0000
0030
0000
0000
0000
0000
0000
0000
,  // measure 12
0200
0000
0000
0300
0000
0000
0002
0000
,  // measure 13
0000
0003
0000
0000
0000
0000
0000
0000
,  // measure 14
0020
0000
0000
0030
0000
0000
0200
0000
,  // measure 15
0000
0300
0000
0000
0000
0000
0000
0000
,  // measure 16
1001
0000
0001
0000
,  // measure 17
0101
0000
0100
0000
,  // measure 18
1010
0000
1000
0000
,  // measure 19
1100
0000
0100
0000
,  // measure 20
0110
0000
0010
0000
,  // measure 21
0110
0000
0100
0000
,  // measure 22
1000
0001
1000
0001
,  // measure 23
0100
0010
0100
0010
,  // measure 24
2000
0000
0000
0000
,  // measure 25
3001
0000
0011
0000
,  // measure 26
1100
0000
0011
0000
,  // measure 27
1001
0000
1010
0000
,  // measure 28
2000
3000
0001
0000
,  // measure 29
0101
0000
1010
0000
,  // measure 30
0101
0000
1001
0000
,  // measure 31
1100
0000
0011
0000
,  // measure 32
1000
0001
1000
0000
,  // measure 33
0001
0100
0010
0100
,  // measure 34
0001
1000
0001
0000
,  // measure 35
2000
3000
0100
0010
,  // measure 36
0100
0000
1000
0001
,  // measure 37
0100
0010
0100
0001
,  // measure 38
0100
0000
0002
0000
,  // measure 39
0023
0000
0030
0200
,  // measure 40
0000
0300
0000
0000
,  // measure 41
2000
0000
3000
0002
,  // measure 42
0000
0003
0000
0000
,  // measure 43
0200
0000
0300
0020
,  // measure 44
0000
0030
0000
0000
,  // measure 45
2000
0000
3000
0002
,  // measure 46
0000
0003
0000
0000
,  // measure 47
0020
0000
0030
0200
,  // measure 48
0000
0300
0000
0000
,  // measure 49
0002
0000
0003
0200
,  // measure 50
0000
0300
0000
0000
,  // measure 51
2000
0000
3000
0020
,  // measure 52
0000
0030
0000
0000
,  // measure 53
0002
0000
0003
0020
,  // measure 54
0000
0030
0000
0000
,  // measure 55
1001
0000
1000
0000
,  // measure 56
1100
0000
0010
0000
,  // measure 57
0101
0000
0001
0000
,  // measure 58
1010
0000
0100
0000
,  // measure 59
1001
0000
0110
0000
,  // measure 60
1001
0000
0110
0000
,  // measure 61
1000
0001
1000
0001
,  // measure 62
0100
0010
0100
0010
,  // measure 63
2000
0000
3000
0001
,  // measure 64
0101
0000
0100
0000
,  // measure 65
1010
0000
1000
0001
,  // measure 66
1100
0000
0100
0010
,  // measure 67
0000
0001
0100
0000
,  // measure 68
1000
0000
0100
0000
,  // measure 69
0001
0000
0010
0000
,  // measure 70
1000
0020
0000
0000
,  // measure 71
0030
0100
2000
0000
,  // measure 72
3002
0000
0203
0000
,  // measure 73
2300
3200
0320
0000
,  // measure 74
2030
3001
0000
0010
,  // measure 75
0011
0000
0101
0000
,  // measure 76
0110
0000
1010
1000
,  // measure 77
1001
0000
0011
0020
,  // measure 78
0000
0030
0000
0000
;

//---------------dance-single - Light 11----------------
#NOTEDATA:;
#CHARTNAME:;
#STEPSTYPE:dance-single;
#DESCRIPTION:Light 11;
#CHARTSTYLE:;
#DIFFICULTY:Easy;
#METER:11;
#RADARVALUES:0.413730,0.554235,0.204616,0.267575,0.027545,368.000000,342.000000,26.000000,34.000000,0.000000,0.000000,0.000000,0.000000,0.000000,0.413730,0.554235,0.204616,0.267575,0.027545,368.000000,342.000000,26.000000,34.000000,0.000000,0.000000,0.000000,0.000000,0.000000;
#CREDIT:Frondal;
#DISPLAYBPM:170.000000;
#NOTES:
0000
0000
0000
0000
,
0000
0000
0000
0000
,
0000
0000
0000
0000
,
0000
0000
0000
0000
,
0000
0000
0000
0000
,
0000
0000
0000
0000
,
0000
0000
0000
0000
,
0000
0000
0000
0000
,
0002
0000
0000
0103
0000
0000
0020
0000
,
0000
1030
0000
0000
0100
0000
0010
0000
,
0200
0000
0000
1300
0000
0000
0002
0000
,
0000
0013
0000
0000
0001
0000
0100
0000
,
0020
0000
0000
2030
0000
0000
3002
0000
,
0000
0023
0000
0000
0030
0000
0000
0000
,
0200
0000
0000
2300
0000
0000
3002
0000
,
0000
0203
0000
0000
0300
0000
0000
0000
,
1001
0001
0010
0100
,
1001
1000
0010
0100
,
1001
0100
0010
0100
,
1001
0010
0100
0010
,
1001
0001
0100
0010
,
0010
1000
0100
0010
,
0010
0001
0100
0000
0010
1000
0100
0000
,
1000
0001
1000
0001
0100
0010
0100
0000
,
0001
0000
0000
0001
0100
0000
0000
0010
0000
0000
1000
0000
0000
0100
0000
0000
,
0110
0000
0010
0001
0100
0000
0010
1000
,
0100
0000
0010
0001
0100
0000
0100
0000
,
0110
0000
0010
1000
0100
0000
1000
0010
,
0100
0000
0000
0100
0001
0000
1000
0000
0100
0000
0000
0000
0010
0000
0001
0000
,
1000
0000
0010
1000
0001
0000
0010
0100
,
1000
0100
0010
0001
0100
0000
0010
1000
,
0001
0000
0000
0000
0010
0000
0001
0000
1000
0000
0000
1000
0001
0000
0010
0000
,
0100
0010
0100
0010
0001
0100
0001
0000
,
1000
0010
1000
0010
0100
0001
0010
0001
,
0100
0010
0100
0010
1000
0100
1000
0000
,
0001
0000
0000
0001
0010
0000
0100
0000
0010
0000
0001
0000
1000
0000
0001
0000
,
0010
0100
0010
0000
0001
0100
0010
1000
,
0010
0100
0001
0010
0100
1000
0001
0010
,
0100
0010
0001
0000
0100
0010
1000
0001
,
0200
0000
0000
0301
0000
0000
0002
0000
,
0000
0013
0000
0000
0010
0000
0100
0000
,
2000
0000
0000
3010
0000
0000
0020
0000
,
0000
0130
0000
0000
0100
0000
0001
0000
,
2000
0000
0000
3100
0000
0000
0200
0000
,
0000
0301
0000
0000
0001
0000
0100
0000
,
2000
0000
0000
3010
0000
0000
0020
0000
,
0000
0031
0000
0000
0001
0000
0010
0000
,
2000
0000
3100
1000
0000
0000
0001
0000
,
0010
0100
0000
0100
0010
0000
0002
0000
,
0203
0000
0310
1000
0000
0000
0001
0000
,
0010
0100
0000
0100
1000
0000
0020
0000
,
0230
0000
0301
1000
0000
0100
0001
0000
,
1000
0010
0000
0001
0100
0000
0020
0000
,
2030
0000
3001
0100
0000
1000
0001
0000
,
0010
1000
0000
0001
0010
0000
0000
0000
,
0110
0100
1000
0001
,
0101
0100
0010
1000
,
1100
0100
0010
0001
,
0101
0100
0010
1000
,
1200
0010
1000
0310
,
0012
0100
0010
0103
,
0110
1000
0000
0001
0110
1000
0000
0001
,
1001
1000
0100
0010
0100
1000
0001
0100
,
0020
0032
0003
0110
,
1000
0001
0100
0000
1000
0100
0010
0000
,
1000
0001
0010
0000
0100
0010
0001
0000
,
1000
0000
0010
0000
0100
0000
0000
0000
1000
0000
0100
0000
0010
0000
0000
0010
,
0100
0001
0101
0000
0100
0010
1000
0000
,
0100
0010
1000
0000
0010
0100
1000
0000
,
0010
0100
1000
0000
0001
0010
0100
0000
,
0001
0010
0100
1000
0000
1000
0001
0100
,
0010
1001
1100
0010
,
1100
0001
1100
0010
,
1001
0011
0101
0010
,
1001
0000
0001
0002
1003
2000
3100
0000
,
0001
0100
1000
0000
0010
0100
1000
0000
,
0100
0001
0010
0000
0100
1000
0001
0000
,
0100
0010
0001
0000
0001
0010
2000
0000
,
0000
3001
0000
0000
;

//---------------dance-single - Standard 14----------------
#NOTEDATA:;
#CHARTNAME:;
#STEPSTYPE:dance-single;
#DESCRIPTION:Standard 14;
#CHARTSTYLE:;
#DIFFICULTY:Medium;
#METER:14;
#RADARVALUES:0.596985,0.954516,0.220356,0.204616,0.208551,531.000000,503.000000,28.000000,26.000000,0.000000,0.000000,0.000000,0.000000,0.000000,0.596985,0.954516,0.220356,0.204616,0.208551,531.000000,503.000000,28.000000,26.000000,0.000000,0.000000,0.000000,0.000000,0.000000;
#CREDIT:Frondal;
#DISPLAYBPM:170.000000;
#NOTES:
0000
0000
0000
0000
,
0000
0000
0000
0000
,
0000
0000
0000
0000
,
0000
0000
0000
0000
,
0000
0000
0000
0000
,
0000
0000
0000
0000
,
0000
0000
0000
0000
,
0000
0000
0000
0000
,
1000
0000
0001
0100
0000
0100
0010
0000
,
1000
0100
0010
0000
0100
0000
0001
0000
,
0100
0000
0010
0001
0000
0001
0100
0000
,
0100
0010
0100
1000
0000
0000
0100
0000
,
0001
0000
0010
0100
0000
0100
1000
0000
,
0010
0100
0001
0010
0000
0000
0010
0000
,
0100
0000
1000
0001
0000
0001
0100
0000
,
0010
1000
0001
1000
0020
0000
0030
0000
,
1010
0000
0000
0000
1000
0000
0000
0010
1000
0010
0100
0000
0001
0000
0000
0000
,
0011
0000
0000
0000
0001
0000
0000
0100
0010
0100
0001
0000
1000
0000
0000
0000
,
1100
0000
0000
0000
0100
0000
0000
0010
0100
0010
0001
0000
0100
0000
0000
0000
,
0101
0000
0000
0000
0001
0000
0000
1000
0100
1000
0001
0000
0010
0000
0000
0000
,
0110
0100
1000
0001
0100
0010
0001
0010
,
0110
0100
0001
1000
0100
0001
0100
0010
,
0110
0100
1000
0001
0101
0100
0010
1000
,
0001
0100
0001
0100
0010
1000
0010
1000
0100
0010
0100
0010
0001
1000
0001
1000
,
0010
0000
0000
0010
0000
0000
1000
0000
0100
0000
0000
0100
0000
0000
0001
0000
0000
1000
0000
0000
0010
0000
0000
0010
0000
0001
0100
0000
0010
1000
0000
0001
,
1000
0000
0010
0100
0001
0100
0010
0100
,
0001
0100
0010
0100
1000
0100
0010
0100
,
0001
0000
0010
0100
1000
0100
0010
1000
,
0010
0000
0000
0010
0000
0000
0001
0000
0100
0000
0000
0100
0000
0000
0010
0000
1000
0000
0000
0000
0000
0000
0000
0000
0100
0000
0000
0000
0010
0000
0000
0000
,
0100
1000
0100
0010
0100
1000
0100
0010
,
1000
0010
0001
1000
0010
0000
0001
0010
,
0100
0000
0000
0000
0010
0000
0000
0000
0001
0000
0000
0000
0010
0000
0000
0000
1000
0000
0000
1000
0000
0000
0100
0000
0010
0000
0000
0010
0200
0300
0000
0000
,
1100
1000
0001
0100
0010
0001
0010
0100
,
0010
0001
0010
0100
0001
0001
1000
1000
,
1001
0000
0001
0010
1000
0010
0001
0010
,
0100
0000
0000
0100
0000
0000
1000
0000
0010
0000
0000
0010
0000
0000
0100
0000
0101
0000
0000
0000
0001
0000
0000
0000
0100
0000
0000
0000
1000
0000
0000
0000
,
0100
0010
0100
1000
0100
0010
0100
0001
,
0010
0010
0100
0100
1001
0000
0001
0100
,
0010
1000
0001
0010
0200
2300
3002
0203
,
0310
1000
0010
1000
0001
0000
1000
0100
,
1000
0100
0010
0000
0001
0000
0100
0000
,
0001
0010
0001
0010
0100
0000
1000
0010
,
1000
0010
0100
0000
0001
0000
0010
0000
,
0100
1000
0100
1000
0001
0000
0100
0010
,
0100
0001
0100
0000
0001
0000
0010
0000
,
0001
1000
0001
1000
0010
0000
1000
0100
,
1000
0000
0001
0000
1000
0000
0000
0000
0001
0000
0000
0000
0100
0000
0001
0010
,
0001
0100
0010
0100
1000
0000
0100
0010
,
0100
0001
1000
0000
0001
0000
0010
0000
,
0100
0001
0100
0010
0001
0000
0100
0010
,
0100
1000
0100
0001
1000
0000
0010
0000
,
1000
0100
0010
1000
0010
0000
0100
1000
,
0010
0001
0010
0000
0100
0000
0001
0000
,
1000
0100
0010
1000
0010
0100
0010
0001
,
0100
0001
1000
0020
0200
0000
0030
0300
,
0101
0001
0010
0000
0100
1000
0010
0000
,
1010
1000
0001
0000
0100
0001
0010
0000
,
0110
0100
1000
0000
0001
0100
0010
0000
,
0110
0100
0001
0000
0010
0100
1000
0000
,
0001
0100
0001
0100
0010
1000
0010
1000
,
0100
1000
0100
1000
0001
0010
0001
0010
,
1001
1000
0010
0100
1001
0001
0010
0100
,
1000
0001
0100
0001
0100
0010
1000
0010
1000
0100
0010
0100
0010
0001
0100
0001
,
0200
0000
0000
0320
0000
0000
0000
0000
0030
0000
0000
0000
1010
0000
0000
0000
,
2000
0100
3001
0100
0002
0100
1003
0100
,
2000
0100
3001
0100
1000
0100
0110
0000
,
0002
0000
0000
0000
0010
0000
0000
0000
1003
0000
0000
0000
0010
0000
0000
0000
1000
0000
0000
0000
0100
0000
0000
0000
0010
0000
0000
0010
0000
0000
0100
0000
,
1000
0000
0000
1000
0000
0000
0001
0000
0100
0000
0000
0000
0000
0000
0000
0000
1000
0000
0000
0000
0100
0000
0000
0000
0102
0000
0000
0000
0000
0000
0000
0000
,
0013
1000
1020
0000
0130
0010
0021
0000
,
0031
1000
1010
0000
0010
1000
0100
0000
,
0001
0000
0100
0000
0020
0030
0002
0003
0002
0003
0200
0300
0020
0030
0020
0030
,
1000
0000
1010
0000
0010
0100
0010
0001
,
0010
0100
0010
0001
0010
1000
0100
0001
,
0100
1000
1010
0000
0010
0100
0001
0000
,
0001
0000
0000
0000
0000
0000
0000
0000
1000
0000
0000
1000
0200
0000
0300
0000
0010
0000
0001
0000
0002
0000
0003
0000
0101
0000
0000
0000
0000
0000
0000
0000
,
0100
1000
0100
0010
0100
1000
0100
0010
,
1000
0100
0001
0100
0010
0001
0101
0000
,
0100
1000
0100
0001
0010
1000
0020
0000
,
0000
0031
0000
0000
;

//---------------dance-single - Heavy 17----------------
#NOTEDATA:;
#CHARTNAME:;
#STEPSTYPE:dance-single;
#DESCRIPTION:Heavy 17;
#CHARTSTYLE:;
#DIFFICULTY:Hard;
#METER:17;
#RADARVALUES:0.676808,1.170052,0.338404,0.692548,0.460387,602.000000,559.000000,43.000000,88.000000,4.000000,0.000000,0.000000,0.000000,0.000000,0.676808,1.170052,0.338404,0.692548,0.460387,602.000000,559.000000,43.000000,88.000000,4.000000,0.000000,0.000000,0.000000,0.000000;
#CREDIT:;
#DISPLAYBPM:170.000000;
#NOTES:
0000
0000
0000
0000
,
0000
0000
0000
0000
,
0000
0000
0000
0000
,
0000
0000
0000
0000
,
0000
0000
0000
0000
,
0000
0000
0000
0000
,
0000
0000
0000
0000
,
0000
0000
0000
2000
,
3002
0000
0103
0010
0000
0000
2000
0100
,
0000
3100
0010
0000
0000
0000
0002
0000
,
2003
0000
3010
0100
0000
0000
0002
0010
,
0000
0013
0100
1000
0000
0000
0002
0000
,
2003
0000
3100
0001
0000
0000
0200
0010
,
0000
0310
0001
0000
0000
0000
2000
0000
,
3020
0000
0130
1000
0000
0000
0200
0010
,
0000
0310
1000
0100
0000
0000
0000
0000
,
1001
0000
0000
0000
0001
0000
0000
1000
0100
1000
0010
0000
0100
0000
0000
0010
,
0001
0010
1000
0000
0100
0000
0000
1000
0010
1000
0100
0000
0010
0000
0000
1000
,
0010
0001
0000
0000
1000
0000
0000
0010
0100
0001
1000
0000
0010
0000
0000
0001
,
0010
1000
0001
0000
0100
0000
0000
0001
0010
1000
0000
0000
0010
0000
0001
0100
,
0001
1000
0010
0010
1000
0100
0010
0010
,
1001
1000
0001
0100
1000
0100
0001
0010
,
0110
0100
1000
0010
1010
1000
0010
0100
,
0001
0100
0010
1000
0100
1000
0010
0100
0001
0010
0001
0100
0010
1000
0100
0010
,
0001
0000
1000
0010
0000
1000
0010
0000
0100
0000
0001
0010
0000
0001
0010
0000
0100
0010
0000
0001
1000
0000
0010
0100
0000
1000
0100
0000
0010
1000
0000
0001
,
0100
0000
0010
1000
2100
3001
0100
0010
,
2010
3001
0010
0100
1200
0301
1000
0010
,
0011
0000
0001
0100
0102
1003
0010
0100
,
0001
0000
1000
0100
0000
1000
0010
0000
0100
0000
0001
0010
0000
0001
0100
0000
0110
0000
0000
0000
0000
0000
0000
0000
0010
0000
0000
0000
1000
0000
0000
0000
,
1002
0013
0100
1000
1020
0130
0001
0100
,
0120
0031
1000
0100
0101
0000
0001
1000
,
1200
0000
0000
0000
0000
0000
0000
0000
0000
0000
0000
0000
0310
0000
0000
0000
0000
0000
0000
0000
0000
0000
0000
0000
0001
0000
0000
0000
0000
0000
0000
0000
0000
0000
0000
0000
1000
0000
0000
0000
0000
0000
0000
0000
0000
0000
0000
0000
0100
0000
0000
0000
0000
0000
0010
0000
0000
0001
0000
0000
0000
0000
0000
1000
0000
0000
0010
0000
0100
0000
0010
0000
0100
0000
0000
0000
0000
0000
0010
0000
0000
1000
0000
0000
0002
0000
0000
0003
0000
0000
0000
0000
0000
0000
0000
0000
,
1001
0001
0200
1000
0301
1000
0200
0001
,
1300
0010
0200
1000
0301
1000
1010
0010
,
1001
0001
0200
1000
0301
0010
0200
0001
,
1300
0000
0000
0000
0000
0000
0100
0000
0000
0010
0000
0000
0000
0000
0000
1000
0000
0000
0010
0000
0000
0000
0000
0000
0001
0000
0000
0000
0000
0000
0100
0000
0000
0010
0000
0000
0000
0000
0000
0001
0000
0000
0010
0000
0100
0000
0010
0000
0100
0000
0000
0000
0000
0000
0000
0000
0000
0000
0000
0000
0001
0000
0000
0000
0000
0000
0000
0000
0000
0000
0000
0000
0020
0000
0000
0000
0000
0000
0000
0000
0000
0000
0000
0000
1000
0000
0000
0000
0000
0000
0000
0000
0000
0000
0000
0000
,
0031
1000
0020
0001
1030
0100
0020
1000
,
0031
0100
0010
0100
1100
0100
0020
0001
,
1030
0000
0100
0000
0020
0000
1000
0000
0031
0100
0010
0100
0001
1000
0200
0000
,
0310
0000
0001
1000
0001
0000
0100
0000
,
0010
1000
0010
0000
0100
0000
0001
0000
,
1000
0000
0100
0010
0100
0000
1000
0000
,
0001
0100
0001
0010
0000
0010
0100
0000
,
1000
0000
0001
0100
0001
0000
1000
0000
,
0100
0010
0100
0010
0001
0000
1000
0000
,
0010
0000
1000
0001
1000
0000
0010
0000
,
1000
0000
0100
0000
1000
0000
0100
0000
0010
0000
0000
0000
0001
0000
0001
1000
,
0010
0100
0010
1000
0100
1000
0001
0100
,
0001
0010
0100
0010
0001
0000
2000
0000
,
3010
0100
0010
1000
0100
1000
0001
0010
,
0001
1000
0010
1000
0001
0000
0020
0000
,
0130
1000
0100
0010
0001
0010
0001
1000
,
0001
1000
0010
1000
0001
0000
0200
0000
,
0310
1000
0100
0010
0001
0100
0001
1000
,
0100
1000
0001
0100
0000
0000
0000
0000
,
0110
0000
0010
0000
1000
0000
0001
0010
0100
0001
0000
0000
0100
0000
0000
0010
,
0001
0000
0000
0000
1000
0000
0010
0100
1000
0100
0000
0000
0001
0000
0000
0001
,
0100
0000
0001
0000
0010
0000
1000
0010
0001
0010
0000
0000
0100
0000
0000
0100
,
1000
0000
0000
0000
0100
0000
1000
0010
0001
0010
0000
0000
0100
0000
0000
0100
,
0002
2003
3200
0320
,
2030
3020
0230
2300
,
3001
0100
0010
1000
0001
0010
0100
1000
,
0001
0100
0001
0010
0100
1000
0010
1000
0100
0010
0001
0100
0010
1000
0100
1000
,
0020
0030
0000
0200
0300
0000
0020
0030
0000
0002
0003
0000
0020
0030
0000
2000
3000
0000
0200
0300
0020
0030
0200
0300
0010
0000
0000
0001
0000
0000
0100
0000
0000
0000
0000
0000
1001
0000
0000
0000
0000
0000
0000
0000
0000
0000
0000
0000
,
1000
0200
0001
1300
0020
0001
1030
0200
,
0001
1300
0010
0010
0200
1000
0301
0000
,
0020
0000
0000
0000
1000
0000
0000
0000
0031
0000
0000
0000
0100
0000
0000
0000
1000
0000
0000
0000
0100
0000
0000
0000
0010
0000
1000
0100
0000
1000
0010
0000
,
0100
0000
0001
0010
0000
0001
0100
0000
0110
0000
0000
0000
0000
0000
0000
0000
0020
0000
0000
0000
1000
0000
0000
0000
0130
0000
0000
0000
0001
0000
0000
0000
,
0020
0001
0130
1000
0020
0100
1030
0001
,
0010
0100
1001
0000
0002
0100
1003
0200
,
0010
0000
0000
0000
0000
0000
1300
0000
0000
0000
0000
0000
0002
0003
0000
0200
0300
0000
0020
0030
0000
0002
0003
0000
0020
0030
0000
2000
3000
0000
0200
0300
0000
0002
0003
0000
0200
0300
0000
2000
3000
0000
0020
0030
0000
0200
0300
0000
,
0001
0000
1001
0000
1200
0010
0301
0000
,
0201
0010
1300
0000
1020
0100
0001
0100
,
1030
0001
0101
0000
0021
0100
1030
0000
,
1020
0000
0000
0000
0000
0000
0100
0000
0000
0000
0000
0000
0031
0000
0000
1000
0010
1000
0020
0030
0000
0020
0030
0000
1000
0000
0000
1000
0100
0010
0002
0003
0000
2000
3000
0000
1001
0000
0000
0000
0000
0000
0000
0000
0000
0000
0000
0000
,
1010
0120
0001
0030
0011
0210
0301
1000
,
1100
0210
0001
0300
0101
0120
0031
0100
,
1100
0102
0013
0000
1100
0000
MMMM
0000
,
0000
1001
0000
0000
;
