#TITLE:Orb(it);
#SUBTITLE:;
#ARTIST:NOMA;
#TITLETRANSLIT:;
#SUBTITLETRANSLIT:;
#ARTISTTRANSLIT:;
#GENRE:;
#CREDIT:;
#MUSIC:Orb(it).ogg;
#BANNER:Orb(it).png;
#BACKGROUND:Orb(it)-bg.png;
#CDTITLE:;
#SAMPLESTART:12.262;
#SAMPLELENGTH:15.000;
#SELECTABLE:YES;
#OFFSET:1.071;
#BPMS:0.000=90.000
,18.000=180.000
,80.500=90.000
,84.000=180.000
,92.500=90.000
,96.000=180.000
,104.500=90.000
,108.000=180.000
,116.500=90.000
,120.000=180.000
,221.000=90.000
,222.000=55.000
,223.000=137.000
,224.000=231.000
,225.000=268.000
,226.000=468.000
,228.000=562.000
,230.000=681.000
,231.000=800.000
,235.000=469.000
,236.000=360.000
,237.000=180.000
,261.500=90.000
,265.000=180.000
;
#STOPS:18.000=1.000
,79.000=1.000
,80.000=0.167
,92.000=0.167
,104.000=0.167
,116.000=0.167
,220.000=1.000
,236.000=0.042
,236.250=0.042
,236.500=0.042
,236.750=0.042
,261.000=0.167
;
#DISPLAYBPM:90.000:180.000;
#BGCHANGES:;
#FGCHANGES:;

//--------------- dance-single - Marten ----------------
#NOTES:
     dance-single:
     Marten:
     Beginner:
     5:
     0,0,0,0,0:
0000
0000
0000
0000
,
0000
0000
0000
0000
,
0000
0000
0000
0000
,
0000
0000
0000
0000
,
0000
0000
0000
1000
,
1000
0000
0001
0000
,
0100
0000
0001
0001
,
0001
0000
1000
0000
,
0100
0000
0010
0010
,
0010
0000
0001
0000
,
1000
0000
0010
0010
,
0010
0000
1000
0000
,
0001
0000
1000
1000
,
0000
0100
0000
0001
,
0000
0100
0000
1000
,
0000
0100
0000
0001
,
0000
0100
0000
1000
,
0000
0001
0000
0010
,
0000
0100
0000
1000
,
1000
0001
0001
1000
,
0000
0010
0000
0000
0010
0000
0000
0010
,
0010
0000
0100
0000
,
0001
0000
1000
0000
,
0000
0100
0000
0000
0100
0000
0000
0100
,
0100
0000
0010
0000
,
0001
0000
1000
0000
,
0000
0001
0000
0000
0001
0000
0000
0001
,
0001
0000
0100
0000
,
0010
0000
1000
0000
,
0000
1000
0000
0000
1000
0000
0000
1000
,
1000
0000
0001
0000
,
0010
0010
0100
0100
,
0020
0000
0000
0000
,
0000
0030
0001
0001
,
0002
0000
0000
0000
,
0000
0003
1000
1000
,
2000
0000
0000
0000
,
0000
3000
1000
0000
,
0001
0000
0010
0000
,
1000
0000
0100
0000
,
0002
0000
0000
0000
,
0000
0003
0100
0100
,
0200
0000
0000
0000
,
0000
0300
0010
0000
,
2000
3000
0001
0001
,
0002
0003
2000
3000
,
0020
0030
0100
0100
,
0200
0300
0020
0030
,
1000
0000
0000
1000
0000
0000
0001
0000
,
0000
0001
0000
0000
0010
0000
0010
0000
,
0001
0000
0000
0001
0000
0000
1000
0000
,
0000
1000
0000
0000
0010
0000
0000
0000
,
1000
0000
0100
0000
,
0001
0000
0100
0000
,
1000
1000
0001
0001
,
1000
0000
2002
0000
,
0000
0000
0000
0000
,
0000
0000
0000
0000
,
0000
0000
0000
0000
,
0000
3003
0000
0001
,
0000
1000
0000
0010
,
0010
0010
0000
1000
,
0000
0001
0000
0100
,
0100
0001
0000
1000
,
0000
0100
0000
0010
,
0000
0000
0000
0001
0000
0000
0001
0000
,
0000
0001
0001
0000
0000
0000
1000
0000
,
0000
0010
0000
0100
,
0100
0100
0000
0001
,
0000
0010
0000
0100
,
0100
1000
0000
0001
,
0000
1000
0000
0010
,
0000
1000
1000
0001
,
0001
0020
0000
0000
,
0030
0001
0001
0000
,
0001
0000
0001
0001
,
0000
1000
1000
0000
,
1000
0000
1000
1000
,
0000
1001
0000
0010
,
0000
0110
0000
0100
,
0000
1001
0000
0001
,
0001
1000
0000
0001
,
0000
1000
0000
0010
,
0000
0100
0000
0100
,
0000
0001
0001
0000
,
1000
0000
0100
0000
,
1000
1000
1000
0000
,
0001
0000
0100
0000
,
0010
0010
0010
0000
,
1000
0000
0001
0000
,
0010
0010
0010
0000
,
0001
0000
1000
0000
,
0001
1001
0000
0000
,
0110
0000
0000
1001
,
0000
2002
0000
0000
,
3003
0000
0000
0000
;

//--------------- dance-single - Marten ----------------
#NOTES:
     dance-single:
     Marten:
     Easy:
     10:
     0,0,0,0,0:
0000
0000
0000
0000
,
0000
0000
0000
0000
,
0000
0000
0000
0000
,
0001
1000
0000
1000
0100
1000
0000
0001
,
0010
0001
0000
0100
0110
0000
1001
0000
,
1000
0000
0000
0100
1000
0000
0000
0100
,
1000
0010
0010
0100
,
0001
0000
0000
0100
0001
0000
0000
0100
,
0001
0010
0100
0010
,
0001
0000
0000
0010
0001
0000
0000
0010
,
0001
0010
0100
0100
,
1000
0000
0000
0010
1000
0000
0000
0010
,
1000
0100
0100
1100
,
0000
0011
0000
0101
,
0000
1010
0000
1100
,
0000
0101
0000
1010
,
0000
0011
0000
0001
,
0101
1000
1100
0001
,
0011
1000
1010
0001
,
0010
0000
0100
0010
0100
0000
1000
0000
,
0002
0003
0000
0000
1000
0000
0000
0000
0000
0000
0010
0000
0000
0000
0000
0000
0100
0000
0000
0000
0000
0000
0001
0000
0000
0000
0000
0000
1000
0000
0000
0000
,
0001
0000
0001
0000
0000
0010
0100
0000
,
1000
0000
1000
0000
0000
0010
0100
0000
,
0020
0030
0000
0000
1000
0000
0000
0000
0000
0000
0100
0000
0000
0000
0000
0000
0010
0000
0000
0000
0000
0000
0001
0000
0000
0000
0000
0000
1000
0000
0000
0000
,
0001
0000
1000
0000
0000
0100
0100
0000
,
1000
0000
0001
0000
0000
0100
0100
0000
,
0200
0300
0000
0000
0001
0000
0000
0000
0000
0000
0010
0000
0000
0000
0000
0000
0100
0000
0000
0000
0000
0000
1000
0000
0000
0000
0000
0000
0001
0000
0000
0000
,
1000
0000
0100
0000
0010
0001
0010
0000
,
0001
0000
0100
0000
0010
1000
0010
0000
,
2000
3000
0000
0000
0001
0000
0000
0000
0000
0000
0100
0000
0000
0000
0000
0000
0010
0000
0000
0000
0000
0000
1000
0000
0000
0000
0000
0000
0001
0000
0000
0000
,
1000
1000
0001
0001
,
0010
0100
0010
0000
0100
0010
0100
0000
,
2000
0100
0000
0100
,
0000
3100
1000
0001
,
0200
0001
0000
0010
,
0000
0301
0010
0100
,
0020
0001
0000
0100
,
0000
0031
1000
0001
,
1000
0000
0000
0010
0000
0000
0001
0000
,
0000
0010
0000
0000
1000
0000
0001
0000
,
2000
0100
0000
0001
,
0000
3010
0100
0001
,
0020
0001
0000
0100
,
0000
0031
0010
0001
,
0200
0000
0310
1000
,
0002
0010
2003
0010
,
3020
0000
1030
0100
,
0020
0000
0002
0033
,
0001
0000
0000
0101
0000
0000
1001
0000
,
0000
1100
0000
0000
0110
0000
0001
0000
,
1000
0000
0000
1100
0000
0000
1001
0000
,
0000
0101
0000
0000
0110
0000
1000
0000
,
0001
0011
1000
1010
,
0001
0101
1000
1100
,
1000
0000
0100
0000
0010
0100
0010
0000
,
0002
0003
2002
0000
,
0000
0000
0000
0000
,
0000
0000
0000
0000
,
0000
0000
0000
0000
,
3003
0001
0100
1000
,
0100
0000
0001
0000
0100
0000
0010
0010
,
1000
1000
0100
0001
,
0100
0000
1000
0000
0010
0000
0100
0010
,
0100
0001
0010
1000
,
0010
0000
0001
0000
1000
0000
0010
0010
,
0100
0000
0000
0000
0000
0000
0000
0000
0020
0030
0000
0000
1000
0000
0000
0000
0000
0000
0001
0000
0000
0000
0000
0000
0110
0000
0000
0000
0000
0000
1001
0000
,
0000
1000
0001
0000
0010
0000
1000
0000
,
0010
0000
0001
0000
1000
0000
0010
0010
,
0010
1000
0010
0001
,
0010
0000
1000
0000
0001
0000
0010
0010
,
0010
0001
0100
1000
,
0100
0001
0010
0100
,
1000
0000
1100
0000
0000
0101
0000
0000
,
0110
0000
0010
0000
1000
0000
0001
1000
,
0001
0020
0130
0000
,
0100
0000
1000
1000
0001
0000
0100
0000
,
0010
2000
3100
0000
,
1000
0000
0001
1000
0001
0000
0010
0000
,
0001
0200
0310
0010
,
1000
0200
0310
0020
,
0031
1002
1003
0010
,
1000
0200
0310
0002
,
1003
0000
0001
0010
0001
0000
1000
0010
,
1000
0000
0001
0000
1000
0000
0010
0100
,
0010
0000
1001
0000
0001
0000
0000
0100
,
0001
0000
0000
0100
0001
0000
0010
0000
,
0010
0000
0100
0000
1000
0000
0000
0100
,
1000
0000
0000
0100
1000
0000
0010
0000
,
0100
0000
0010
0000
1000
0000
0000
0010
,
1000
0000
0000
0010
1000
0000
0010
0000
,
0100
0000
0100
0000
0001
0000
0000
0010
,
0001
0000
0000
0010
0001
0000
0100
0000
,
0100
0000
0101
0000
0000
1100
0000
0000
,
0011
0000
0000
1010
0000
0000
0110
0000
,
0100
2002
0000
0000
,
3003
0000
0000
0000
;

//--------------- dance-single - Marten ----------------
#NOTES:
     dance-single:
     Marten:
     Medium:
     13:
     0,0,0,0,0:
0000
0000
0000
0000
,
0000
0000
0000
0000
,
0000
0000
0000
0000
,
0001
0000
1000
0001
0000
0100
0010
0000
1000
0000
0100
0000
0001
0100
1000
0000
,
0001
0000
1000
0001
0000
0100
0010
0000
1001
0000
0000
0000
1000
0000
0000
0000
,
0010
1000
0000
0100
0010
0001
0000
0100
,
0010
0100
0001
0010
1000
0010
0001
0000
,
0010
0001
0000
0100
0010
0100
0000
0001
,
0100
0010
1000
0100
0001
0100
0100
0000
,
0010
0001
0000
0100
0010
1000
0000
0100
,
0010
0100
1000
0010
0001
0010
1000
0000
,
0010
1000
0000
0100
0010
0100
0000
1000
,
0100
0000
0010
0000
0001
0000
0001
0000
1000
0000
1000
0000
0001
0000
0000
0001
,
0000
0000
0001
0000
1000
0000
0000
1000
0000
0000
1000
0000
0100
0000
0000
0100
,
0000
0000
0100
0000
0010
0000
0000
0010
0000
0000
0010
0000
0001
0000
0000
0100
,
0000
0000
0001
0000
1000
0000
0000
0100
0000
0000
1000
0000
0001
0000
0000
0010
,
0000
0000
0001
0000
1000
0000
0000
0010
0000
0000
1000
0000
0001
0000
0000
0101
,
0000
0000
0001
0000
1000
0000
0000
1100
0000
0000
1000
0000
0001
0000
0000
0011
,
0000
0000
0001
0000
1000
0000
0000
1010
0000
0000
1000
0000
0001
0000
0010
0000
,
1000
0010
0001
0100
0010
1000
0001
0000
,
0200
0300
0000
0000
0101
0000
0000
0000
0000
0000
1001
0000
0000
0000
0000
0000
1100
0000
0000
0000
0000
0000
0110
0000
0000
0000
0000
0000
0011
0000
0000
0000
,
0001
0100
0010
0100
0001
0010
0100
0000
,
1000
0100
0010
0100
1000
0010
0100
0000
,
0020
0030
0000
0000
1010
0000
0000
0000
0000
0000
0011
0000
0000
0000
0000
0000
0110
0000
0000
0000
0000
0000
1100
0000
0000
0000
0000
0000
1001
0000
0000
0000
,
1000
0010
0100
0010
0001
0010
1000
0000
,
0001
0010
0100
0010
1000
0010
0001
1000
,
0020
0030
0000
0000
0110
0000
0000
0000
0000
0000
0101
0000
0000
0000
0000
0000
1100
0000
0000
0000
0000
0000
0110
0000
0000
0000
0000
0000
1001
0000
0000
0000
,
1000
0100
0001
0100
1000
1000
0001
0000
,
0001
0100
1000
0100
0001
0001
1000
0100
,
0020
0030
0000
0000
0011
0000
0000
0000
0000
0000
1010
0000
0000
0000
0000
0000
1000
0000
0000
0100
0000
0000
0010
0000
0000
0001
0000
0000
1001
0000
0000
0000
,
0001
0000
0000
0001
0000
0000
1000
0000
0000
1000
0000
0000
0010
0000
0100
0000
,
0001
0010
0100
1000
0010
0001
0010
1000
,
0002
0010
0000
0010
,
0000
0000
0013
0000
0001
0100
0010
0000
,
2000
0100
0000
0001
,
0000
0000
3100
0000
1000
0100
0010
0001
,
2000
0010
0000
0010
,
0000
0000
0000
0000
3010
0000
0000
0000
0100
0000
0000
0001
0000
0000
1000
0000
,
0002
0000
0000
0023
0000
0000
2030
0000
,
0000
3020
0000
0000
0031
0000
1000
0000
,
0002
0100
0000
1000
,
0000
0000
0013
0000
0001
0100
0010
1000
,
0200
0010
0000
1000
,
0000
0000
0000
0000
0310
0000
0001
0000
1000
0000
0000
0010
0000
0000
0100
0000
,
0002
0000
0000
0000
0103
0000
0000
0000
0001
0000
0000
0010
0000
0000
0100
0000
,
2000
3100
0020
0031
,
1002
0000
0000
1003
0000
0000
0001
0000
0100
0000
0010
0000
,
2000
0000
0002
3003
,
0001
0000
0100
1000
0000
0100
0001
0000
,
0100
1000
0000
0100
0001
0000
1000
0001
,
1000
0000
0100
0001
0000
0100
1000
0000
,
0100
0001
0000
0100
1000
0000
0001
1000
,
0010
0000
0000
1010
0000
0000
1000
0000
0001
0000
0000
0011
0000
0000
0001
0000
,
1000
0000
0000
1100
0000
0000
1000
0000
0001
0000
0000
0101
0000
0000
0001
0000
,
1000
0100
0010
0001
0100
0010
1000
0001
,
2000
3000
2002
0000
,
0000
0000
0000
0000
,
0000
0000
0000
0000
,
0000
0000
0000
0000
,
3003
0000
0000
0000
0001
0000
0000
1000
0000
0000
0100
0000
0010
0000
0000
0100
,
0000
0100
0000
0000
1000
0000
0000
0001
0000
0100
0000
0000
0010
0000
0000
0100
,
0000
0000
0010
0000
1000
0000
0000
0001
0000
0010
0000
0000
0001
0000
0000
1000
,
0000
0010
0000
0000
0100
0000
0000
0010
0000
0010
0000
0000
1000
0001
0000
1000
,
0000
0001
1000
0000
0100
0000
0000
0100
0000
0100
0000
0000
0010
0000
0000
0001
,
0000
1000
0000
0000
0010
0000
0000
0010
0000
0010
0000
0000
0100
0000
0000
0001
,
0000
0000
0000
0000
1000
0000
0000
0000
0200
0300
0000
0000
1100
0000
0000
0000
0000
0000
0101
0000
0000
0000
0000
0000
0110
0000
0000
0000
0000
0000
1001
0000
,
0000
1000
0001
0000
0001
0000
0000
0100
0000
0010
0000
0000
0100
0000
0000
0001
,
0000
0010
0000
0000
0100
0000
0000
1000
0000
0100
0000
0000
0010
0000
0000
0001
,
0000
0000
0001
0000
1000
0000
0000
0010
0000
0010
0000
0000
0100
0000
0000
0010
,
0000
0010
0000
0000
1000
0000
0000
0001
0000
1000
0000
0000
0100
0010
0000
0100
,
0000
0010
0100
0000
1000
0000
0000
0001
0000
0100
0000
0000
0001
0000
0000
1000
,
0000
0010
0000
0000
1000
0000
0000
0001
0000
0010
0000
0000
0001
0000
0000
0010
,
0000
0000
0100
0000
1000
0000
0000
1000
0000
0000
0001
0000
0000
0001
0000
0000
,
0010
0100
1000
0010
0100
0001
0010
1000
,
0010
0000
0001
0000
2000
0000
0000
0000
3010
0000
0000
0000
1010
0000
0000
0110
,
0000
0000
0101
0000
0000
0000
0001
0000
1000
0000
0000
0000
0001
0100
0000
0001
,
0000
0000
1000
0000
0002
0000
0000
0000
0013
0000
0000
0000
0011
0000
0000
0110
,
0000
0000
1100
0000
0000
0000
1000
0000
0001
0000
1000
0000
0010
0000
0000
0001
,
0000
0000
0010
0000
1000
0000
0000
0000
1001
0000
0000
0000
0001
0000
0000
0010
,
0000
0000
1000
0000
0010
0000
0000
0000
0011
0000
0000
0000
0001
0100
0000
0010
,
0000
0000
1000
0000
0001
0000
0000
0000
1001
0000
0000
0000
1000
0000
0000
0100
,
0000
0000
0010
0000
0001
0000
0000
0000
0011
0000
0000
0000
0001
0100
0000
0001
,
0100
0010
1000
0100
0010
0001
0100
0010
,
1000
0001
1000
1000
0001
0001
1000
0010
,
0100
0100
0001
0000
0010
0001
0000
0100
,
0010
1000
0000
0100
0010
0100
1000
0010
,
0001
0010
1000
0000
0010
1000
0000
0100
,
0010
0100
0000
1000
0100
0010
0001
0100
,
1000
0100
0100
0000
0010
1000
0000
0100
,
0010
0001
0000
0100
0010
0100
0001
0010
,
1000
0010
0001
0000
0010
0001
0000
0100
,
0010
0100
0000
0001
0100
0010
1000
1000
,
0001
0000
0001
0000
1001
0000
0000
1100
0000
0000
0101
0000
0000
0000
0000
0000
,
1001
0000
0000
0101
0000
0000
1100
0000
0000
0000
0000
0000
1001
0000
0000
1000
,
0000
0001
2002
0000
0000
0000
0000
0000
,
3003
0000
0000
0000
;

//--------------- dance-single - Marten ----------------
#NOTES:
     dance-single:
     Marten:
     Hard:
     16:
     0,0,0,0,0:
0000
0000
0000
0000
,
0000
0000
0000
0000
,
0000
0000
0000
0000
,
0001
0000
0100
0001
0000
0010
1000
0010
0000
0100
1000
0001
0000
0100
0100
0010
,
1000
0000
0100
1000
0000
0010
0001
0010
0100
0000
0000
0000
0001
0000
0000
0000
,
0100
1000
0000
0001
0010
1000
0000
0100
,
0010
0000
0001
0000
1000
0100
1000
0000
0001
0000
0100
0000
0001
0000
0000
0000
,
0010
0100
0000
0001
0100
1000
0001
0100
,
0001
0000
0010
0000
0100
1000
0100
0000
0010
0000
0001
0000
0100
0000
0000
0000
,
0010
0100
0000
1000
0100
0001
0000
1000
,
0100
0000
0010
0000
0001
0100
0001
0000
1000
0000
0100
0000
0010
0000
0000
0000
,
0001
0010
0000
1000
0010
0001
0100
0010
,
0100
0010
1000
0000
0100
0010
0001
0000
0100
0010
0100
0000
0001
0100
0000
0001
,
0000
0100
0001
0000
1000
0010
0000
0010
0000
1000
0010
0000
1000
0100
0000
1000
,
0000
0100
1000
0000
0001
0010
0000
0010
0000
0001
0010
0000
0100
0000
0010
0100
,
0000
0010
0100
0000
1000
0000
0001
1000
0000
0001
1000
0000
0010
1000
0010
1000
,
0000
0010
1000
0000
0001
0010
0001
0010
0000
0001
0010
0000
0001
0100
0000
0010
,
0000
1000
0001
0000
1000
0100
0000
0010
0000
0001
1000
0000
0001
0010
0100
1000
,
0000
1000
0001
0000
1000
0010
0100
0001
0000
0001
1000
0000
0001
0010
0001
0000
,
1000
0010
1000
0000
0001
0100
0001
0000
1000
0100
1000
0000
0010
0000
0000
0000
,
0200
0300
0000
0000
1010
0000
0000
0000
0000
0000
0011
0000
0000
0000
0000
0000
1100
0000
0000
0000
0000
0000
0101
0000
0000
0000
0001
0000
1000
0000
0000
0000
,
0001
0000
0100
0000
0010
0000
1000
0100
0000
0010
0100
0000
1000
0000
0000
0000
,
1000
0000
0100
0000
1000
0000
0010
0100
0000
0001
0100
0001
1000
0000
0000
0000
,
0002
0003
0000
0000
0011
0000
0001
0000
0000
0000
1010
0000
1000
0000
0000
0000
0001
0000
0100
0000
0010
0000
1000
0000
0000
0000
0001
0000
1000
0000
0000
0000
,
0001
0000
0100
0000
1000
0000
0100
0000
0001
0100
0001
0000
1000
0000
0000
0000
,
1000
0000
0100
0000
0001
0000
0100
1000
0000
0100
1000
0001
1000
0000
0000
0000
,
0020
0030
0000
0000
1010
0000
0010
0000
0000
0000
0011
0000
0010
0000
0100
0000
1100
0000
1000
0000
0001
0000
0101
0000
0000
0000
0010
0000
1001
0000
0000
0000
,
0001
0000
0010
0000
0100
0000
0001
0000
0100
0010
0100
0000
1000
0000
0000
0000
,
1000
0000
0010
0000
0100
0000
1000
0000
0100
0010
0100
0000
0001
0000
0000
0000
,
0020
0030
0000
0000
0011
0000
0100
0000
0000
0000
1010
0000
0100
0000
0000
0000
0101
0000
0000
1100
0000
0000
0011
0000
0000
1010
0000
0000
1001
0000
0000
0000
,
1000
0000
1000
0100
0000
0100
0010
0000
0010
0001
0000
0001
1000
0001
1000
0000
,
0001
0100
0001
0000
1000
0100
1000
0000
0010
0100
0010
0000
1000
0001
1000
0000
,
0002
0100
0000
1000
,
0000
0000
0013
0000
0001
0100
0010
0000
,
0200
1000
0000
0001
,
0000
0000
0310
0000
0100
0001
0010
0100
,
2000
0001
0000
0100
,
0000
0000
0000
0000
3010
0000
0000
0000
1000
0000
0000
0100
0000
0000
0010
0000
,
0002
0000
0010
2003
0000
0010
3002
0000
,
0100
2003
0000
0100
3001
0000
0100
0000
,
0020
0000
0001
0000
0000
1000
1000
0000
,
0000
0100
0130
0000
0010
1000
0100
0010
,
0200
0000
0001
0000
0001
0000
0000
0010
0000
0000
0010
0000
0010
0000
0000
1000
,
0000
0000
1000
0000
1300
0000
0100
1000
0001
0000
0000
0100
0000
0000
0010
0000
,
2000
0000
0000
0000
3100
0000
0000
0000
1000
0000
0000
0100
0000
0000
0010
0000
,
0002
0100
0023
1000
,
0032
0000
0000
1000
0000
0000
0103
0000
0010
0000
1000
0000
,
0002
0000
2000
3003
,
1000
0000
0000
0010
0100
0000
0001
0000
0000
0010
0100
0000
1000
0000
0000
0010
,
0100
0000
0001
0000
0000
0010
0100
0000
1000
0001
1000
0000
0010
0000
0010
0000
,
1000
0000
0000
0100
0010
0000
0001
0000
0000
0100
0010
0000
1000
0000
0000
0100
,
0010
0000
0001
0000
0000
0100
0010
0000
1000
0001
1000
0000
0100
0000
0000
0000
,
0010
0001
0000
1000
0000
0100
1000
0000
0010
1000
0000
0001
0000
0100
0001
0000
,
1000
0010
0100
0001
0000
0001
1000
0000
0001
0010
0100
1000
0000
1000
0001
0000
,
1000
0100
1000
0000
0001
0100
0001
0000
1000
0010
1000
0000
0001
0010
0001
0000
,
0200
0300
2002
0000
,
0000
0000
0000
0000
,
0000
0000
0000
0000
,
0000
0000
0000
0000
,
3003
0000
0000
0000
1000
0000
0100
0010
0000
0000
0010
0000
0001
0000
0100
0010
,
0000
0010
0000
1000
0001
0000
0010
0100
0000
0100
0000
0000
1100
0000
0000
1001
,
0000
1000
0010
1000
0001
0000
0010
0100
0000
0010
0000
0000
0010
0000
0001
0100
,
0000
0100
0000
0010
1000
0000
0001
1000
0000
1000
0000
0000
0200
0001
0000
0301
,
0000
0100
2000
0000
3001
0000
0100
0010
0000
0010
0000
0000
1000
0000
0100
0010
,
0000
0010
0000
0001
1000
0000
0010
0100
0000
0100
0000
0000
0101
0000
0000
1001
,
0000
0000
0001
0000
0010
0000
0001
0000
2000
3000
0000
0000
0001
0000
0100
0000
0100
0000
1000
0000
0100
0000
0100
0000
0001
0000
0010
0000
0100
0000
2000
0000
,
0000
0000
3000
0000
1000
0000
0001
0100
0000
0101
0000
0000
0110
0000
0010
1000
,
0000
1000
0000
0010
0100
0000
0000
0101
0000
1100
0000
0000
0110
0000
0010
0001
,
0000
1000
0100
0010
0001
0000
0100
0010
0000
0110
0000
0000
1001
0000
0001
0010
,
0000
0010
0000
0001
0100
0000
0010
0100
0000
0110
0000
0000
0020
0001
0000
0031
,
0000
0010
2000
0000
3001
0000
0010
0100
0000
0110
0000
0000
0011
0000
0010
0001
,
0000
0001
0000
1000
0010
0000
0100
0010
0000
0110
0000
0000
0101
0000
0001
0100
,
0000
0001
0010
0100
1000
0000
1000
0010
0000
0010
0100
0000
0100
0001
0000
0001
,
1000
0001
1000
0000
0001
0010
0001
0000
1000
0010
1000
0000
0001
0100
0001
0000
,
1000
0100
1000
0000
0001
0000
0000
0000
0011
0000
0000
0000
0100
0000
0000
1010
,
0000
0000
0101
0000
0000
0000
0010
0000
1001
0000
0000
0000
1000
0100
0000
0010
,
0000
0010
0001
1000
0010
0000
0000
0000
1010
0000
0000
0000
0100
0000
0000
0011
,
0000
0000
1100
0000
0000
0000
0010
0000
1001
0000
1000
0001
0010
0001
0000
0100
,
0000
0010
1000
0000
0010
0000
0000
0000
0110
0000
0000
0000
0001
0000
0000
0011
,
0000
0000
0100
0000
1000
0000
0010
0000
0110
0000
0000
0000
0100
0001
0000
0100
,
0000
0000
0001
0000
1001
0000
0000
0000
1100
0000
0000
0000
0100
0000
0010
0001
,
0000
1000
0100
0000
0010
0000
0001
0000
0101
0000
0000
0000
0010
1000
0000
0100
,
1000
0000
0001
0000
1000
0010
1000
0000
0001
0010
0001
0000
1000
0100
1000
0000
,
0001
0100
0001
0000
1000
0100
0010
0000
0001
0100
0010
0000
1000
0010
0100
0000
,
0001
0010
0100
0000
1000
0000
0000
0000
0010
0000
0100
0000
0000
0000
1000
0000
,
0100
0000
0001
0000
0000
0000
1000
0000
0100
0000
0010
0000
0001
0010
0001
0000
,
0100
0010
1000
0000
0001
0010
0000
1000
,
0010
0000
0001
0000
0100
0000
0010
0000
1000
0000
0001
0000
1000
0100
1000
0000
,
0010
1000
0001
0000
0010
0100
0000
0001
,
0100
0000
1000
0000
0000
0000
0001
0000
0100
0000
0010
0000
1000
0010
1000
0000
,
0100
0010
0001
0000
1000
0010
0000
0001
,
0010
0000
1000
0000
0100
0000
0010
0000
0001
0000
1000
0000
0001
0100
0001
0000
,
1000
0010
1000
0000
0001
0000
0100
1000
0000
0100
0001
0000
0000
0000
0000
0000
,
1000
0000
0100
0001
0000
0100
1000
0000
0000
0000
0000
0000
0001
0000
0010
0100
,
0000
1000
0001
0000
2002
0000
0000
0000
0000
0000
0000
0000
0000
0000
0000
0000
,
3003
0000
0000
0000
;

//--------------- dance-single - Marten ----------------
#NOTES:
     dance-single:
     Marten:
     Challenge:
     18:
     0,0,0,0,0:
0000
0000
0000
0000
,
0000
0000
0000
0000
,
0000
0000
0000
0000
,
0001
0000
1000
0000
0010
0000
1000
0000
0000
0000
0100
1000
0001
0000
1000
0000
0000
0000
0010
0000
0100
0000
0001
0000
0010
0000
0100
1000
0001
0000
0000
0000
,
1000
0000
0100
0000
0001
0000
0100
0000
0010
0000
0100
0000
1000
0000
0010
0100
0001
0000
0000
0000
0000
0000
0000
0000
0100
0000
0000
0000
0000
0000
0000
0000
,
1010
0100
0000
0001
0011
0100
0000
0100
,
1001
0000
0010
0000
0100
0010
0100
0000
1001
0000
0010
0000
0100
0000
0000
0000
,
1100
0010
0000
0001
0101
0010
0000
0100
,
1001
0000
1000
0000
0010
0100
1000
0000
0100
0000
0001
0010
0100
0000
0000
0000
,
0011
1000
0000
0010
1010
0001
0000
0010
,
1001
0000
0100
0000
0010
0100
0010
0000
1001
0000
0100
0010
0100
0000
0000
0000
,
1100
0001
0000
0100
0101
1000
0000
0010
,
1000
0100
0010
0001
0100
0010
1000
0001
1000
0100
0001
0100
1000
0100
0000
1100
,
0000
1000
0100
0000
0010
0001
0000
0011
0000
0010
0001
0000
0100
0001
0000
0101
,
0000
0100
0001
0000
1000
0010
0000
1010
0000
1000
0010
0000
1000
0000
0100
0001
,
0000
0100
1000
0000
0001
0000
0100
1000
0000
0100
0001
0000
1000
0010
1000
0100
,
0000
0010
0001
0000
0001
0010
0001
0100
0000
0010
1000
0000
1000
0010
0000
0110
,
0000
0100
0001
0000
0001
0010
0000
0110
0000
0100
1000
0000
0001
0100
1000
0100
,
0000
0010
1000
0000
1000
0100
0001
0100
0000
0010
0001
0000
1000
0010
1000
0010
,
0001
0010
0001
0010
1000
0100
0010
0001
0100
0010
1000
0001
0010
0000
0000
0000
,
0200
0300
0000
0000
0011
0000
1000
0000
0000
0000
1010
0000
0001
0000
0000
0000
1001
0000
0010
0000
0100
0000
1001
0000
0000
0000
0010
0000
1001
0000
0000
0000
,
1000
0000
0010
0000
0100
0000
0001
0010
0000
0001
0100
0000
0110
0000
0000
0000
,
0010
0000
0010
0000
1001
0000
1000
0100
0000
0001
0100
1000
0001
0000
0100
0010
,
0200
0300
0000
0000
0101
0000
1000
0000
0000
0000
1100
0000
0001
0000
0000
0000
1001
0000
0100
0000
0010
0000
1001
0000
0000
0000
0100
0000
1001
0000
0000
0000
,
0101
0000
0100
0000
0010
0000
1000
0100
0000
0100
0010
0000
0001
0000
1000
0000
,
1100
0000
0100
0000
0010
0000
0001
0100
0000
1000
0100
0001
1000
0000
0010
0100
,
0020
0030
0000
0000
1010
0000
0100
0000
0000
0000
0011
0000
0100
0000
0100
0000
1001
0000
0010
0000
0100
0000
1001
0000
0000
0000
0010
0000
1001
0000
0000
0000
,
1000
0000
0010
1000
0100
0000
0001
0100
0000
1000
0001
0000
1001
0000
1000
0000
,
0001
0000
0010
0001
0100
0000
1000
0100
0000
0001
1000
0001
0010
0000
0100
1000
,
0020
0030
0000
0000
1010
0000
1000
0000
0001
0000
0011
0000
0001
0000
1000
0000
1100
0000
0000
0101
0000
0000
0011
0000
0000
1010
0000
0000
1001
0000
0000
0000
,
1000
0000
0010
0100
0000
0001
0010
0000
0100
1000
0000
0010
0100
0001
1000
0000
,
0001
0100
0001
0100
1000
0100
1000
0100
0001
0010
0100
1000
0010
0100
0001
1000
,
0100
0000
0010
0000
0001
0100
0000
0010
0000
0000
0100
0000
0001
0100
0000
0010
,
0000
0000
0100
0000
0001
0100
0000
0010
2000
0000
3200
0000
0320
0000
0000
0000
,
0230
0000
0000
0000
1300
0010
0000
0100
0000
0010
1000
0000
0001
0010
0000
0100
,
0000
0010
0001
0000
1000
0000
0010
0100
2000
0000
3200
0000
0302
0000
2003
0000
,
3020
0000
0000
0000
1030
0100
0000
0010
0000
0000
0100
0000
1000
0100
0000
0010
,
0000
0000
0100
0000
1000
0100
0000
0010
0002
0000
0000
0203
0000
0000
0320
0000
,
2030
0000
0100
3002
0000
0100
2003
0000
,
0010
3002
0000
0010
2003
0000
3002
0000
,
1003
0000
0010
1000
0001
0000
0000
0010
0000
0010
0001
0000
1000
0000
0000
0010
,
0000
0010
1000
0000
0001
0000
0000
0010
0002
0000
0203
0000
0320
0000
2030
0000
,
3200
0000
0310
0000
0100
0000
1000
0100
0000
0010
0001
0000
1000
0000
0001
0100
,
0000
0010
1000
0000
0001
0000
1000
0100
0020
0000
0000
0032
0000
0000
1003
0000
,
1200
0000
0000
0000
1300
0000
0000
0000
2000
0000
0000
3020
0000
0000
0230
0000
,
0302
0103
2000
3100
,
2001
0000
0000
3001
0000
0000
0002
0000
0023
0000
0230
0000
,
2300
0001
3020
0100
,
1030
0000
0001
0100
1000
0000
0100
0000
0001
0010
1000
0000
0010
0000
0001
0100
,
1000
0000
0000
0000
0100
0000
0000
0000
0001
0000
0010
0000
1000
0000
0000
0000
0010
0000
0001
0000
1000
0000
0000
0000
0020
0030
0000
0000
0020
0030
0000
0000
,
0001
0000
1000
0100
0001
0000
0100
0000
1000
0010
0001
0000
0010
0000
1000
0100
,
0001
0000
0100
0000
1000
0010
0001
0000
0010
1000
0001
0000
0010
0000
0000
0000
,
0001
0100
0000
0110
0000
0010
1000
0000
1000
0100
0000
0110
0000
0010
0001
0000
,
1000
0010
0001
0010
0000
0100
0001
0000
0001
0010
1000
0010
0000
0100
1000
0000
,
0001
0100
0001
0100
1000
0100
1000
0100
0001
0010
0100
1000
0001
1000
0010
0100
,
0002
0003
2002
0000
,
0000
0000
0000
0000
,
0000
0000
0000
0000
,
0000
0000
0000
0000
,
3003
0000
0000
0000
0101
0000
0001
0010
0000
0001
1000
0000
1100
0000
1000
0010
,
0000
1010
0000
1000
0100
0000
0010
0001
0000
1001
0000
0000
1100
0000
1000
0010
,
0000
0100
0001
0010
0100
0000
0010
0001
0000
0011
0000
0010
0001
0000
0100
0001
,
0000
0101
0000
0100
0010
0000
1000
0100
0000
0110
0000
0000
0100
0100
0000
0100
,
0000
0010
0100
0000
0110
0000
0010
0001
0000
1001
0000
0001
0100
0000
1000
0100
,
0000
0110
0000
0010
1000
0000
0001
0010
0000
0110
0000
0000
1100
0000
1000
0010
,
0000
0000
1000
0000
0100
0000
1000
0000
0020
0030
0000
0000
0101
0000
0001
0000
0010
0000
1100
0000
1000
0000
0010
0000
1001
0000
0010
0000
0100
0000
1001
0000
,
1000
0000
0001
0000
1000
0100
0000
0010
0001
0000
0000
0000
0100
0000
1000
0000
0000
0000
1100
0000
0000
0000
0100
0000
0001
0000
0000
0000
1000
0000
0100
0000
,
0000
0101
0000
0100
1000
0000
0010
0100
0000
0110
0000
0000
1010
0000
0010
0100
,
0001
0010
0100
1000
0001
0000
0010
1000
0000
1010
0000
0010
0001
0000
1000
0010
,
0000
0011
0000
0010
1000
0000
0001
0100
0000
0110
0000
0000
0100
0100
0000
0100
,
0000
0010
0100
0000
0001
0100
0001
0100
0010
1000
0010
1000
0100
1000
0100
1000
,
0001
0010
0001
0010
0100
1000
0001
1000
0100
1000
0010
1000
0001
0100
0001
0010
,
0001
0100
0010
1000
0001
0000
0100
0010
0000
1000
0100
0000
0010
0001
0000
1000
,
0010
0100
0001
0000
1000
0010
1000
0010
0001
0010
0001
0010
1000
0010
0100
0001
,
0010
0100
1000
0001
1000
0000
0000
0000
1001
0000
0000
0000
0100
0000
0000
1010
,
0000
0000
0101
0000
0000
0000
0010
0000
1001
0000
0000
0000
0001
0010
0000
0100
,
0000
0010
0001
1000
0001
0000
0000
0000
1001
0000
0000
0000
0100
0000
0000
0011
,
0000
0000
1100
0000
0000
0000
0010
0000
1001
0000
1000
0100
0010
0100
0000
1000
,
0000
0001
0100
0000
0110
0000
0000
0000
0010
0000
1000
0100
0010
0000
1000
0010
,
0000
0001
1000
0000
0010
0000
0100
0000
1001
0000
0000
0000
0001
0010
0000
0100
,
0000
0000
1100
0000
0010
0000
0000
0000
1001
0000
0000
0000
1000
0000
0010
0001
,
0000
0010
1000
0000
0100
0000
0010
0000
0110
0000
0000
0000
0001
0010
0000
1000
,
0010
0000
0001
0000
1000
0010
1000
0001
0010
0001
1000
0100
1000
0001
0100
0001
,
0010
0100
0010
0001
1000
0001
0100
0010
0100
0001
0010
0100
1000
0010
0100
0001
,
1000
0100
0001
0100
1000
0000
0000
0000
0011
0000
0100
0000
0000
0000
1000
0000
,
1010
0000
0100
0000
0000
0000
0100
0000
1001
0000
0010
0000
0100
0010
0100
0000
,
1001
0010
0100
0000
0101
0010
0000
1000
,
1100
0000
0010
0000
0000
0000
0100
0000
1001
0000
0001
0000
0010
0100
0001
0000
,
0100
0000
1000
0010
0100
0000
0000
0000
1010
0000
0001
0000
0000
0000
0010
0000
,
0011
0000
1000
0000
0000
0000
0010
0000
1001
0000
0100
0000
0010
0100
0010
0000
,
1001
0000
0100
0010
0100
0000
0000
0000
0101
0000
1000
0000
0000
0000
0100
0000
,
1100
0000
0001
0000
0000
0000
0010
0000
0001
0100
0010
1000
0100
0010
0001
1000
,
0001
0100
1000
0100
0001
0000
1000
0100
0000
0100
0001
0000
1000
0010
0000
0010
,
0001
0000
0001
0100
0000
0100
1000
0000
0001
0010
0000
0010
1000
0000
1000
0100
,
0000
0100
0001
0000
2002
0000
0000
0000
0000
0000
0000
0000
0000
0000
0000
0000
,
3003
0000
0000
0000
;
