#TITLE:ONE AND ONLY;
#SUBTITLE:;
#ARTIST:Yuta Imai;
#TITLETRANSLIT:;
#SUBTITLETRANSLIT:;
#ARTISTTRANSLIT:;
#GENRE:;
#CREDIT:;
#BANNER:ONE AND ONLY.png;
#BACKGROUND:ONE AND ONLY-bg.png;
#LYRICSPATH:;
#CDTITLE:;
#MUSIC:ONE AND ONLY.ogg;
#OFFSET:-0.035000;
#SAMPLESTART:92.448997;
#SAMPLELENGTH:15.000000;
#SELECTABLE:YES;
#BPMS:0.000000=174.000000
,64.000000=87.000000
,66.000000=174.000000
,198.000000=87.000000
,200.000000=174.000000
,356.000000=87.000000
,358.000000=174.000000
;
#STOPS:
;
#BGCHANGES:0.000=ONE AND ONLY.mp4=1.000=1=0=0=StretchNoLoop==CrossFade==,
99999.000=-nosongbg-=1.000=0=0=0=StretchNoLoop====,
99999=-nosongbg-=1.000=0=0=0 // don't automatically add -songbackground-
;
#KEYSOUNDS:;
#ATTACKS:;

//---------------dance-single - Marten----------------
#NOTES:
     dance-single:
     Marten:
     Medium:
     12:
     0.582166,0.637735,0.380560,0.689765,0.384524,514.000000,466.000000,48.000000,87.000000,0.000000,0.000000,0.582166,0.637735,0.380560,0.689765,0.384524,514.000000,466.000000,48.000000,87.000000,0.000000,0.000000:
// measure 0
0000
0000
0000
0000
,  // measure 1
0000
0000
0000
0000
,  // measure 2
0000
0000
0000
0000
,  // measure 3
0000
0000
0000
0000
,  // measure 4
0000
0000
0000
0000
,  // measure 5
0000
0000
0000
0000
,  // measure 6
0000
0000
0000
0000
,  // measure 7
0000
0000
0000
0000
,  // measure 8
0000
0000
0000
0000
,  // measure 9
1000
0000
0100
0010
0001
0010
0001
0100
,  // measure 10
0010
0000
1000
0000
0001
0000
1000
0100
,  // measure 11
0001
0000
0001
0100
1000
0000
0010
0000
,  // measure 12
0100
0000
0100
0001
1000
0001
0010
0000
,  // measure 13
0011
0000
0000
0001
0000
0000
1000
0000
1010
0000
0000
1000
0000
0000
0001
0000
,  // measure 14
0101
0000
0000
0001
0000
0000
1000
0000
1100
0000
0000
1000
0000
0000
0001
0000
,  // measure 15
1000
0010
0100
0001
0010
0010
0100
0100
,  // measure 16
0000
1000
1000
1000
0010
0000
0010
0000
0200
0000
0000
0000
0302
0000
0000
0000
,  // measure 17
2003
3020
0130
0100
,  // measure 18
0100
0001
1000
0100
2200
3300
0022
0033
,  // measure 19
0202
0303
2020
3030
0220
0330
2002
3003
,  // measure 20
0001
0000
0000
0010
0000
0000
0110
0000
0100
0000
0100
0000
0100
0000
0000
0000
,  // measure 21
1000
0010
0001
0010
1000
0001
1001
0000
,  // measure 22
0000
0000
0000
1000
0000
0000
0001
0000
0000
0000
0000
0000
0201
0000
0000
0000
0000
0000
0310
0000
0000
0000
1000
0000
,  // measure 23
0001
0000
0010
0100
0000
1000
0001
0000
0100
0010
0000
1000
,  // measure 24
0100
0000
0010
0001
0000
0100
0010
0000
0000
0110
0000
0000
,  // measure 25
0010
1000
0001
0010
0001
1000
0020
0000
0000
0230
0000
0000
,  // measure 26
2300
0000
3100
0000
0001
0000
1000
0000
0002
0003
0000
0000
2000
3000
0000
0000
,  // measure 27
0200
0300
0000
0000
0020
0030
0002
0003
2000
3000
0000
0000
0020
0030
2000
3000
,  // measure 28
0200
0300
0000
0200
0300
0000
0200
0300
2000
3000
0020
0030
0002
0003
0020
0030
,  // measure 29
2000
3000
0000
0000
0002
0003
0020
0030
0200
0300
0000
0020
0030
0000
0001
0000
,  // measure 30
2000
3000
0001
0000
0002
0003
0000
0000
0021
0000
0000
0000
0000
0000
0230
0000
,  // measure 31
0000
0000
0000
0000
0302
0000
0203
0300
2000
3000
0000
0000
2002
3003
0000
0000
,  // measure 32
0002
0003
2000
3000
0000
0000
0002
0003
2000
0000
3000
0000
0020
0000
0030
0000
2000
0000
3000
0000
0000
0000
0000
0000
0200
0000
0300
0000
0020
0000
0030
0000
,  // measure 33
0002
0000
0003
0000
0000
0000
0000
0000
0200
0300
0020
0030
0000
0000
0200
0300
0020
0000
0000
0000
0000
0000
0000
0000
0000
0000
0000
0000
0000
0000
0000
0000
,  // measure 34
0000
1030
0001
0100
,  // measure 35
0010
0000
0000
0000
1000
0000
0000
0001
0010
0000
0010
0000
0100
0000
0100
0000
,  // measure 36
1000
0000
0000
0000
0010
0000
0000
0000
0200
0300
0000
0000
0000
0000
0000
0000
0200
0300
0000
0000
1000
0000
0000
0000
0100
0000
0000
0000
0010
0000
0000
0000
,  // measure 37
0001
0000
1000
0000
0010
0000
0000
0000
1000
0000
0000
0100
0000
0000
0001
0000
,  // measure 38
0000
0100
0000
0000
0010
0000
0001
0000
1000
0000
0000
0000
0010
0000
1000
0000
,  // measure 39
0100
1000
0001
0010
0001
0001
1000
0000
,  // measure 40
0010
0100
0001
0100
0001
0000
0010
0100
,  // measure 41
1000
0000
0000
0000
0001
0000
0010
0000
0001
0000
0000
0100
0000
0000
1000
0000
,  // measure 42
0000
0100
0000
0000
0001
0000
1000
0000
2001
0000
0000
0000
0000
0000
0000
0000
,  // measure 43
0000
0000
3200
0000
,  // measure 44
0000
0000
0320
0000
,  // measure 45
0000
0000
0032
0000
,  // measure 46
2003
0000
3020
0001
,  // measure 47
1000
0100
0230
1000
,  // measure 48
0001
0000
0010
0000
0310
1000
0001
0010
,  // measure 49
0001
0000
0100
0000
1000
0000
0100
0000
0000
0001
0001
0001
0010
0000
0010
0000
,  // measure 50
0220
0000
0000
0000
0330
0000
0000
0000
0100
0000
0000
1000
0000
0000
0010
0000
,  // measure 51
1010
0000
0000
0110
0000
0000
0101
0000
0202
0000
0000
0000
0303
0000
0000
0000
,  // measure 52
0001
0000
0000
0000
1000
0000
0100
0000
0010
0000
0000
0001
0000
0000
1000
0000
,  // measure 53
1010
0000
0000
1001
0000
0000
0001
0000
0011
0000
0000
0110
0000
0000
0100
0000
,  // measure 54
1000
0000
0000
0000
0000
0000
0001
0000
1000
0000
0000
0010
0000
0000
0100
0000
,  // measure 55
0101
0000
0000
0011
0000
0000
0110
0000
0220
0000
0000
0000
0330
0000
0000
0000
,  // measure 56
1000
0100
0010
0001
1000
1000
0001
0001
,  // measure 57
0100
0000
0100
0000
0100
0010
1001
0000
,  // measure 58
2010
0000
3001
0010
0001
1000
0010
1000
,  // measure 59
0001
0100
0001
1000
0100
1000
0001
0010
,  // measure 60
0012
0000
1003
1000
0100
0100
0010
0010
,  // measure 61
0001
0001
1000
1000
0010
0100
0110
0000
,  // measure 62
1010
0000
0000
1000
0000
0000
0001
0000
0101
0000
0000
0001
0000
0000
1000
0000
,  // measure 63
1100
0000
0000
1000
0000
0000
0001
0000
0011
0000
0000
0001
0000
0000
1000
0000
,  // measure 64
0010
1000
0100
0010
0001
0001
1000
1000
,  // measure 65
1020
0000
0230
0000
2300
3100
0001
0000
,  // measure 66
1001
0000
0000
0000
1000
0000
0100
0000
0010
0000
0000
0001
0000
0000
1000
0000
,  // measure 67
0010
0000
0000
0100
0000
0000
1000
0000
0200
0000
0000
0000
0301
0000
1000
0000
,  // measure 68
0001
0000
0000
0000
0001
0000
0100
0000
0010
0000
0000
1000
0000
0000
0001
0000
,  // measure 69
0010
0000
0000
0001
0000
0000
0100
0000
0010
0000
0000
1000
0000
0000
0100
0000
,  // measure 70
0010
0000
0000
0000
0001
0000
1000
0000
0010
0000
0000
0010
0000
0000
1000
0000
,  // measure 71
0001
0000
0000
0010
0000
0000
0100
0000
1000
0000
0000
0000
0001
0000
1000
0000
,  // measure 72
1001
0000
0000
0000
1000
0000
0010
0000
1010
0000
0000
0101
0000
0000
0001
0000
,  // measure 73
0011
0000
0000
0010
0000
0000
0100
0000
1000
0000
0000
0000
0000
0000
0000
0000
,  // measure 74
0020
0000
0000
0000
,  // measure 75
0000
0100
0001
1030
,  // measure 76
0001
0100
0100
1000
0100
0100
0001
0010
,  // measure 77
0010
1000
0010
0010
0001
0100
0010
1000
,  // measure 78
0001
0000
0000
0000
1000
0000
0001
0000
0100
0000
0000
0010
0000
0000
0100
0000
,  // measure 79
0001
0000
0000
0010
0000
0000
1000
0000
0010
0000
0001
0000
1000
0000
0000
0000
,  // measure 80
0001
0001
1000
1000
0001
0010
0100
1000
,  // measure 81
0020
0000
0230
0000
2300
3000
0100
0001
,  // measure 82
1000
0000
0100
0010
0001
0010
1000
0010
,  // measure 83
0001
0000
0000
0000
0100
0000
0000
0000
0010
0000
0000
0010
0000
0000
0010
0000
,  // measure 84
1000
0100
0001
0000
0001
0100
1000
0000
,  // measure 85
0001
0100
0010
1000
0001
0001
1000
0000
,  // measure 86
1010
0000
0000
1000
0000
0000
0100
0000
0110
0000
0000
0010
0000
0000
0001
0000
,  // measure 87
0011
0000
0000
0001
0000
0000
0100
0000
0110
0000
0000
0010
0000
0000
1000
0000
,  // measure 88
0001
0001
1000
1000
0010
0100
0001
0010
,  // measure 89
0000
0001
0001
0001
0010
0000
0010
0000
0000
0000
0000
0000
0000
0000
0000
0000
;

//---------------dance-single - Marten----------------
#NOTES:
     dance-single:
     Marten:
     Hard:
     16:
     0.825679,1.062891,0.348846,0.784904,1.066360,729.000000,685.000000,44.000000,99.000000,4.000000,0.000000,0.825679,1.062891,0.348846,0.784904,1.066360,729.000000,685.000000,44.000000,99.000000,4.000000,0.000000:
0000
0000
0000
0000
,
0000
0000
0000
0000
,
0000
0000
0000
0000
,
0000
0000
0000
0000
,
0000
0000
0000
0000
,
0000
0000
0000
0000
,
0000
0000
0000
0000
,
0000
0000
0000
0000
,
0000
0000
0000
0000
,
0001
0000
0100
0000
0010
1000
0100
1000
,
0001
0000
0000
0000
0010
0000
0000
0000
1000
0000
0000
0000
0010
0000
0001
1000
,
0001
0000
0100
0000
0010
1000
0001
0010
,
0100
0000
0000
0000
1000
0000
0100
0000
0010
0001
0010
0100
1000
0000
0000
0000
,
1010
0000
0000
0010
0000
0000
0100
0001
0010
0000
0000
0010
0000
0000
0100
1000
,
0001
0000
0000
0001
0000
0000
0100
0001
1000
0000
0000
1000
0000
0000
0010
1000
,
0100
0010
0100
0010
0001
0010
0001
0010
0001
0100
0010
1000
0001
0010
0100
1000
,
0000
0000
0001
1000
0001
0000
0100
0000
0010
0000
0000
0000
0010
0000
0000
0000
1000
0000
0000
0000
0001
0000
0000
0000
1000
0000
0000
0000
0001
0000
0000
0000
,
0010
0100
0010
0100
1000
0000
1000
0000
,
1000
0000
0001
1000
0001
0000
0010
0000
0220
0000
0330
0000
2200
0000
3300
0000
,
0202
0000
0303
0000
0220
0000
0330
0000
2020
0000
3030
0000
0022
0033
0000
0001
,
1000
0001
0000
0100
0010
0000
1000
0000
1010
0000
0110
0000
0101
0000
0001
0000
,
1000
0000
0000
0000
0000
0000
0100
0000
0000
0000
0000
0000
0001
0000
0000
0000
0000
0000
0100
0000
0000
0000
0000
0000
1000
0000
0000
0001
0000
0000
1000
0000
0001
0000
1000
0000
0001
0000
0000
0000
0000
0000
0000
0000
0000
0000
0000
0000
,
0000
0000
0000
0010
0000
0000
0010
0000
0000
0100
0000
0000
2100
0000
0000
0000
0000
0000
3001
0000
0100
0000
0001
0000
,
0010
1000
0010
0001
1000
0100
1000
0010
0001
0010
1000
0001
,
1000
0001
0100
0100
1000
0100
0100
0001
0010
0100
1000
0010
,
0100
0001
1000
0001
1000
0001
0012
0000
0000
0203
0000
0000
,
2300
0000
3100
0000
0010
0100
0001
0000
0020
0030
0000
0000
0002
0003
0000
0000
,
0200
0000
0300
0000
0000
0000
0000
0000
0020
0000
0030
0000
2000
3000
0002
0003
0020
0000
0030
0000
0000
0000
0000
0000
0200
0000
0300
0000
0020
0000
0030
0000
,
0200
0000
0000
0000
0000
0000
0300
0000
0000
0000
0000
0000
2000
0000
0000
0000
0000
0000
3000
0000
0000
0000
0000
0000
0000
0000
0000
0000
0000
0000
0000
0000
0000
0000
0000
0000
0002
0000
0000
0000
0000
0000
0003
0000
0000
0000
0000
0000
0200
0000
0000
0000
0000
0000
0000
0000
0000
0000
0000
0000
0300
0000
0000
0000
0000
0000
0000
0000
0000
0000
0000
0000
0020
0000
0000
0000
0000
0000
0000
0000
0000
0000
0000
0000
0030
0000
0000
0000
0000
0000
0000
0000
0000
0000
0000
0000
0200
0000
0000
0000
0000
0000
0300
0000
0000
0000
0000
0000
0002
0000
0000
0000
0000
0000
0003
0000
0000
0000
0000
0000
2000
0000
0000
0000
3000
0000
0000
0000
0020
0000
0000
0000
0030
0000
0000
0000
2000
0000
0000
0000
3000
0000
0000
0000
0020
0000
0000
0000
0000
0000
0000
0000
0000
0000
0000
0000
0030
0000
0000
0000
0000
0000
0000
0000
0000
0000
0000
0000
0200
0000
0000
0000
0000
0000
0000
0000
0000
0000
0000
0000
0300
0000
0000
0000
0000
0000
0000
0000
0000
0000
0000
0000
,
0002
0000
0000
0003
0000
0000
0000
0000
0000
0000
0000
0000
2000
0000
0000
3000
0000
0000
0200
0300
0020
0030
0200
0300
0020
0000
0000
0030
0000
0000
0000
0000
0000
0002
0000
0000
0003
0000
0000
0000
0000
0000
1000
0000
0000
0000
0000
0000
,
0002
0003
0000
0000
MMMM
0000
0000
0000
0002
0000
0003
0000
1000
0000
0000
0000
2010
0000
0000
0000
0000
0000
0000
0000
0000
0000
0000
0000
3200
0000
0000
0000
,
0000
0000
0000
0000
0000
0000
0000
0000
0302
0000
0000
0000
0203
0300
0020
0030
0002
0000
0003
0000
0000
0000
0000
0000
2000
0000
3000
0000
0000
0000
0000
0000
,
0020
0030
0200
0300
0000
0000
0002
0003
2000
0000
3000
0000
0200
0000
0300
0000
0020
0000
0030
0000
0000
0000
0000
0000
0200
0300
2000
3000
0020
0000
0030
0000
,
0200
0300
0002
0003
0020
0000
0030
0000
0200
0300
2000
3000
0000
0000
0002
0003
0200
0000
0000
0000
0000
0000
0000
0000
0000
0000
0000
0000
0000
0000
0000
0000
,
0310
1000
0001
1000
0100
0001
0100
0010
,
0001
0100
1000
0100
0010
0010
1000
1000
,
0001
0000
0010
0000
0100
0000
1000
0000
0200
0300
0000
0000
0200
0300
0000
0000
0001
0000
0000
0000
0100
0000
0010
0000
1000
0000
0000
0000
0100
0000
0010
0000
,
0001
0010
0100
0000
1000
0000
0001
0000
0100
0001
0010
0100
1000
0000
0100
1000
,
0010
0100
0001
0000
0010
0000
0100
0000
0110
0000
0000
0000
0010
0000
0001
1000
,
0010
1000
0100
0000
1000
0000
0001
0100
0010
0000
0010
0000
1000
0000
0001
0010
,
0100
1000
0100
0000
0010
0000
0001
1000
0010
0000
0001
0000
0010
0000
1000
0001
,
0010
0000
1000
0000
0010
0000
0001
0000
1000
0000
0001
0010
0000
0010
0100
0000
,
0100
1000
0000
1000
0001
0000
1000
0000
0020
0000
0000
0000
0000
0000
0000
0000
,
0000
0000
0230
0000
,
0000
0000
0302
0000
,
0000
0000
2003
0000
,
3002
0000
0000
0000
0023
0000
0130
1000
,
0001
0100
1000
0100
0002
0000
0010
0000
,
1000
0000
0103
0010
1000
1000
0001
0001
,
1000
0000
0100
0000
0010
0000
0001
0000
1000
0000
0010
0000
0100
0000
0001
0000
0000
0000
1000
0001
1000
0000
0100
0000
0010
0000
0000
0000
0010
0000
0000
0000
,
1001
0000
0000
0000
0000
0000
1000
0100
0010
0000
0000
0001
0000
0000
1000
0001
,
0010
0000
0000
0011
0000
0000
0110
0000
1100
0000
0000
0000
0000
0000
1000
0001
,
0200
0000
0000
0000
1000
0000
0000
0000
0301
0000
0000
0100
0000
0000
0010
0000
,
1010
0000
0000
0110
0000
0000
0100
0001
0010
0000
0000
0110
0000
0000
0100
1000
,
0001
0000
0000
0000
0000
0000
0001
0100
0010
0000
0000
1000
0000
0000
0100
1000
,
0010
0000
0000
1010
0000
0000
0101
0000
1100
0000
0000
0000
0000
0000
0100
0010
,
0001
0000
0010
0000
0001
0000
0100
0010
1000
0000
0010
0000
1000
0000
0001
0010
,
0100
0000
0000
0000
0100
0000
0000
0000
0100
0000
0010
0000
0001
1000
0001
0000
,
2001
0000
0000
0000
3010
0000
0100
0001
0100
0000
0010
0000
1000
0100
1000
0000
,
0010
0000
0100
0001
0100
0000
0010
0000
1000
0100
1000
0000
0100
0000
0010
0000
,
1002
0000
0013
0001
0100
1000
0100
0001
,
0010
0000
1000
0000
0010
0000
0001
0000
0100
0010
0100
0001
1000
0000
0000
0000
,
1001
0000
0000
1010
0000
0000
1000
0001
0010
0000
0000
0011
0000
0000
0010
0100
,
1000
0000
0000
1100
0000
0000
1000
0010
0100
0000
0000
0101
0000
0000
0001
1000
,
0010
0100
0010
0100
0001
1000
0001
1000
0010
1000
0100
0010
0001
0100
0010
0000
,
2010
0000
0000
0000
3200
0000
0000
0000
0302
0000
0103
0000
0010
0100
1000
0000
,
1001
0000
0000
0000
1000
0000
0001
0100
0001
0000
0000
0010
1000
0000
0010
0001
,
1000
0000
0010
0001
0000
0010
1000
0000
0001
0010
0000
0010
0100
0010
0100
1000
,
0001
0000
0010
0000
0100
1000
0100
1000
0001
0000
0000
0100
0010
0000
1000
0100
,
0001
0000
0000
0100
0010
0000
0001
0100
1000
0000
0100
0000
0001
0010
0100
1000
,
0001
0000
0100
0000
0010
0000
1000
0001
0010
0000
0000
0100
0010
0000
0001
1000
,
0010
0000
0000
0100
0010
0000
1000
0000
0100
0000
0010
0000
0001
0000
1000
0001
,
0010
0000
0000
0000
0000
0000
0100
0000
0000
0000
0000
0000
1000
0000
0000
0001
0000
0000
1000
0000
0001
0000
1000
0000
0001
0000
0000
0000
0000
0000
0000
0000
0000
0101
0000
0000
0000
0000
0000
0000
0000
0000
1100
0000
0000
0000
0000
0000
,
1001
0000
0000
0001
0000
0000
1000
0000
0001
0000
0000
0000
0000
0000
0000
0000
,
0020
0000
0000
0000
0030
0000
0000
0000
0002
0000
0000
0023
0000
0000
0230
0000
,
2300
0000
0000
3020
0000
0000
0230
0000
0302
0000
0000
0000
1003
0000
0000
0000
,
0001
0100
0010
0100
0002
0000
1003
0100
0010
0100
2000
0000
3001
0010
0100
0010
,
0002
0000
1003
0010
0100
0010
2000
0000
3001
0010
0100
1000
0100
0010
0001
1000
,
0001
0000
0000
0000
1001
0000
0001
0100
0010
0000
1000
0100
0000
0010
0001
1000
,
0010
0000
0100
0001
0000
0100
0010
0000
1000
0000
0100
0000
0001
0000
0100
0000
,
1000
0000
1000
0000
0001
0000
0001
0000
1000
0010
0100
0001
0010
0100
1000
0000
,
2010
0000
3200
0000
0302
1003
0010
0001
,
0010
0001
0010
0100
1000
0000
0010
1000
0010
0100
0001
0000
1000
0000
0001
0000
,
1000
0100
0010
0000
0001
0000
0100
0010
1000
0000
0000
1000
0000
0000
1000
0000
,
0001
0100
0110
0010
1000
0100
0110
0010
,
0001
0010
0100
0000
1000
0010
0100
0000
0001
0100
0010
1000
0100
0010
0001
0000
,
0011
0000
0000
0000
0000
0000
0000
0000
0000
1100
0000
0000
0000
0000
0000
0000
0000
0000
0100
0000
0000
1000
0000
0000
0010
0000
0000
0000
0000
0000
0000
0000
0000
0101
0000
0000
0000
0000
0000
0000
0000
0000
0001
0000
0010
0000
0001
0000
,
0010
0000
0000
0011
0000
0000
0010
0100
1000
0010
0000
1000
0010
0000
1000
0001
,
0100
0010
1000
0100
0010
0001
0100
0010
1000
0100
0001
0100
1000
0010
0100
0001
,
0000
0000
1000
0001
1000
0000
0100
0000
0010
0000
0000
0000
0010
0000
0000
0000
0000
0000
0000
0000
0000
0000
0000
0000
0000
0000
0000
0000
0000
0000
0000
0000
;
